VERSION	0.00.00	1.05.00
FES_MODE	1
BPM_DEF	130.000	130.000	130.000	130.000
MET_DEF	4	4
RESOLUTION	384
CLK_DEF	384
COMPATIBLE_CODE	MA2

BPM	0	0	130.000
MET	0	0	4	4

NMTHO	1	0	3	576	A	0	M1
NMTTP	1	192	4	A	0	M1
NMTTP	2	0	4	A	0	M1
NMTTP	2	192	4	A	1	M1
NMHLD	3	0	3	576
NMTAP	3	192	4
NMTAP	4	0	4
BRTAP	4	192	4
NMTHO	5	0	5	576	A	0	M1
NMTTP	5	192	4	A	0	M1
NMTTP	6	0	4	A	0	M1
NMTTP	6	192	4	A	1	M1
NMHLD	7	0	5	576
NMTAP	7	192	4
NMTAP	8	0	4
BRTAP	8	192	4
NMTHO	9	0	1	576	A	0	M1
NMTTP	9	192	3	A	0	M1
NMTTP	10	0	4	A	0	M1
NMTTP	10	192	3	A	1	M1
NMHLD	11	0	1	576
NMTAP	11	192	3
NMTAP	12	0	4
BRTAP	12	192	3
NMTHO	13	0	6	576	A	0	M1
NMTTP	13	192	4	A	0	M1
NMTTP	14	0	3	A	0	M1
NMTTP	14	192	4	A	1	M1
NMHLD	15	0	6	576
NMTAP	15	192	4
NMTAP	16	0	3
BRTAP	16	192	4
NMTHO	17	0	2	576	A	0	M1
NMTTP	17	192	3	A	0	M1
NMTTP	17	288	3	A	0	M1
NMTTP	18	0	4	A	0	M1
NMTTP	18	96	4	A	0	M1
NMTTP	18	192	3	A	1	M1
NMHLD	19	0	2	576
NMTAP	19	192	3
NMTAP	19	288	3
NMTAP	20	0	4
NMTAP	20	96	4
BRTAP	20	192	3
NMTHO	21	0	6	576	A	0	M1
NMTTP	21	192	4	A	0	M1
NMTTP	21	288	4	A	0	M1
NMTTP	22	0	5	A	0	M1
NMTTP	22	96	5	A	0	M1
NMTTP	22	192	4	A	1	M1
NMHLD	23	0	6	576
NMTAP	23	192	4
NMTAP	23	288	4
NMTAP	24	0	5
NMTAP	24	96	5
BRTAP	24	192	4
NMTHO	25	0	1	576	A	0	M1
NMTTP	25	96	6	A	0	M1
NMTTP	25	192	5	A	0	M1
NMTTP	25	288	4	A	0	M1
NMTTP	26	0	3	A	0	M1
NMTTP	26	96	2	A	0	M1
NMTTP	26	192	0	A	1	M1
NMHLD	27	0	1	576
NMTAP	27	96	6
NMTAP	27	192	5
NMTAP	27	288	4
NMTAP	28	0	3
NMTAP	28	96	2
BRTAP	28	192	0
NMTHO	29	0	6	576	A	0	M1
NMTTP	29	96	1	A	0	M1
NMTTP	29	192	2	A	0	M1
NMTTP	29	288	3	A	0	M1
NMTTP	30	0	4	A	0	M1
NMTTP	30	96	5	A	0	M1
NMTTP	30	192	7	A	1	M1
NMHLD	31	0	6	576
NMTAP	31	96	1
NMTAP	31	192	2
NMTAP	31	288	3
NMTAP	32	0	4
NMTAP	32	96	5
BRTAP	32	192	7
NMTHO	33	0	1	576	A	0	M1
NMTTP	33	96	4	A	0	M1
NMTTP	33	192	3	A	0	M1
NMTTP	33	288	5	A	0	M1
NMTTP	34	0	2	A	0	M1
NMTTP	34	96	6	A	0	M1
NMTTP	34	192	0	A	1	M1
NMHLD	35	0	1	576
NMTAP	35	96	4
NMTAP	35	192	3
NMTAP	35	288	5
NMTAP	36	0	2
NMTAP	36	96	6
BRTAP	36	192	0
NMTHO	37	0	6	576	A	0	M1
NMTTP	37	96	3	A	0	M1
NMTTP	37	192	4	A	0	M1
NMTTP	37	288	2	A	0	M1
NMTTP	38	0	5	A	0	M1
NMTTP	38	96	1	A	0	M1
NMTTP	38	192	7	A	1	M1
NMHLD	39	0	6	576
NMTAP	39	96	3
NMTAP	39	192	4
NMTAP	39	288	2
NMTAP	40	0	5
NMTAP	40	96	1
BRTAP	40	192	7
NMTHO	41	0	1	576	A	0	M1
NMTTP	41	192	7	A	0	M1
NMTTP	41	288	7	B	0	M1
NMTTP	42	0	0	C	0	M1
NMTTP	42	96	3	B	0	M1
NMTTP	42	192	3	A	1	M1
NMHLD	43	0	1	576
NMSTR	43	192	7
NMSI_	43	192	7	0	384	3
NMTHO	45	0	4	576	A	0	M1
NMTTP	45	192	1	A	0	M1
NMTTP	45	288	1	B	0	M1
NMTTP	46	0	0	C	0	M1
NMTTP	46	96	5	B	0	M1
NMTTP	46	192	5	A	1	M1
NMHLD	47	0	4	576
NMSTR	47	192	1
NMSI_	47	192	1	0	384	5
NMTHO	49	0	0	576	A	0	M1
NMTTP	49	96	6	A	0	M1
NMTTP	49	192	5	A	0	M1
NMTTP	49	288	4	A	0	M1
NMTTP	50	0	3	A	0	M1
NMTTP	50	96	0	C	0	M1
NMTTP	50	192	7	A	1	M1
NMHLD	51	0	0	576
NMTAP	51	96	6
NMTAP	51	192	5
NMTAP	51	288	4
NMSTR	52	0	3
NMSI_	52	0	3	0	192	7
NMTHO	53	0	6	576	A	0	M1
NMTTP	53	96	1	A	0	M1
NMTTP	53	192	2	A	0	M1
NMTTP	53	288	3	A	0	M1
NMTTP	54	0	4	A	0	M1
NMTTP	54	96	0	C	0	M1
NMTTP	54	192	0	A	1	M1
NMHLD	55	0	6	576
NMTAP	55	96	1
NMTAP	55	192	2
NMTAP	55	288	3
NMSTR	56	0	4
NMSI_	56	0	4	0	192	0
NMTHO	57	0	1	576	A	0	M1
NMTTP	57	192	7	A	0	M1
NMTTP	57	208	7	E	0	M1
NMTTP	57	224	6	B	0	M1
NMTTP	57	240	5	B	0	M1
NMTTP	57	256	5	E	0	M1
NMTTP	57	272	4	A	0	M1
NMTTP	58	0	7	A	0	M1
NMTTP	58	16	0	E	0	M1
NMTTP	58	32	0	B	0	M1
NMTTP	58	48	1	B	0	M1
NMTTP	58	64	2	E	0	M1
NMTTP	58	80	2	A	0	M1
NMTTP	58	192	7	A	1	M1
NMHLD	59	0	1	576
NMSTR	59	192	7
NMSI_	59	192	7	0	96	4
NMSTR	60	0	7
NMSI_	60	0	7	0	96	2
BRTAP	60	192	7
NMTHO	61	0	6	576	A	0	M1
NMTTP	61	192	0	A	0	M1
NMTTP	61	208	1	E	0	M1
NMTTP	61	224	1	B	0	M1
NMTTP	61	240	2	B	0	M1
NMTTP	61	256	3	E	0	M1
NMTTP	61	272	3	A	0	M1
NMTTP	62	0	0	A	0	M1
NMTTP	62	16	0	E	0	M1
NMTTP	62	32	7	B	0	M1
NMTTP	62	48	6	B	0	M1
NMTTP	62	64	6	E	0	M1
NMTTP	62	80	5	A	0	M1
NMTTP	62	192	0	A	1	M1
NMHLD	63	0	6	576
NMSTR	63	192	0
NMSI_	63	192	0	0	96	3
NMSTR	64	0	0
NMSI_	64	0	0	0	96	5
BRTAP	64	192	0
NMTHO	65	0	2	576	A	0	M1
NMTTP	65	96	4	A	0	M1
NMTTP	65	192	6	A	0	M1
NMTTP	65	288	0	A	0	M1
NMTTP	66	0	0	A	0	M1
NMTTP	66	8	0	E	0	M1
NMTTP	66	16	7	B	0	M1
NMTTP	66	24	6	B	0	M1
NMTTP	66	32	6	E	0	M1
NMTTP	66	40	5	A	0	M1
NMTTP	66	96	0	A	0	M1
NMTTP	66	104	1	E	0	M1
NMTTP	66	112	1	B	0	M1
NMTTP	66	120	2	B	0	M1
NMTTP	66	128	3	E	0	M1
NMTTP	66	136	3	A	0	M1
NMTTP	66	192	0	A	1	M1
NMHLD	67	0	2	576
NMTAP	67	96	4
NMTAP	67	192	6
NMTAP	67	288	0
NMSTR	68	0	0
NMSI_	68	0	0	0	48	5
NMSTR	68	96	0
NMSI_	68	96	0	0	48	3
BRTAP	68	192	0
NMTHO	69	0	4	576	A	0	M1
NMTTP	69	96	2	A	0	M1
NMTTP	69	192	0	A	0	M1
NMTTP	69	288	6	A	0	M1
NMTTP	70	0	6	A	0	M1
NMTTP	70	8	7	E	0	M1
NMTTP	70	16	7	B	0	M1
NMTTP	70	24	0	B	0	M1
NMTTP	70	32	1	E	0	M1
NMTTP	70	40	1	A	0	M1
NMTTP	70	96	6	A	0	M1
NMTTP	70	104	6	E	0	M1
NMTTP	70	112	5	B	0	M1
NMTTP	70	120	4	B	0	M1
NMTTP	70	128	4	E	0	M1
NMTTP	70	136	3	A	0	M1
NMTTP	70	192	6	A	1	M1
NMHLD	71	0	4	576
NMTAP	71	96	2
NMTAP	71	192	0
NMTAP	71	288	6
NMSTR	72	0	6
NMSI_	72	0	6	0	48	1
NMSTR	72	96	6
NMSI_	72	96	6	0	48	3
BRTAP	72	192	6
NMTHO	73	0	1	576	A	0	M1
NMTTP	73	96	3	A	0	M1
NMTTP	73	192	5	A	0	M1
NMTTP	73	288	7	A	0	M1
NMTTP	73	300	7	B	0	M1
NMTTP	73	312	0	C	0	M1
NMTTP	73	324	4	B	0	M1
NMTTP	73	336	4	A	0	M1
NMTTP	74	0	7	A	0	M1
NMTTP	74	12	7	B	0	M1
NMTTP	74	24	0	C	0	M1
NMTTP	74	36	2	B	0	M1
NMTTP	74	48	2	A	0	M1
NMTTP	74	96	7	A	0	M1
NMTTP	74	108	7	B	0	M1
NMTTP	74	120	0	C	0	M1
NMTTP	74	132	3	B	0	M1
NMTTP	74	144	3	A	0	M1
NMTTP	74	192	7	A	1	M1
NMHLD	75	0	1	576
NMTAP	75	96	3
NMTAP	75	192	5
NMSTR	75	288	7
NMSV_	75	288	7	0	48	4
NMSTR	76	0	7
NMSV_	76	0	7	0	48	2
NMSTR	76	96	7
NMSI_	76	96	7	0	48	3
BRTAP	76	192	7
NMTHO	77	0	6	576	A	0	M1
NMTTP	77	96	4	A	0	M1
NMTTP	77	192	2	A	0	M1
NMTTP	77	288	0	A	0	M1
NMTTP	77	300	0	B	0	M1
NMTTP	77	312	0	C	0	M1
NMTTP	77	324	4	B	0	M1
NMTTP	77	336	4	A	0	M1
NMTTP	78	0	7	A	0	M1
NMTTP	78	12	7	E	0	M1
NMTTP	78	24	6	E	0	M1
NMTTP	78	36	5	A	0	M1
NMTTP	78	96	1	A	0	M1
NMTTP	78	108	2	E	0	M1
NMTTP	78	120	3	E	0	M1
NMTTP	78	132	3	A	0	M1
NMTTP	78	192	0	A	1	M1
NMHLD	79	0	6	576
NMTAP	79	96	4
NMTAP	79	192	2
NMSTR	79	288	0
NMSI_	79	288	0	0	48	4
NMSTR	80	0	7
NMSI_	80	0	7	0	48	5
NMSTR	80	96	1
NMSI_	80	96	1	0	48	3
BRTAP	80	192	0
NMTHO	80	288	0	96	C	1	M1
NMTTP	81	0	0	A	0	M1
NMTTP	81	0	0	D	0	M1
NMTTP	81	0	1	B	0	M1
NMTTP	81	0	1	A	0	M1
NMTTP	81	0	1	D	0	M1
NMTTP	81	0	2	B	0	M1
NMTTP	81	0	2	A	0	M1
NMTTP	81	0	3	A	0	M1
NMTTP	81	0	3	D	0	M1
NMTTP	81	0	4	A	0	M1
NMTTP	81	0	4	D	0	M1
NMTTP	81	0	7	A	0	M1

T_REC_TAP	52
T_REC_BRK	16
T_REC_XTP	0
T_REC_BXX	0
T_REC_HLD	20
T_REC_XHO	0
T_REC_BHO	0
T_REC_BXH	0
T_REC_STR	18
T_REC_BST	0
T_REC_XST	0
T_REC_XBS	0
T_REC_TTP	172
T_REC_THO	21
T_REC_SLD	18
T_REC_BSL	0
T_REC_ALL	317
T_NUM_TAP	242
T_NUM_BRK	16
T_NUM_HLD	41
T_NUM_SLD	18
T_NUM_ALL	317
T_JUDGE_TAP	258
T_JUDGE_HLD	482
T_JUDGE_SLD	18
T_JUDGE_ALL	758
TTM_EACHPAIRS	0
TTM_SCR_TAP	121000
TTM_SCR_BRK	41600
TTM_SCR_HLD	41000
TTM_SCR_SLD	27000
TTM_SCR_ALL	230600
TTM_SCR_S	222150
TTM_SCR_SS	229000
TTM_RAT_ACV	10069

