VERSION	0.00.00	1.05.00
FES_MODE	1
BPM_DEF	141.000	141.000	141.000	141.000
MET_DEF	4	4
RESOLUTION	384
CLK_DEF	384
COMPATIBLE_CODE	MA2

BPM	0	0	141.000
MET	0	0	4	4

NMSTR	1	0	0
NMSI_	1	0	0	96	48	4
NMTAP	1	96	0
NMHLD	1	192	6	72
NMHLD	1	264	5	72
NMTAP	1	336	4
NMTAP	2	0	4
NMTAP	2	48	3
NMTAP	2	96	3
NMTAP	2	144	2
NMTAP	2	144	4
NMTAP	2	192	2
NMTAP	2	192	4
NMTAP	2	240	2
NMTAP	2	264	3
NMTAP	2	288	1
NMTAP	2	336	0
NMHLD	2	360	0	72
NMTAP	3	48	3
NMTAP	3	96	6
NMTAP	3	120	4
NMHLD	3	168	7	72
NMTAP	3	240	4
NMTAP	3	288	1
NMTAP	3	312	3
NMHLD	3	360	0	72
NMTAP	4	48	3
NMTAP	4	72	1
NMTAP	4	96	4
NMTAP	4	120	2
NMTAP	4	144	4
NMTAP	4	168	2
NMTAP	4	192	5
NMTAP	4	216	1
NMTAP	4	240	5
NMTAP	4	264	1
BRTAP	4	288	6
NMSTR	5	0	7
NMSI_	5	0	7	96	48	3
NMTAP	5	96	7
NMHLD	5	192	1	72
NMHLD	5	264	2	72
NMTAP	5	336	3
NMTAP	6	0	3
NMTAP	6	48	4
NMTAP	6	96	4
NMTAP	6	144	3
NMTAP	6	144	5
NMTAP	6	192	4
NMTAP	6	192	6
NMTAP	6	240	4
NMTAP	6	240	6
NMTAP	6	288	6
NMTAP	6	312	6
NMTAP	6	336	4
NMHLD	6	360	7	72
NMTAP	7	48	4
NMTAP	7	96	1
NMTAP	7	120	3
NMHLD	7	168	0	72
NMTAP	7	240	3
NMTAP	7	288	5
NMTAP	7	312	4
NMTAP	7	336	5
NMTAP	7	360	3
NMTAP	7	360	6
NMTAP	8	24	1
NMTAP	8	48	3
NMTAP	8	72	2
NMTAP	8	96	6
NMTAP	8	120	6
NMTAP	8	144	4
NMTAP	8	168	7
NMTAP	8	192	1
NMTAP	8	216	1
NMTAP	8	240	3
NMTAP	8	264	0
NMTAP	8	288	6
NMTAP	8	312	6
NMTAP	8	336	4
BRTAP	8	360	7
NMSTR	9	0	3
NMSI_	9	0	3	96	48	1
NMSI_	9	0	3	96	48	5
NMTAP	9	96	3
NMHLD	9	192	6	72
NMHLD	9	264	5	72
NMTAP	9	336	4
NMTAP	10	0	2
NMTAP	10	0	3
NMTAP	10	48	2
NMTAP	10	48	3
NMTAP	10	96	4
NMTAP	10	96	5
NMTAP	10	144	4
NMTAP	10	144	5
NMTAP	10	192	1
NMTAP	10	216	3
NMTAP	10	240	2
NMTAP	10	264	3
NMSTR	10	288	1
NMSCL	10	288	1	96	48	7
NMTAP	10	312	3
NMTAP	10	336	2
NMTAP	10	360	3
NMSTR	11	0	4
NMSI_	11	0	4	96	48	2
NMSI_	11	0	4	96	48	6
NMTAP	11	96	4
NMHLD	11	192	1	72
NMHLD	11	264	2	72
NMTAP	11	336	3
NMTAP	12	0	4
NMTAP	12	0	5
NMTAP	12	48	4
NMTAP	12	48	5
NMTAP	12	96	2
NMTAP	12	96	3
NMTAP	12	144	2
NMTAP	12	144	3
NMTAP	12	192	6
NMTAP	12	216	4
NMTAP	12	240	5
NMTAP	12	264	4
NMSTR	12	288	6
NMSCR	12	288	6	96	48	0
NMTAP	12	312	4
NMTAP	12	336	5
NMTAP	12	360	4
NMSTR	13	0	3
NMSI_	13	0	3	96	48	1
NMSI_	13	0	3	96	48	5
NMTAP	13	96	3
NMHLD	13	192	5	72
NMHLD	13	264	6	72
NMTAP	13	336	7
NMTAP	14	0	0
NMTAP	14	0	1
NMTAP	14	48	0
NMTAP	14	48	1
NMTAP	14	96	6
NMTAP	14	96	7
NMTAP	14	144	6
NMTAP	14	144	7
NMTAP	14	192	1
NMTAP	14	216	3
NMTAP	14	240	2
NMTAP	14	264	3
NMSTR	14	288	1
NMSCL	14	288	1	96	48	7
NMTAP	14	312	3
NMTAP	14	336	2
NMTAP	14	360	3
NMSTR	15	0	4
NMSI_	15	0	4	96	48	2
NMSI_	15	0	4	96	48	6
NMTAP	15	96	4
NMHLD	15	192	2	72
NMHLD	15	264	1	72
NMTAP	15	336	0
NMTAP	16	0	6
NMTAP	16	0	7
NMTAP	16	48	6
NMTAP	16	48	7
NMTAP	16	96	0
NMTAP	16	96	1
NMTAP	16	144	0
NMTAP	16	144	1
NMTAP	16	192	6
NMTAP	16	192	7
NMTAP	16	240	5
NMTAP	16	264	4
BRTAP	16	312	3
BRTAP	16	312	6
BRTAP	16	360	3
BRTAP	16	360	6
NMTAP	17	48	2
NMTTP	17	96	4	E	1	M1
NMTAP	17	144	0
NMTAP	17	168	0
NMTAP	17	192	3
NMTAP	17	216	3
NMTAP	17	240	0
NMTAP	17	264	0
NMHLD	17	288	4	48
NMHLD	17	336	7	48
NMTAP	18	0	1
NMTAP	18	48	5
NMTAP	18	72	5
NMTAP	18	96	4
NMTAP	18	120	4
NMTAP	18	144	2
NMTAP	18	168	2
NMTAP	18	192	4
NMTAP	18	216	4
NMTAP	18	240	3
NMTAP	18	240	5
NMTAP	18	264	3
NMTAP	18	264	5
NMTAP	18	312	2
NMTAP	18	312	4
NMTAP	18	360	1
NMTAP	18	360	3
NMHLD	19	48	1	48
NMHLD	19	96	3	48
NMHLD	19	144	4	48
NMHLD	19	192	6	48
NMHLD	19	240	4	48
NMHLD	19	288	3	48
NMHLD	19	336	1	48
NMHLD	20	0	3	48
NMHLD	20	48	4	48
NMHLD	20	96	6	48
NMHLD	20	144	4	48
NMHLD	20	192	3	48
NMTAP	20	240	1
NMTAP	20	288	0
NMTAP	20	288	4
NMTAP	20	336	0
NMTAP	20	336	4
NMTAP	21	48	1
NMTAP	21	72	3
NMTAP	21	96	2
NMTAP	21	144	5
NMTAP	21	168	4
NMTAP	21	216	3
NMTAP	21	216	6
NMTAP	21	264	2
NMTAP	21	288	3
NMTAP	21	336	1
NMTAP	21	336	4
NMTAP	22	0	5
NMTAP	22	24	4
NMTAP	22	72	3
NMTAP	22	72	6
NMTAP	22	120	1
NMTAP	22	144	3
NMTAP	22	168	2
NMTAP	22	192	6
NMTAP	22	216	6
NMTAP	22	240	4
NMTAP	22	264	5
NMTAP	22	288	2
NMTAP	22	312	2
NMTAP	22	336	4
NMTAP	22	360	3
NMTAP	23	0	5
NMTAP	23	24	5
NMTAP	23	48	4
NMTAP	23	96	3
NMTAP	23	96	6
NMSTR	23	144	2
NMSI_	23	144	2	96	48	6
NMTAP	23	192	1
NMTAP	23	192	4
NMHLD	23	240	5	96
NMTAP	23	336	7
NMTAP	24	0	4
NMTAP	24	48	3
NMTAP	24	96	0
NMTAP	24	144	0
NMTAP	24	192	1
NMTAP	24	192	7
NMTAP	24	240	1
NMTAP	24	240	7
NMTAP	24	288	2
NMTAP	24	288	6
NMTAP	24	336	2
NMTAP	24	336	6
BRTAP	25	0	3
BRTAP	25	0	5
NMTAP	25	96	1
NMTAP	25	120	0
NMTAP	25	144	1
NMTAP	25	168	0
NMTAP	25	192	2
NMTAP	25	216	7
NMTAP	25	240	2
NMHLD	25	264	7	72
NMTAP	25	336	4
NMTAP	25	360	4
NMTAP	26	0	6
NMTAP	26	48	1
NMTAP	26	48	3
NMTAP	26	96	2
NMTAP	26	144	6
NMTAP	26	168	6
NMTAP	26	192	4
NMTAP	26	240	1
NMTAP	26	240	3
NMTAP	26	288	2
NMTAP	26	288	3
NMTAP	26	336	4
NMTAP	26	336	6
NMTAP	27	0	4
NMTAP	27	0	5
NMTAP	27	96	6
NMTAP	27	120	7
NMTAP	27	144	6
NMTAP	27	168	7
NMTAP	27	192	5
NMTAP	27	216	0
NMTAP	27	240	5
NMHLD	27	264	0	72
NMTAP	27	336	3
NMTAP	27	360	3
NMTAP	28	0	1
NMTAP	28	48	4
NMTAP	28	48	6
NMTAP	28	96	5
NMTAP	28	144	1
NMTAP	28	168	1
NMTAP	28	192	3
NMTAP	28	240	4
NMTAP	28	240	6
NMTAP	28	288	4
NMTAP	28	288	5
NMTAP	28	336	1
NMTAP	28	336	3
NMSTR	29	0	2
NMSI_	29	0	2	96	48	0
NMSTR	29	0	3
NMSI_	29	0	3	96	48	7
NMTAP	29	96	2
NMTAP	29	96	3
NMSTR	29	192	4
NMSI_	29	192	4	96	48	0
NMSTR	29	192	5
NMSI_	29	192	5	96	48	7
NMTAP	29	288	4
NMTAP	29	288	5
NMTAP	30	0	1
NMTAP	30	24	1
NMTAP	30	48	3
NMTAP	30	96	6
NMTAP	30	120	6
NMTAP	30	144	4
NMTAP	30	168	5
NMTAP	30	216	1
NMTAP	30	240	3
NMTAP	30	288	2
NMTAP	30	288	4
NMTAP	30	336	2
NMTAP	30	336	4
NMTAP	31	0	5
NMTAP	31	24	5
NMTAP	31	48	4
NMTAP	31	72	4
NMHLD	31	96	6	48
NMTAP	31	144	7
NMTAP	31	168	7
NMTAP	31	216	0
NMTAP	31	216	1
NMTAP	31	264	2
NMSTR	31	288	3
NMSCL	31	288	3	96	144	4
NMTAP	31	336	4
NMTAP	31	336	5
NMTTP	32	0	0	C	1	M1
NMTAP	32	240	1
NMTAP	32	240	6
NMTAP	32	264	2
NMTAP	32	264	5
NMTAP	32	288	3
NMSTR	32	288	4
NMSI_	32	288	4	96	48	7
NMTAP	32	336	2
NMTAP	32	336	5
NMTAP	33	0	4
NMTAP	33	48	1
NMTAP	33	72	1
NMTAP	33	96	0
NMTAP	33	144	6
NMHLD	33	168	6	48
NMTAP	33	216	7
NMTAP	33	264	4
NMTAP	33	264	5
NMTAP	33	288	4
NMTAP	33	288	5
NMTAP	33	336	3
NMTAP	33	336	6
NMTAP	34	0	1
NMTAP	34	24	1
NMTAP	34	48	3
NMTAP	34	72	3
NMTAP	34	96	2
NMHLD	34	120	2	48
NMTAP	34	168	0
NMTAP	34	216	0
NMTAP	34	216	2
NMTAP	34	288	0
NMTAP	34	288	6
NMTAP	34	336	1
NMTAP	34	336	5
NMTAP	35	0	2
NMTAP	35	0	4
NMTAP	35	48	6
NMTAP	35	72	6
NMTAP	35	96	7
NMTAP	35	144	1
NMHLD	35	168	1	48
NMTAP	35	216	0
NMTAP	35	264	2
NMTAP	35	264	3
NMTAP	35	288	2
NMTAP	35	288	3
NMTAP	35	336	1
NMTAP	35	336	4
BRTAP	36	0	2
BRTAP	36	0	5
BRTAP	36	48	3
BRTAP	36	48	6
BRHLD	36	96	5	48
BRTAP	36	144	7
BRTAP	36	168	7
NMTAP	36	216	0
NMTAP	36	216	2
NMTAP	36	240	0
NMTAP	36	240	2
NMTAP	36	288	2
NMSTR	36	288	4
NMSUL	36	288	4	96	144	3
NMTAP	36	336	1
NMTAP	36	336	5
BRTAP	37	0	0
CNSCL	37	144	3	0	144	5
NMTAP	38	0	0
NMTAP	38	0	7
NMTAP	38	24	0
NMTAP	38	24	7
NMTAP	38	72	2
NMTAP	38	72	5
NMTAP	38	120	1
NMTAP	38	120	6
NMTAP	38	168	3
NMTAP	38	168	4
NMSTR	38	192	3
NMSCL	38	192	3	96	48	0
NMSTR	38	192	4
NMSCR	38	192	4	96	48	7
BRTAP	38	288	3
BRTAP	38	288	4
NMSTR	39	0	0
NMSF_	39	0	0	96	48	4
BRTAP	39	96	0
EXTAP	39	192	3
EXTAP	39	192	5
NMTAP	39	240	2
NMTAP	39	264	4
NMTAP	39	312	5
NMTAP	39	336	3
BRTAP	40	0	4
BRTAP	40	0	6
BRTAP	40	48	1
BRTAP	40	48	3
BRTAP	40	96	4
BRTAP	40	96	5
BRTAP	40	144	2
BRTAP	40	144	3
BRTAP	40	192	4
BRTAP	40	192	6
NMTAP	40	240	5
NMTAP	40	264	5
NMTAP	40	288	4
NMTAP	40	336	2
NMTAP	40	360	3
NMTAP	41	24	1
NMTAP	41	48	0
NMTAP	41	96	6
NMTAP	41	120	7
NMTAP	41	168	4
NMTAP	41	168	5
NMTAP	41	216	2
NMTAP	41	240	3
NMTAP	41	288	1
NMTAP	41	312	0
NMTAP	41	360	6
NMTAP	41	360	7
NMTAP	42	24	5
NMTAP	42	48	4
NMTAP	42	96	1
NMTAP	42	120	1
NMTAP	42	144	3
NMTAP	42	168	3
BRTAP	42	192	4
NMTAP	42	216	4
BRTAP	42	240	6
NMTAP	42	264	6
BRTAP	42	288	0
NMTAP	42	312	0
BRTAP	42	336	7
NMSTR	43	0	0
NMSF_	43	0	0	96	48	4
BRTAP	43	96	0
EXTAP	43	192	3
EXTAP	43	192	5
NMTAP	43	240	2
NMTAP	43	264	4
NMTAP	43	312	5
NMTAP	43	336	3
BRTAP	44	0	4
BRTAP	44	0	6
BRTAP	44	48	1
BRTAP	44	48	3
BRTAP	44	96	5
BRTAP	44	96	6
BRTAP	44	144	1
BRTAP	44	144	2
BRTAP	44	192	4
BRTAP	44	192	6
NMTAP	44	240	5
NMTAP	44	264	5
NMTAP	44	288	4
NMTAP	44	336	6
NMTAP	44	360	7
NMTAP	45	24	1
NMTAP	45	48	0
NMTAP	45	96	2
NMTAP	45	120	3
NMTAP	45	168	4
NMTAP	45	168	5
NMTAP	45	216	6
NMTAP	45	240	7
NMTAP	45	288	1
NMTAP	45	312	0
NMTAP	45	360	2
NMTAP	45	360	3
NMTAP	46	24	5
NMTAP	46	48	4
NMTAP	46	96	6
NMTAP	46	96	7
NMTAP	46	144	6
NMTAP	46	144	7
BRTAP	46	192	0
BRTAP	46	192	5
BRTAP	46	240	2
BRTAP	46	240	7
BRTAP	46	264	0
BRTAP	46	264	5
BRTAP	46	312	2
BRTAP	46	312	7
BRHLD	46	360	0	120
BRHLD	46	360	5	120
NMTAP	47	144	1
NMTAP	47	168	3
NMTAP	47	192	1
NMTAP	47	240	6
NMTAP	47	264	4
NMTAP	47	288	6
NMTAP	47	336	1
NMTAP	47	360	3
NMTAP	48	0	2
NMTAP	48	48	6
NMTAP	48	72	4
NMTAP	48	96	5
NMTAP	48	144	1
NMTAP	48	168	3
NMTAP	48	192	1
NMTAP	48	216	3
NMTAP	48	240	2
NMTAP	48	264	4
NMTAP	48	288	3
NMTAP	48	312	5
NMTAP	48	336	3
NMTAP	48	360	5
NMTAP	49	0	2
NMTAP	49	24	2
NMTAP	49	48	0
NMTAP	49	72	0
NMTAP	49	96	7
NMTAP	49	120	7
NMTAP	49	144	5
NMTAP	49	168	5
NMTAP	49	192	3
NMTAP	49	216	3
NMTAP	49	240	4
NMTAP	49	264	4
NMTAP	49	288	2
NMTAP	49	336	1
NMTAP	49	336	3
NMTAP	50	0	5
NMTAP	50	24	5
NMTAP	50	48	7
NMTAP	50	72	7
NMTAP	50	96	0
NMTAP	50	120	0
NMTAP	50	144	2
NMTAP	50	168	2
BRTAP	50	192	4
NMTAP	50	216	4
BRTAP	50	240	3
NMTAP	50	264	3
BRSTR	50	288	5
NMSI_	50	288	5	96	48	0
NMSI_	50	288	5	96	48	2
NMTAP	50	312	5
NMTAP	50	336	4
NMHLD	51	96	1	96
NMHLD	51	192	3	72
NMHLD	51	264	4	72
NMTAP	51	336	6
BRTAP	52	0	6
BRTAP	52	48	1
BRTAP	52	48	3
BRTAP	52	96	4
BRTAP	52	96	6
BRTAP	52	144	1
BRTAP	52	144	3
BRTAP	52	192	5
BRTAP	52	192	6
NMTAP	52	240	3
NMTAP	52	264	3
NMTAP	52	288	4
NMTAP	52	336	1
NMTAP	52	360	2
NMTAP	53	24	7
NMTAP	53	48	0
NMTAP	53	96	6
NMTAP	53	120	5
NMTAP	53	168	3
NMTAP	53	168	4
NMTAP	53	216	1
NMTAP	53	240	2
NMTAP	53	288	7
NMTAP	53	312	0
NMHLD	53	360	5	120
NMHLD	53	360	6	120
NMTAP	54	120	7
NMTAP	54	144	7
NMTAP	54	168	0
NMHLD	54	192	0	48
NMTAP	54	240	3
NMTAP	54	288	5
NMTAP	54	312	5
NMTAP	54	336	4
BRSTR	54	360	6
NMSCL	54	360	6	96	48	3
NMHLD	55	144	1	48
NMHLD	55	192	3	48
NMHLD	55	240	5	48
NMHLD	55	288	7	48
NMHLD	55	336	1	48
NMTAP	56	0	3
NMTAP	56	24	3
NMTAP	56	48	5
NMTAP	56	72	5
NMTAP	56	96	7
NMTAP	56	120	7
NMTAP	56	144	1
NMTAP	56	168	1
NMTAP	56	192	3
NMTAP	56	216	3
NMTAP	56	240	5
NMTAP	56	264	5
NMTAP	56	288	7
NMTAP	56	312	7
NMTAP	56	336	1
NMTAP	56	360	1
NMTAP	57	0	4
NMTAP	57	24	4
NMTAP	57	48	2
NMTAP	57	72	2
BRTAP	57	96	0
NMTAP	57	120	0
NMTAP	57	144	6
NMTAP	57	168	6
NMTAP	57	192	4
NMTAP	57	216	4
NMTAP	57	240	2
NMTAP	57	264	2
NMTAP	57	288	0
NMTAP	57	312	0
NMTAP	57	336	6
NMTAP	57	360	6
NMTAP	58	0	4
NMTAP	58	48	3
NMTAP	58	48	5
NMTAP	58	96	3
NMTAP	58	96	5
NMTAP	58	144	2
NMTAP	58	168	4
NMTAP	58	216	5
NMTAP	58	240	3
NMTAP	58	264	5
NMTAP	58	288	3
NMTAP	58	336	2
NMTAP	58	336	6
NMTAP	59	0	2
NMTAP	59	0	6
NMTAP	59	48	1
NMTAP	59	72	1
NMTAP	59	96	0
NMTAP	59	120	2
NMTAP	59	144	6
NMTAP	59	168	6
NMTAP	59	192	7
NMTAP	59	216	5
NMSTR	59	240	1
NMSI_	59	240	1	96	48	5
NMTAP	59	264	1
NMTAP	59	288	0
NMTAP	60	24	6
NMTAP	60	48	6
NMTAP	60	72	7
NMTAP	60	96	7
NMTAP	60	120	5
NMTAP	60	144	1
NMTAP	60	168	1
NMTAP	60	192	0
NMTAP	60	216	2
NMSTR	60	240	6
NMSI_	60	240	6	96	48	2
NMTAP	60	264	6
NMTAP	60	288	7
NMTAP	61	48	1
NMTAP	61	72	1
NMTAP	61	96	0
NMTAP	61	120	2
NMTAP	61	144	6
NMTAP	61	168	6
NMTAP	61	192	7
NMTAP	61	216	5
NMTAP	61	240	1
NMTAP	61	264	1
NMTAP	61	288	0
NMTAP	61	336	2
NMTAP	61	336	7
BRTAP	62	0	0
BRTAP	62	0	5
BRTAP	62	24	2
BRTAP	62	24	7
BRTAP	62	72	0
BRTAP	62	72	5
BRTAP	62	120	2
BRTAP	62	120	7
BRTAP	62	168	0
BRTAP	62	168	5
BRTAP	62	192	2
BRTAP	62	192	7
BRTAP	62	240	4
NMTAP	62	252	3
NMTAP	62	264	2
NMTAP	62	276	1
NMTAP	62	288	0
NMTAP	62	300	7
NMTAP	62	312	6
NMTAP	62	324	5
NMTAP	62	336	4
NMTAP	62	348	3
NMTAP	62	360	2
NMTAP	62	372	1
NMSTR	63	0	0
NMSF_	63	0	0	96	48	4
BRTAP	63	96	0
EXTAP	63	192	3
EXTAP	63	192	5
NMTAP	63	240	2
NMTAP	63	264	4
NMTAP	63	312	5
NMTAP	63	336	3
BRTAP	64	0	5
BRTAP	64	0	7
BRTAP	64	48	0
BRTAP	64	48	2
BRTAP	64	96	4
BRTAP	64	96	6
BRTAP	64	144	1
BRTAP	64	144	3
BRTAP	64	192	5
BRTAP	64	192	6
NMTAP	64	240	5
NMTAP	64	264	5
NMTAP	64	288	4
NMTAP	64	336	2
NMTAP	64	360	3
NMTAP	65	24	1
NMTAP	65	48	0
NMTAP	65	96	6
NMTAP	65	120	7
NMTAP	65	168	4
NMTAP	65	168	5
NMTAP	65	216	2
NMTAP	65	240	3
NMTAP	65	288	1
NMTAP	65	312	0
NMTAP	65	360	6
NMTAP	65	360	7
NMTAP	66	24	5
NMTAP	66	48	4
NMTAP	66	96	1
NMTAP	66	120	1
NMTAP	66	144	3
NMTAP	66	168	3
BRTAP	66	192	4
NMTAP	66	216	4
BRTAP	66	240	6
NMTAP	66	264	6
BRTAP	66	288	0
NMTAP	66	312	0
BRTAP	66	336	7
NMSTR	67	0	0
NMSF_	67	0	0	96	48	4
BRTAP	67	96	0
EXTAP	67	192	3
EXTAP	67	192	5
NMTAP	67	240	2
NMTAP	67	264	4
NMTAP	67	312	5
NMTAP	67	336	3
BRTAP	68	0	6
BRTAP	68	0	7
BRTAP	68	48	0
BRTAP	68	48	1
BRTAP	68	96	5
BRTAP	68	96	6
BRTAP	68	144	1
BRTAP	68	144	2
BRTAP	68	192	5
BRTAP	68	192	7
NMTAP	68	240	5
NMTAP	68	264	5
NMTAP	68	288	4
NMTAP	68	336	6
NMTAP	68	360	7
NMTAP	69	24	1
NMTAP	69	48	0
NMTAP	69	96	2
NMTAP	69	120	3
NMTAP	69	168	4
NMTAP	69	168	5
NMTAP	69	216	6
NMTAP	69	240	7
NMTAP	69	288	1
NMTAP	69	312	0
NMTAP	69	360	2
NMTAP	69	360	3
NMTAP	70	24	5
NMTAP	70	48	4
NMTAP	70	96	6
NMTAP	70	96	7
NMTAP	70	144	6
NMTAP	70	144	7
BRTAP	70	192	0
BRTAP	70	192	5
BRTAP	70	240	2
BRTAP	70	240	7
BRTAP	70	264	0
BRTAP	70	264	5
BRTAP	70	312	2
BRTAP	70	312	7
BRTAP	70	360	0
BRTAP	70	360	5
NMSTR	71	96	7
NMSCL	71	96	7	96	48	5
NMTAP	71	144	3
NMTAP	71	192	3
NMSTR	71	192	7
NMSCR	71	192	7	96	48	1
NMTAP	71	240	3
NMTAP	71	288	3
NMSTR	71	288	7
NMSI_	71	288	7	96	48	5
NMTAP	71	336	3
NMTAP	72	0	3
NMSTR	72	0	7
NMSI_	72	0	7	96	48	1
NMTAP	72	48	3
NMTAP	72	96	3
NMSTR	72	96	7
NMSCL	72	96	7	96	48	5
NMTAP	72	144	4
NMTAP	72	168	4
NMTAP	72	192	7
NMTAP	72	240	3
NMTAP	72	288	3
NMTAP	72	288	4
NMTAP	72	336	3
NMTAP	72	336	4
NMTAP	73	0	2
NMTAP	73	24	2
NMTAP	73	48	0
NMTAP	73	72	0
NMTAP	73	96	7
NMTAP	73	120	7
NMTAP	73	144	5
NMTAP	73	168	5
NMTAP	73	192	3
NMTAP	73	216	3
NMTAP	73	240	4
NMTAP	73	264	4
NMTAP	73	288	2
NMTAP	73	312	2
NMTAP	73	336	4
NMTAP	73	360	3
NMTAP	74	0	5
NMTAP	74	24	5
NMTAP	74	48	7
NMTAP	74	72	7
NMTAP	74	96	0
NMTAP	74	120	0
NMTAP	74	144	2
NMTAP	74	168	2
BRTAP	74	192	4
NMTAP	74	216	4
BRTAP	74	240	3
NMTAP	74	264	3
BRSTR	74	288	5
NMSI_	74	288	5	96	48	0
NMSI_	74	288	5	96	48	2
NMTAP	74	312	5
NMTAP	74	336	4
NMTAP	74	360	6
NMHLD	75	96	1	96
NMHLD	75	192	3	72
NMHLD	75	264	4	72
NMTAP	75	336	6
BRTAP	76	0	6
BRTAP	76	48	1
BRTAP	76	48	3
BRTAP	76	96	6
BRTAP	76	96	7
BRTAP	76	144	0
BRTAP	76	144	1
BRTAP	76	192	5
BRTAP	76	192	6
NMTAP	76	240	3
NMTAP	76	264	3
NMTAP	76	288	4
NMTAP	76	336	1
NMTAP	76	360	2
NMTAP	77	24	7
NMTAP	77	48	0
NMTAP	77	96	6
NMTAP	77	120	5
NMTAP	77	168	3
NMTAP	77	168	4
NMTAP	77	216	1
NMTAP	77	240	2
NMTAP	77	288	7
NMTAP	77	312	0
NMTAP	77	360	5
NMTAP	77	360	6
NMTAP	78	48	5
NMTAP	78	48	6
NMTAP	78	96	1
NMTAP	78	96	2
NMTAP	78	144	5
NMTAP	78	144	7
NMTAP	78	192	0
NMTAP	78	192	2
NMTAP	78	240	6
NMTAP	78	264	5
NMTAP	78	312	1
NMTAP	78	312	2
NMTAP	78	360	7
NMSTR	79	0	0
NMSF_	79	0	0	96	48	4
BRTAP	79	96	0
EXTAP	79	192	3
EXTAP	79	192	5
NMTAP	79	240	2
NMTAP	79	264	4
NMTAP	79	312	5
NMTAP	79	336	3
BRTAP	80	0	5
BRTAP	80	0	7
BRTAP	80	48	2
BRTAP	80	48	3
BRTAP	80	96	4
BRTAP	80	96	5
BRTAP	80	144	0
BRTAP	80	144	2
BRTAP	80	192	5
BRTAP	80	192	6
NMTAP	80	240	5
NMTAP	80	264	5
NMTAP	80	288	4
NMTAP	80	336	2
NMTAP	80	360	3
NMTAP	81	24	1
NMTAP	81	48	0
NMTAP	81	96	6
NMTAP	81	120	7
NMTAP	81	168	4
NMTAP	81	168	5
NMTAP	81	216	2
NMTAP	81	240	3
NMTAP	81	288	1
NMTAP	81	312	0
NMTAP	81	360	6
NMTAP	81	360	7
NMTAP	82	24	5
NMTAP	82	48	4
NMTAP	82	96	1
NMTAP	82	120	1
NMTAP	82	144	3
NMTAP	82	168	3
BRTAP	82	192	4
NMTAP	82	216	4
BRTAP	82	240	6
NMTAP	82	264	6
BRTAP	82	288	0
NMTAP	82	312	0
BRTAP	82	336	7
BRHLD	82	360	7	168
NMTAP	83	144	4
NMSTR	83	192	4
NMSCR	83	192	4	96	96	0
NMSTR	83	288	0
NMSCR	83	288	0	96	96	4
NMTAP	84	0	4
NMTAP	84	48	5
NMTAP	84	96	6
NMTAP	84	144	3
NMTAP	84	144	7
NMTAP	84	168	3
NMTAP	84	168	7
NMTAP	84	240	5
NMTAP	84	288	4
NMSTR	84	288	6
NMSI_	84	288	6	96	48	2
NMTAP	84	312	4
NMHLD	84	312	6	120
NMSTR	85	96	1
NMSI_	85	96	1	96	48	5
NMTAP	85	96	3
NMHLD	85	120	1	120
NMTAP	85	120	3
NMTAP	85	288	4
NMSTR	85	288	6
NMSCR	85	288	6	96	48	1
NMTAP	85	312	4
NMHLD	85	312	6	192
NMTAP	86	120	3
NMTAP	86	144	3
NMTAP	86	168	5
NMTAP	86	192	4
NMTAP	86	240	4
NMTAP	86	240	6
NMTAP	86	288	3
NMTAP	86	288	5
NMTAP	86	336	2
NMTAP	86	360	4
NMSTR	87	0	3
NMSI_	87	0	3	96	48	1
NMSI_	87	0	3	96	48	5
NMTAP	87	96	3
NMHLD	87	192	7	72
NMHLD	87	264	5	72
NMTAP	87	336	4
NMTAP	88	0	3
NMTAP	88	0	6
NMTAP	88	48	2
NMTAP	88	48	5
NMTAP	88	96	1
NMTAP	88	96	4
NMTAP	88	144	2
NMTAP	88	144	5
NMTTP	88	192	3	E	0	M1
NMTTP	88	216	5	E	0	M1
NMTTP	88	240	2	B	0	M1
NMTTP	88	264	5	B	0	M1
NMTTP	88	288	1	B	0	M1
NMTTP	88	312	6	B	0	M1
NMTTP	88	336	1	E	0	M1
NMTTP	88	360	0	C	1	M1
NMTTP	88	360	0	E	0	M1

T_REC_TAP	759
T_REC_BRK	138
T_REC_XTP	10
T_REC_BXX	0
T_REC_HLD	57
T_REC_XHO	0
T_REC_BHO	4
T_REC_BXH	0
T_REC_STR	37
T_REC_BST	3
T_REC_XST	0
T_REC_XBS	0
T_REC_TTP	11
T_REC_THO	0
T_REC_SLD	47
T_REC_BSL	0
T_REC_ALL	1066
T_NUM_TAP	817
T_NUM_BRK	145
T_NUM_HLD	57
T_NUM_SLD	47
T_NUM_ALL	1066
T_JUDGE_TAP	958
T_JUDGE_HLD	107
T_JUDGE_SLD	47
T_JUDGE_ALL	1112
TTM_EACHPAIRS	188
TTM_SCR_TAP	408500
TTM_SCR_BRK	377000
TTM_SCR_HLD	57000
TTM_SCR_SLD	70500
TTM_SCR_ALL	913000
TTM_SCR_S	871550
TTM_SCR_SS	898500
TTM_RAT_ACV	10161

