VERSION	0.00.00	1.05.00
FES_MODE	1
BPM_DEF	190.000	190.000	190.000	190.000
MET_DEF	4	4
RESOLUTION	384
CLK_DEF	384
COMPATIBLE_CODE	MA2

BPM	0	0	190.000
MET	0	0	4	4

NMTTP	1	336	4	A	0	M1
NMTTP	1	360	3	A	0	M1
NMTHO	2	0	2	624	A	0	M1
NMTHO	2	0	3	624	B	0	M1
NMTHO	2	0	3	624	E	0	M1
NMTHO	2	0	4	624	B	0	M1
NMTHO	2	0	5	624	A	0	M1
NMTAP	3	336	4
NMTAP	3	360	3
NMHLD	4	0	4	720
NMHLD	5	0	5	336
NMTAP	6	0	5
NMTAP	6	24	4
NMTAP	6	48	3
NMTAP	6	72	2
NMTAP	6	96	3
NMTAP	6	120	4
NMTAP	6	144	5
NMTAP	6	168	4
NMTAP	6	192	3
NMTAP	6	216	2
NMTAP	6	240	3
NMTAP	6	264	4
NMTAP	6	288	5
NMTAP	6	312	4
NMTAP	6	336	3
NMTAP	6	360	2
NMTAP	7	0	3
NMTAP	7	24	4
NMTAP	7	48	5
NMTAP	7	72	4
NMTAP	7	96	3
NMTAP	7	120	2
NMTAP	7	144	3
NMTAP	7	168	4
NMTAP	7	192	5
NMTAP	7	216	4
NMTAP	7	240	3
NMTAP	7	264	2
NMTAP	7	288	3
NMTAP	7	312	4
NMTAP	7	336	5
NMTAP	7	360	4
NMTAP	8	0	3
NMTAP	8	24	2
NMTAP	8	48	3
NMTAP	8	72	4
NMTAP	8	96	5
NMTAP	8	120	4
NMTAP	8	144	3
NMTAP	8	168	2
NMTAP	8	192	3
NMTAP	8	216	4
NMTAP	8	240	5
NMTAP	8	264	4
NMTAP	8	288	3
NMTAP	8	312	2
NMTAP	8	336	3
NMTAP	8	360	4
NMTAP	9	0	5
NMTAP	9	24	4
NMTAP	9	48	3
NMTAP	9	72	2
NMTAP	9	96	3
NMTAP	9	120	4
NMTAP	9	144	5
NMTAP	9	168	4
NMTAP	9	192	3
NMTAP	9	216	2
NMTAP	9	240	3
NMTAP	9	264	4
NMTAP	9	288	5
NMTAP	9	312	4
NMTAP	9	336	3
NMTAP	9	360	2
BXTAP	10	0	1
NMTAP	10	24	2
NMTAP	10	48	3
NMTAP	10	72	4
NMTAP	10	96	5
NMTAP	10	120	4
NMTAP	10	144	3
NMTAP	10	168	2
BXTAP	10	192	1
NMTAP	10	216	2
NMTAP	10	240	3
NMTAP	10	264	4
NMTAP	10	288	5
NMTAP	10	312	4
NMTAP	10	336	3
NMTAP	10	360	2
BXTAP	11	0	1
NMTAP	11	24	2
NMTAP	11	48	3
NMTAP	11	72	4
NMTAP	11	96	5
NMTAP	11	120	4
BXTAP	11	144	3
NMTAP	11	168	2
NMTAP	11	192	1
NMTAP	11	216	2
NMTAP	11	240	3
NMTAP	11	264	4
BXTAP	11	288	5
NMTAP	11	312	4
NMTAP	11	336	3
NMTAP	11	360	2
NMTAP	12	0	5
NMTAP	12	24	4
NMTAP	12	48	3
NMTAP	12	72	2
NMTAP	12	96	5
NMTAP	12	120	4
NMTAP	12	144	3
NMTAP	12	168	2
NMTAP	12	192	5
NMTAP	12	216	4
NMTAP	12	240	3
NMTAP	12	264	2
NMTAP	12	288	5
NMTAP	12	312	4
NMTAP	12	336	3
NMTAP	12	360	2
NMTAP	13	0	5
NMTAP	13	24	4
NMTAP	13	48	3
NMTAP	13	72	2
NMTAP	13	96	5
NMTAP	13	120	4
NMTAP	13	144	3
NMTAP	13	168	2
NMTAP	13	192	5
NMTAP	13	208	4
NMTAP	13	224	3
NMTAP	13	240	2
BXTAP	13	276	2
BXTAP	13	282	3
BXTAP	13	288	4
BXTAP	13	294	5
BXTAP	13	308	2
BXTAP	13	312	3
BXTAP	13	316	4
BXTAP	13	320	5
BXTAP	13	336	2
BXTAP	13	340	3
BXTAP	13	344	4
BXTAP	13	348	5
EXTAP	14	0	2
EXTAP	14	0	5
NMHLD	14	96	1	48
NMTAP	14	96	3
NMTAP	14	192	2
NMTAP	14	192	4
NMHLD	14	240	1	48
NMTAP	14	336	2
NMTAP	14	336	3
NMHLD	15	0	1	48
NMTAP	15	0	4
NMTAP	15	96	2
NMTAP	15	96	3
NMHLD	15	144	1	48
NMTAP	15	144	4
NMTAP	15	192	3
NMTAP	15	240	2
NMHLD	15	288	1	48
NMHLD	15	288	4	48
NMTAP	16	0	2
NMTAP	16	0	5
NMHLD	16	96	1	48
NMTAP	16	96	4
NMTAP	16	192	2
NMTAP	16	192	3
NMHLD	16	240	1	48
NMTAP	16	336	2
NMTAP	16	336	4
NMTAP	17	0	3
NMTAP	17	0	5
NMTAP	17	48	2
NMTAP	17	48	4
NMTAP	17	96	1
NMTAP	17	96	3
NMTAP	17	144	2
NMTAP	17	144	4
NMTAP	17	192	3
NMTAP	17	192	5
NMTAP	17	208	2
NMTAP	17	224	3
NMTAP	17	240	2
NMTAP	17	256	3
NMTAP	17	272	2
NMTAP	17	288	3
NMTAP	17	288	5
NMTAP	18	0	2
NMTAP	18	0	4
NMHLD	18	96	1	48
NMTAP	18	96	3
NMTAP	18	192	2
NMTAP	18	192	3
NMHLD	18	240	1	48
NMTAP	18	336	2
NMTAP	18	336	3
NMHLD	19	0	1	48
NMTAP	19	0	4
NMTAP	19	96	2
NMTAP	19	96	3
NMHLD	19	144	1	48
NMTAP	19	144	4
NMTAP	19	192	3
NMTAP	19	240	2
NMHLD	19	288	1	48
NMHLD	19	288	4	48
NMTAP	20	0	2
NMTAP	20	0	3
NMHLD	20	96	1	48
NMTAP	20	96	3
NMTAP	20	192	2
NMTAP	20	192	4
NMHLD	20	240	1	48
NMTAP	20	336	2
NMTAP	20	336	4
NMTAP	21	0	3
NMTAP	21	0	5
NMTAP	21	48	2
NMTAP	21	96	1
NMTAP	21	96	4
NMTAP	21	144	2
NMTAP	21	192	3
NMTAP	21	192	5
BXTAP	21	240	5
BXTAP	21	246	4
BXTAP	21	252	3
BXTAP	21	258	2
BXTAP	21	276	5
BXTAP	21	282	4
BXTAP	21	288	3
BXTAP	21	294	2
BXTAP	21	312	5
BXTAP	21	318	4
BXTAP	21	324	3
BXTAP	21	330	2
EXTAP	22	0	2
EXTAP	22	0	4
NMHLD	22	96	2	48
NMTAP	22	96	3
NMTAP	22	144	4
NMTAP	22	192	3
NMHLD	22	240	2	48
NMTAP	22	240	4
NMTAP	22	288	3
NMTAP	22	336	4
NMHLD	23	0	2	48
NMTAP	23	0	3
NMTAP	23	48	4
NMTAP	23	96	3
NMTAP	23	96	5
NMHLD	23	144	2	48
NMTAP	23	144	4
NMTAP	23	192	3
NMTAP	23	240	3
NMHLD	23	288	2	48
NMHLD	23	288	4	48
NMTAP	24	0	1
NMHLD	24	0	3	96
NMHLD	24	96	1	48
NMTAP	24	144	4
NMTAP	24	192	2
NMTAP	24	192	3
NMHLD	24	240	1	48
NMTAP	24	240	4
NMTAP	24	288	3
NMTAP	24	336	2
NMTAP	25	0	3
NMHLD	25	0	4	48
NMTAP	25	48	2
NMTAP	25	96	3
NMHLD	25	96	4	48
NMTAP	25	144	2
NMTAP	25	192	3
NMHLD	25	192	5	48
NMTAP	25	208	2
NMTAP	25	224	3
NMTAP	25	240	2
NMTAP	25	256	3
NMTAP	25	272	2
NMTAP	25	288	3
NMHLD	25	288	5	48
NMTAP	26	0	2
NMTAP	26	0	4
NMHLD	26	96	1	48
NMTAP	26	96	3
NMTAP	26	144	4
NMTAP	26	192	2
NMTAP	26	192	3
NMHLD	26	240	1	48
NMTAP	26	240	4
NMTAP	26	288	2
NMTAP	26	336	3
NMHLD	27	0	1	48
NMTAP	27	0	4
NMTAP	27	48	3
NMTAP	27	96	2
NMHLD	27	144	1	48
NMTAP	27	144	3
NMTAP	27	192	4
NMTAP	27	240	3
NMHLD	27	288	1	48
NMTAP	27	288	2
NMTAP	27	336	3
NMTAP	28	0	2
NMTAP	28	0	4
NMHLD	28	96	1	48
NMTAP	28	96	3
NMTAP	28	144	4
NMTAP	28	192	2
NMTAP	28	192	3
NMHLD	28	240	1	48
NMTAP	28	240	4
NMTAP	28	288	3
NMTAP	28	336	2
NMTAP	28	336	4
NMTAP	29	0	3
NMTAP	29	0	4
NMTAP	29	48	2
NMTAP	29	48	5
NMTAP	29	96	1
NMTAP	29	96	6
NMTAP	29	144	2
NMTAP	29	144	5
EXTAP	29	192	3
EXTAP	29	192	4
BXTAP	29	216	5
BXTAP	29	224	4
BXTAP	29	232	3
BXTAP	29	240	2
BXTAP	29	264	5
BXTAP	29	272	4
BXTAP	29	280	3
BXTAP	29	288	2
NMTAP	30	0	4
NMHLD	30	0	5	48
NMTAP	30	48	4
NMTAP	30	96	3
NMTAP	30	96	6
NMTAP	30	144	4
NMTAP	30	192	3
NMTAP	30	192	6
NMTAP	30	240	4
NMTAP	30	288	3
NMTAP	30	288	6
NMTAP	30	336	4
NMTAP	30	336	5
NMTAP	31	0	3
NMTAP	31	48	4
NMTAP	31	48	5
NMTAP	31	96	6
NMTAP	31	144	4
NMTAP	31	144	5
NMTAP	31	192	3
NMTAP	31	192	6
NMTAP	31	240	4
NMTAP	31	264	5
NMTAP	31	288	3
NMTAP	31	288	6
NMHLD	31	336	3	48
NMTAP	31	336	6
NMTAP	32	0	5
NMTAP	32	48	4
NMTAP	32	96	3
NMHLD	32	96	6	48
NMTAP	32	144	4
NMTAP	32	192	5
NMTAP	32	240	6
NMTAP	32	288	4
NMTAP	32	288	5
NMTAP	32	336	3
NMTAP	33	0	2
NMHLD	33	0	4	72
NMHLD	33	72	3	72
NMHLD	33	144	2	48
NMHLD	33	192	4	48
NMTAP	33	240	3
NMTAP	33	288	2
NMTAP	33	288	4
NMTAP	33	336	5
NMHLD	34	0	4	48
NMTAP	34	0	6
NMTAP	34	48	5
NMTAP	34	96	3
NMTAP	34	96	6
NMTAP	34	144	5
NMTAP	34	192	3
NMTAP	34	192	6
NMTAP	34	240	5
NMTAP	34	288	4
NMTAP	34	288	6
NMTAP	34	336	3
NMTAP	34	336	5
NMTAP	35	0	4
NMTAP	35	0	6
NMTAP	35	48	5
NMTAP	35	96	3
NMTAP	35	96	6
NMTAP	35	144	4
NMTAP	35	144	5
NMTAP	35	192	3
NMTAP	35	192	6
NMTAP	35	240	4
NMTAP	35	264	5
NMTAP	35	288	3
NMTAP	35	288	6
NMHLD	35	336	3	48
NMTAP	35	336	5
NMTAP	36	0	4
NMTAP	36	48	5
NMHLD	36	96	3	48
NMTAP	36	96	6
NMTAP	36	144	5
NMTAP	36	192	4
NMTAP	36	240	3
NMTAP	36	240	5
NMTAP	36	288	4
NMTAP	36	288	6
NMTAP	36	336	5
NMHLD	37	0	4	72
NMHLD	37	72	3	72
NMHLD	37	144	2	48
NMHLD	37	192	4	48
NMTAP	37	240	3
NMTAP	37	288	2
NMTAP	37	288	4
NMTAP	37	336	2
NMTAP	37	336	4
NMHLD	38	0	1	48
NMTAP	38	0	3
NMTAP	38	96	1
NMTAP	38	128	2
NMTAP	38	160	3
NMTAP	38	192	4
NMHLD	38	192	5	96
NMTAP	38	288	4
NMTAP	38	320	3
NMTAP	38	352	2
NMTAP	39	0	1
NMHLD	39	0	4	96
NMTAP	39	96	1
NMTAP	39	128	2
NMTAP	39	160	3
NMHLD	39	192	1	96
NMTAP	39	192	4
NMTAP	39	288	4
NMTAP	39	320	3
NMTAP	39	352	2
NMTAP	40	0	1
NMHLD	40	0	5	96
NMTAP	40	96	1
NMTAP	40	128	2
NMTAP	40	160	3
NMHLD	40	192	1	96
NMTAP	40	192	4
NMTAP	40	288	4
NMTAP	40	320	3
NMTAP	40	352	2
NMHLD	41	0	1	96
NMHLD	41	0	5	96
EXTAP	41	192	5
BXTAP	41	204	4
BXTAP	41	216	3
BXTAP	41	228	2
EXTAP	41	240	5
BXTAP	41	252	4
BXTAP	41	264	3
BXTAP	41	276	2
EXTAP	41	288	5
BXTAP	41	300	4
BXTAP	41	312	3
BXTAP	41	324	2
EXTAP	41	336	5
BXTAP	41	348	4
BXTAP	41	360	3
BXTAP	41	372	2
EXTAP	42	0	5
NMTAP	42	48	2
NMTAP	42	48	4
NMTAP	42	96	1
NMTAP	42	96	3
NMTAP	42	144	2
NMTAP	42	192	3
NMTAP	42	192	4
NMTAP	42	240	2
NMTAP	42	288	1
NMTAP	42	288	3
NMTAP	42	336	2
NMTAP	43	0	3
NMTAP	43	0	4
NMTAP	43	48	2
NMTAP	43	96	1
NMTAP	43	96	4
NMTAP	43	144	2
NMTAP	43	144	3
NMTAP	43	192	1
NMTAP	43	192	4
NMTAP	43	240	2
NMTAP	43	264	3
NMTAP	43	288	1
NMTAP	43	288	4
NMHLD	43	336	2	48
NMTAP	43	336	3
NMTAP	44	0	4
NMTAP	44	48	1
NMTAP	44	48	3
NMHLD	44	96	2	48
NMTAP	44	96	4
NMTAP	44	144	3
NMTAP	44	192	1
NMTAP	44	192	4
NMTAP	44	240	3
NMTAP	44	288	1
NMTAP	44	288	4
NMTAP	44	336	2
NMTAP	44	336	3
NMTAP	45	0	1
NMHLD	45	0	4	72
NMHLD	45	72	3	72
NMHLD	45	144	2	48
NMHLD	45	192	4	48
NMTAP	45	240	3
NMTAP	45	288	2
BXTAP	45	296	3
BXTAP	45	304	4
BXTAP	45	312	5
NMTAP	45	328	2
BXTAP	45	336	3
BXTAP	45	344	4
BXTAP	45	352	5
EXTAP	46	0	2
EXHLD	46	0	5	96
NMHLD	46	96	3	48
NMTAP	46	144	4
NMTAP	46	192	2
NMTAP	46	192	3
NMHLD	46	240	1	96
NMTAP	46	240	4
NMTAP	46	288	3
NMTAP	46	336	4
NMHLD	47	0	1	48
NMTAP	47	0	3
NMTAP	47	48	4
NMTAP	47	96	2
NMTAP	47	96	3
NMHLD	47	144	1	48
NMHLD	47	144	4	48
NMTAP	47	240	2
NMHLD	47	288	1	48
NMHLD	47	288	3	48
NMTAP	48	0	2
NMHLD	48	0	4	48
NMHLD	48	96	1	48
NMTAP	48	96	3
NMTAP	48	144	4
NMTAP	48	192	2
NMTAP	48	192	3
NMHLD	48	240	1	48
NMTAP	48	240	4
NMTAP	48	288	3
NMTAP	48	336	4
NMTAP	49	0	3
NMHLD	49	0	5	48
NMTAP	49	48	4
NMTAP	49	96	3
NMHLD	49	96	5	48
NMTAP	49	144	2
NMTAP	49	192	3
NMHLD	49	192	6	48
NMTAP	49	208	2
NMTAP	49	224	3
NMTAP	49	240	2
NMTAP	49	256	3
NMTAP	49	272	2
NMTAP	49	288	3
NMHLD	49	288	6	48
NMTAP	50	0	2
NMTAP	50	0	5
NMHLD	50	96	3	48
NMTAP	50	96	4
NMTAP	50	144	5
NMTAP	50	192	4
NMHLD	50	240	3	48
NMTAP	50	240	5
NMTAP	50	288	4
NMTAP	50	336	5
NMHLD	51	0	3	48
NMTAP	51	0	6
NMTAP	51	48	5
NMTAP	51	96	4
NMHLD	51	144	3	48
NMTAP	51	144	5
NMTAP	51	192	6
NMTAP	51	240	5
NMHLD	51	288	2	48
NMHLD	51	288	4	48
NMTAP	52	0	3
NMTAP	52	0	5
NMHLD	52	96	3	48
NMTAP	52	96	5
NMTAP	52	144	6
NMTAP	52	192	5
NMHLD	52	240	3	96
NMTAP	52	240	4
NMTAP	52	288	5
NMTAP	52	336	6
NMTAP	53	0	4
NMTAP	53	0	5
NMTAP	53	48	3
NMTAP	53	96	4
NMTAP	53	96	5
NMTAP	53	144	6
NMTAP	53	192	4
NMTAP	53	192	5
NMTAP	53	240	5
BXTAP	53	248	4
BXTAP	53	256	3
BXTAP	53	264	2
NMTAP	53	272	5
BXTAP	53	280	4
BXTAP	53	288	3
BXTAP	53	296	2
NMTAP	53	304	5
BXTAP	53	312	4
BXTAP	53	320	3
BXTAP	53	328	2
EXTAP	54	0	2
EXHLD	54	0	4	48
NMTAP	54	48	3
NMTAP	54	96	2
NMTAP	54	96	5
NMTAP	54	144	4
NMTAP	54	192	3
NMTAP	54	192	5
NMTAP	54	240	4
NMTAP	54	288	3
NMTAP	54	288	5
NMTAP	54	336	2
NMTAP	55	0	4
NMTAP	55	0	6
NMTAP	55	48	5
NMTAP	55	96	2
NMTAP	55	96	6
NMTAP	55	144	4
NMTAP	55	192	3
NMTAP	55	192	6
NMTAP	55	240	4
NMTAP	55	240	5
NMTAP	55	264	3
NMTAP	55	288	2
NMTAP	55	288	6
NMHLD	55	336	3	48
NMHLD	55	336	5	48
NMTAP	56	48	3
NMTAP	56	48	5
NMHLD	56	96	4	48
NMTAP	56	96	6
NMTAP	56	144	5
NMTAP	56	192	4
NMTAP	56	192	6
NMTAP	56	240	3
NMTAP	56	240	5
NMTAP	56	288	4
NMTAP	56	288	6
NMTAP	56	336	3
NMTAP	56	336	5
NMTAP	57	0	2
NMHLD	57	0	4	72
NMHLD	57	72	3	72
NMHLD	57	144	2	48
NMHLD	57	192	4	48
NMTAP	57	240	3
NMTAP	57	288	2
NMTAP	57	288	4
NMTAP	57	336	3
NMTAP	57	336	4
NMTAP	58	0	2
NMHLD	58	0	5	48
NMTAP	58	48	3
NMTAP	58	96	2
NMTAP	58	96	6
NMTAP	58	144	3
NMTAP	58	144	4
NMTAP	58	192	5
NMTAP	58	240	2
NMTAP	58	240	4
NMTAP	58	288	3
NMTAP	58	336	3
NMTAP	58	336	5
NMTAP	59	0	4
NMTAP	59	0	6
NMTAP	59	48	5
NMTAP	59	96	4
NMTAP	59	96	6
NMTAP	59	144	5
NMTAP	59	192	3
NMTAP	59	192	6
NMTAP	59	240	4
NMTAP	59	240	5
NMTAP	59	264	3
NMTAP	59	288	2
NMTAP	59	288	6
NMHLD	59	336	3	48
NMTAP	59	336	5
NMTAP	60	0	5
NMTAP	60	48	2
NMTAP	60	48	4
NMHLD	60	96	4	48
NMTAP	60	96	6
NMTAP	60	144	5
NMTAP	60	192	4
NMTAP	60	192	6
NMTAP	60	240	3
NMTAP	60	240	5
NMTAP	60	288	4
NMTAP	60	288	6
NMTAP	60	336	3
NMTAP	60	336	5
NMHLD	61	0	4	72
NMHLD	61	72	3	72
NMHLD	61	144	2	48
NMTAP	61	192	4
NMTAP	61	240	2
BXTAP	61	252	3
BXTAP	61	264	4
BXTAP	61	276	5
NMTAP	61	288	2
BXTAP	61	300	3
BXTAP	61	312	4
BXTAP	61	324	5
EXTAP	62	0	3
EXTAP	62	0	6
NMTAP	62	32	5
NMTAP	62	64	4
NMTAP	62	96	3
NMTAP	62	96	5
NMTAP	62	128	4
NMTAP	62	160	3
EXTAP	62	192	2
NMTAP	62	192	5
NMTAP	62	224	3
NMTAP	62	256	4
NMTAP	62	288	3
NMTAP	62	288	5
NMTAP	62	320	4
NMTAP	62	352	5
NMTAP	63	0	3
EXTAP	63	0	6
NMTAP	63	32	5
NMTAP	63	64	4
NMTAP	63	96	3
NMTAP	63	96	5
NMTAP	63	128	4
NMTAP	63	160	3
EXTAP	63	192	2
NMTAP	63	192	5
NMTAP	63	224	3
NMTAP	63	256	4
NMTAP	63	288	3
NMTAP	63	288	5
NMTAP	63	320	4
NMTAP	63	352	5
NMTAP	64	0	3
EXTAP	64	0	6
NMTAP	64	32	5
NMTAP	64	64	4
NMTAP	64	96	3
NMTAP	64	96	5
NMTAP	64	128	4
NMTAP	64	160	3
EXTAP	64	192	2
NMTAP	64	192	5
NMTAP	64	224	3
NMTAP	64	256	4
NMTAP	64	288	3
NMTAP	64	288	5
NMTAP	64	320	4
NMTAP	64	352	5
NMTAP	65	0	3
EXTAP	65	0	6
NMTAP	65	32	5
NMTAP	65	64	4
NMTAP	65	96	3
NMTAP	65	96	5
NMTAP	65	128	4
NMTAP	65	160	5
NMTAP	65	192	3
EXTAP	65	192	6
NMTAP	65	256	2
BXTAP	65	264	3
BXTAP	65	272	4
BXTAP	65	280	5
NMTAP	65	288	2
BXTAP	65	296	3
BXTAP	65	304	4
BXTAP	65	312	5
NMTAP	65	320	2
BXTAP	65	328	3
BXTAP	65	336	4
BXTAP	65	344	5
NMTAP	66	0	3
NMTAP	66	0	6
NMTAP	66	48	4
NMTAP	66	96	5
NMTAP	66	144	4
NMTAP	66	192	3
NMTAP	66	192	6
NMTAP	66	240	4
NMTAP	66	288	5
NMTAP	66	336	3
NMTAP	66	336	6
NMTAP	67	0	4
NMTAP	67	0	5
NMTAP	67	48	6
NMTAP	67	72	4
NMTAP	67	96	6
NMTAP	67	144	4
NMTAP	67	144	5
NMHLD	67	192	6	96
NMTAP	67	240	4
NMTAP	67	264	3
NMTAP	67	288	2
NMHLD	67	336	2	48
NMHLD	67	336	4	48
NMTAP	68	48	3
NMTAP	68	48	4
NMHLD	68	96	3	48
NMTAP	68	144	4
NMTAP	68	192	5
NMTAP	68	240	4
NMTAP	68	288	3
NMTAP	68	288	6
NMTAP	68	336	5
NMHLD	69	0	4	48
NMTAP	69	0	6
NMHLD	69	72	3	48
NMTAP	69	72	5
NMHLD	69	144	2	48
NMTAP	69	144	4
NMTAP	69	192	5
NMTAP	69	240	6
NMTAP	69	264	5
NMTAP	69	288	4
NMTAP	69	312	3
NMTAP	69	336	2
NMTAP	69	360	1
NMTAP	70	192	5
NMTAP	70	288	4
NMTAP	70	352	5
NMTAP	70	368	4
NMHLD	71	0	2	192
NMTAP	71	0	3
NMTAP	71	192	5
NMTAP	71	352	5
NMTAP	71	368	4
NMHLD	72	0	2	192
NMTAP	72	0	3
NMTAP	72	192	4
NMTAP	72	352	5
NMTAP	72	368	4
NMHLD	73	0	2	192
NMTAP	73	0	3
NMTAP	73	192	4
NMTAP	73	352	5
NMTAP	73	368	4
NMHLD	74	0	2	192
NMTAP	74	0	3
NMTAP	74	192	4
NMTAP	74	336	5
NMTAP	74	348	3
NMTAP	74	348	4
NMTAP	75	0	3
NMTAP	75	0	4
NMTAP	75	192	5
NMTAP	75	352	5
NMTAP	75	368	4
NMTAP	76	0	2
NMTAP	76	0	3
NMTAP	76	96	3
NMTAP	76	192	4
NMTAP	76	288	5
NMTAP	76	336	6
NMTAP	76	352	5
NMTAP	76	368	4
NMTAP	77	0	2
NMTAP	77	0	3
NMTAP	77	48	2
NMTAP	77	96	4
NMTAP	77	240	5
NMTAP	77	336	3
NMTAP	78	0	2
NMTAP	78	0	5
NMTAP	78	48	4
NMTAP	78	96	3
NMTAP	78	144	2
NMTAP	78	192	2
NMTAP	78	240	3
NMTAP	78	288	4
NMTAP	78	336	5
NMHLD	79	0	2	48
NMTAP	79	0	5
NMTAP	79	48	4
NMTAP	79	96	3
NMTAP	79	144	4
NMHLD	79	192	2	96
NMTAP	79	192	5
NMTAP	79	240	3
NMTAP	79	288	4
NMTAP	79	336	5
NMTAP	79	372	4
NMTAP	79	378	3
NMTAP	80	0	2
NMTAP	80	0	5
NMTAP	80	48	5
NMTAP	80	96	5
NMTAP	80	144	4
NMHLD	80	192	2	96
NMTAP	80	192	3
NMTAP	80	240	4
NMTAP	80	288	5
NMTAP	80	336	5
NMTAP	80	372	4
NMTAP	80	378	3
NMTAP	81	0	2
NMTAP	81	0	5
NMTAP	81	48	4
NMTAP	81	96	3
NMTAP	81	144	4
NMHLD	81	192	2	96
NMTAP	81	192	5
NMTAP	81	240	3
NMTAP	81	288	4
NMTAP	81	336	5
NMHLD	81	372	4	0
NMHLD	81	378	3	0
NMHLD	82	0	2	0
NMTAP	82	0	5
NMTAP	82	48	4
NMTAP	82	96	3
NMTAP	82	144	4
NMTAP	82	192	5
NMTAP	82	240	3
NMTAP	82	288	4
NMTAP	82	336	5
NMHLD	82	344	3	136
NMTAP	82	344	4
NMTAP	83	48	5
NMTAP	83	96	4
NMTAP	83	144	3
NMHLD	83	192	2	96
NMTAP	83	192	4
NMTAP	83	240	5
NMTAP	83	288	4
NMTAP	83	336	3
NMTAP	84	0	1
BXTAP	84	0	5
NMTAP	84	96	2
BXTAP	84	96	4
BXTAP	84	192	3
NMTAP	84	192	5
BXTAP	84	288	2
NMTAP	84	288	6
NMTAP	85	0	3
NMTAP	85	0	5
NMTAP	85	48	2
NMTAP	85	48	4
NMHLD	85	96	3	96
NMHLD	85	96	4	96
NMTAP	85	240	2
NMTAP	85	240	5
NMTAP	85	336	2
NMTAP	85	336	3
NMTAP	86	0	1
NMTAP	86	0	4
NMTAP	86	48	2
NMTAP	86	72	3
NMTAP	86	96	2
NMTAP	86	120	1
NMTAP	86	144	2
NMTAP	86	168	3
NMTAP	86	192	2
NMTAP	86	216	1
NMTAP	86	240	2
NMTAP	86	264	3
NMTAP	86	288	2
NMTAP	86	312	1
NMTAP	86	336	2
NMTAP	86	360	3
NMTAP	87	0	2
NMTAP	87	48	1
NMTAP	87	64	2
NMTAP	87	80	3
NMTAP	87	96	4
NMTAP	87	112	5
NMTAP	87	128	6
NMTAP	87	144	1
NMTAP	87	160	2
NMTAP	87	176	3
NMTAP	87	192	4
NMTAP	87	208	5
NMTAP	87	224	6
NMTAP	87	240	1
NMTAP	87	256	2
NMTAP	87	272	3
NMTAP	87	288	4
NMTAP	87	304	5
NMTAP	87	320	6
NMHLD	87	336	2	48
NMTAP	88	0	6
NMTAP	88	16	5
NMTAP	88	32	4
NMTAP	88	48	3
NMTAP	88	64	2
NMTAP	88	80	1
NMTAP	88	96	6
NMTAP	88	112	5
NMTAP	88	128	4
NMTAP	88	144	3
NMTAP	88	160	2
NMTAP	88	176	1
NMTAP	88	192	6
NMTAP	88	208	5
NMTAP	88	224	4
NMTAP	88	240	3
NMTAP	88	256	2
NMTAP	88	272	1
NMTAP	88	288	6
NMTAP	88	304	5
NMTAP	88	320	4
NMTAP	88	336	3
NMTAP	88	352	2
NMTAP	88	368	1
NMTAP	89	0	5
NMTAP	89	16	4
NMTAP	89	32	3
NMTAP	89	48	2
NMTAP	89	64	5
NMTAP	89	80	4
NMTAP	89	96	3
NMTAP	89	112	2
NMTAP	89	128	5
NMTAP	89	144	4
NMTAP	89	160	3
NMTAP	89	176	2
NMTAP	89	192	5
NMTAP	89	208	4
NMTAP	89	224	3
NMTAP	89	240	2
NMTAP	89	256	5
NMTAP	89	272	4
NMTAP	89	288	3
NMTAP	89	304	2
NMTAP	89	320	5
NMTAP	89	336	4
NMTAP	89	352	3
NMTAP	89	368	2
NMTAP	90	0	1
NMTAP	90	16	2
NMTAP	90	32	3
NMTAP	90	48	4
NMTAP	90	64	5
NMTAP	90	80	6
NMTAP	90	96	1
NMTAP	90	112	2
NMTAP	90	128	3
NMTAP	90	144	4
NMTAP	90	160	5
NMTAP	90	176	6
NMTAP	90	192	2
NMTAP	90	208	4
NMTAP	90	224	2
NMTAP	90	240	4
NMTAP	90	256	2
NMTAP	90	272	4
NMTAP	90	288	2
NMTAP	90	336	1
NMTAP	90	336	3
NMTAP	91	0	2
NMTAP	91	16	3
NMTAP	91	32	4
NMTAP	91	48	5
NMTAP	91	64	2
NMTAP	91	80	3
NMTAP	91	96	4
NMTAP	91	112	5
NMTAP	91	128	2
NMTAP	91	144	3
NMTAP	91	160	4
NMTAP	91	176	5
NMTAP	91	192	2
NMTAP	91	208	3
NMTAP	91	224	4
NMTAP	91	240	5
NMTAP	91	256	2
NMTAP	91	272	3
NMTAP	91	288	4
NMTAP	91	304	5
NMTAP	91	320	2
NMTAP	91	336	3
NMTAP	91	352	4
NMTAP	91	368	5
NMTAP	92	0	6
NMTAP	92	16	5
NMTAP	92	32	4
NMTAP	92	48	3
NMTAP	92	64	2
NMTAP	92	80	1
NMTAP	92	96	6
NMTAP	92	112	5
NMTAP	92	128	4
NMTAP	92	144	3
NMTAP	92	160	2
NMTAP	92	176	1
NMTAP	92	192	6
NMTAP	92	208	5
NMTAP	92	224	4
NMTAP	92	240	3
NMTAP	92	256	2
NMTAP	92	272	1
NMTAP	92	288	6
NMTAP	92	304	5
NMTAP	92	320	4
NMTAP	92	336	3
NMTAP	92	352	2
NMTAP	92	368	1
NMTAP	93	0	5
NMTAP	93	16	4
NMTAP	93	32	3
NMTAP	93	48	2
NMTAP	93	64	5
NMTAP	93	80	4
NMTAP	93	96	3
NMTAP	93	112	2
NMTAP	93	128	6
NMTAP	93	144	5
NMTAP	93	160	4
NMTAP	93	176	3
NMTAP	93	192	2
NMTAP	93	208	1
EXTAP	93	224	6
EXTAP	93	232	5
EXTAP	93	240	4
EXTAP	93	248	3
EXTAP	93	256	2
EXTAP	93	264	1
EXTAP	93	288	6
EXTAP	93	296	5
EXTAP	93	304	4
EXTAP	93	312	3
EXTAP	93	320	2
EXTAP	93	328	1
NMTAP	94	0	5
NMTAP	94	24	2
NMTAP	94	48	5
NMTAP	94	72	2
NMTAP	94	96	5
NMTAP	94	120	2
NMTAP	94	144	5
NMTAP	94	168	2
NMTAP	94	192	5
NMTAP	94	208	2
NMTAP	94	224	5
NMTAP	94	240	2
NMTAP	94	256	5
NMTAP	94	272	3
NMHLD	94	288	4	96
NMTAP	95	0	2
NMTAP	95	16	3
NMTAP	95	32	4
NMTAP	95	48	5
NMTAP	95	64	2
NMTAP	95	80	3
NMTAP	95	96	4
NMTAP	95	112	5
NMTAP	95	128	2
NMTAP	95	144	3
NMTAP	95	160	4
NMTAP	95	176	5
NMTAP	95	192	2
NMTAP	95	208	3
NMTAP	95	224	4
NMTAP	95	240	5
NMTAP	95	256	2
NMTAP	95	272	3
NMTAP	95	288	4
NMTAP	95	304	5
NMTAP	95	320	2
NMTAP	95	336	3
NMTAP	95	352	4
NMTAP	95	368	5
NMHLD	96	0	4	32
EXTAP	96	16	5
NMTAP	96	32	6
NMHLD	96	48	4	32
EXTAP	96	64	5
NMTAP	96	80	6
NMHLD	96	96	4	32
EXTAP	96	112	5
NMTAP	96	128	6
NMHLD	96	144	4	32
EXTAP	96	160	5
NMTAP	96	176	6
NMHLD	96	192	4	32
EXTAP	96	208	5
NMTAP	96	224	6
NMHLD	96	240	4	32
EXTAP	96	256	5
NMTAP	96	272	6
NMTAP	96	288	3
NMTAP	96	304	2
NMTAP	96	320	1
NMTAP	96	336	6
NMTAP	96	352	5
NMTAP	96	368	4
NMHLD	97	0	3	32
EXTAP	97	16	2
NMTAP	97	32	1
NMHLD	97	48	3	32
EXTAP	97	64	2
NMTAP	97	80	1
NMHLD	97	96	3	32
EXTAP	97	112	2
NMTAP	97	128	1
NMHLD	97	144	3	32
EXTAP	97	160	2
NMTAP	97	176	1
NMHLD	97	192	3	32
EXTAP	97	208	2
NMTAP	97	224	1
NMHLD	97	240	3	32
EXTAP	97	256	2
NMTAP	97	272	1
NMHLD	97	288	3	32
EXTAP	97	304	2
NMTAP	97	320	1
NMHLD	97	336	3	32
EXTAP	97	352	2
NMTAP	97	368	1
NMTAP	98	0	4
NMTAP	98	16	5
NMTAP	98	32	6
NMTAP	98	48	1
NMTAP	98	64	2
NMTAP	98	80	3
NMTAP	98	96	4
NMTAP	98	112	5
NMTAP	98	128	6
NMTAP	98	144	1
NMTAP	98	160	2
NMTAP	98	176	3
NMTAP	98	192	6
NMTAP	98	208	5
NMTAP	98	224	4
NMTAP	98	240	3
NMTAP	98	256	2
NMTAP	98	272	1
NMTAP	98	336	2
NMTAP	98	336	5
NMHLD	99	0	2	48
NMTAP	99	0	6
NMTAP	99	24	5
NMTAP	99	48	4
NMTAP	99	72	3
NMHLD	99	96	2	48
NMTAP	99	96	6
NMTAP	99	120	5
NMTAP	99	144	4
NMTAP	99	168	3
NMHLD	99	192	2	48
NMTAP	99	192	6
NMTAP	99	216	5
NMTAP	99	240	4
NMTAP	99	264	3
NMHLD	99	288	2	48
NMTAP	99	288	6
NMTAP	99	312	5
NMTAP	99	336	4
NMTAP	99	360	3
NMTAP	100	0	5
NMTAP	100	16	4
NMTAP	100	32	5
NMTAP	100	48	4
NMTAP	100	64	5
NMTAP	100	80	4
NMTAP	100	96	5
NMTAP	100	112	4
NMTAP	100	128	5
NMTAP	100	144	4
NMTAP	100	160	5
NMTAP	100	176	4
NMTAP	100	192	5
NMTAP	100	208	4
NMTAP	100	224	3
NMTAP	100	240	2
NMTAP	100	256	5
NMTAP	100	272	4
NMTAP	100	288	3
NMTAP	100	304	2
NMTAP	100	320	3
NMTAP	100	336	4
NMTAP	100	352	5
NMTAP	101	0	3
NMTAP	101	0	6
NMTAP	101	48	2
NMTAP	101	48	5
NMTAP	101	96	1
NMTAP	101	96	4
NMTAP	101	240	3
NMTAP	101	240	4
NMTAP	101	336	2
NMTAP	101	336	5
NMTAP	102	0	1
NMTAP	102	0	6
NMTAP	102	48	3
NMTAP	102	72	2
NMTAP	102	96	3
NMTAP	102	120	4
NMTAP	102	144	5
NMTAP	102	168	4
NMTAP	102	192	3
NMTAP	102	216	2
NMTAP	102	240	3
NMTAP	102	264	4
NMTAP	102	288	5
NMTAP	102	312	4
NMTAP	102	336	3
NMTAP	102	360	2
NMTAP	103	0	1
NMHLD	103	0	5	96
NMTAP	103	96	4
NMTAP	103	192	3
NMTAP	103	192	5
NMHLD	103	240	2	48
NMTAP	103	240	4
NMTAP	103	336	3
NMHLD	104	0	2	48
NMTAP	104	0	4
NMTAP	104	48	4
NMTAP	104	96	3
NMTAP	104	144	4
NMHLD	104	144	5	96
NMTAP	104	240	3
NMHLD	104	288	2	48
NMHLD	104	288	4	48
NMTAP	105	0	1
NMHLD	105	0	3	96
NMTAP	105	96	2
NMTAP	105	192	3
NMTAP	105	192	4
NMHLD	105	240	4	96
NMTAP	105	240	5
NMTAP	105	336	3
NMHLD	106	0	2	144
NMTAP	106	0	4
NMTAP	106	48	3
NMTAP	106	96	1
NMTAP	106	144	3
NMTAP	106	192	1
NMTAP	106	192	4
NMTAP	106	240	2
BXTAP	106	252	3
BXTAP	106	264	4
BXTAP	106	276	5
NMTAP	106	288	2
BXTAP	106	300	3
BXTAP	106	312	4
BXTAP	106	324	5
NMTAP	106	336	2
BXTAP	106	348	3
BXTAP	106	360	4
BXTAP	106	372	5
NMTAP	107	0	2
NMHLD	107	96	1	48
NMTAP	107	96	3
NMTAP	107	144	4
NMTAP	107	192	3
NMHLD	107	240	1	96
NMTAP	107	240	4
NMTAP	107	288	3
NMTAP	107	336	4
NMHLD	108	0	1	48
NMTAP	108	0	3
NMTAP	108	48	4
NMTAP	108	96	2
NMTAP	108	96	5
NMHLD	108	144	1	96
NMTAP	108	144	4
NMTAP	108	192	4
NMTAP	108	240	5
NMHLD	108	288	1	48
NMTAP	108	288	5
NMTAP	109	0	2
NMHLD	109	0	5	96
NMHLD	109	96	3	48
NMTAP	109	144	6
NMTAP	109	192	4
NMTAP	109	192	5
NMHLD	109	240	3	96
NMTAP	109	240	6
NMTAP	109	288	5
NMTAP	109	336	6
NMTAP	110	0	3
NMTAP	110	0	4
NMTAP	110	48	2
NMTAP	110	48	5
NMTAP	110	96	1
NMTAP	110	96	6
NMTAP	110	144	2
NMTAP	110	144	5
NMTAP	110	192	3
NMTAP	110	192	4
NMTAP	110	256	3
NMTAP	110	272	2
NMTAP	110	288	3
NMTAP	110	308	2
NMTAP	110	327	3
NMTAP	110	347	2
NMTAP	110	366	3
NMTAP	111	0	2
NMTAP	111	20	3
NMTAP	111	39	2
NMTAP	111	59	3
NMTAP	111	78	2
NMTAP	111	96	3
NMTAP	111	116	2
NMTAP	111	135	3
NMTAP	111	155	2
NMTAP	111	174	3
NMTAP	111	192	2
NMTAP	111	212	3
NMTAP	111	231	2
NMTAP	111	251	3
NMTAP	111	270	2
NMTAP	111	288	3
NMTAP	111	308	2
NMTAP	111	327	3
NMTAP	111	347	2
NMTAP	111	366	3
NMHLD	112	0	2	96
NMTAP	112	96	3
NMTAP	112	108	4
NMTAP	112	120	5
NMTAP	112	132	2
NMTAP	112	144	3
NMTAP	112	156	4
NMTAP	112	168	5
NMTAP	112	180	1
NMTAP	112	192	2
NMTAP	112	204	3
NMTAP	112	216	4
NMTAP	112	228	5
NMTAP	112	240	1
NMTAP	112	252	2
NMTAP	112	264	3
NMTAP	112	276	4
NMTAP	112	288	5
NMTAP	112	300	6
BRTAP	113	192	0
NMTTP	114	0	2	A	0	M1
NMTTP	114	0	3	B	0	M1
NMTTP	114	0	4	B	0	M1
NMTTP	114	0	5	A	0	M1
NMTTP	114	2	5	E	0	M1
NMTTP	114	4	3	E	0	M1
NMTAP	114	96	7
NMTAP	114	104	6
NMTAP	114	112	5
NMTAP	114	120	4
NMTAP	114	128	3
NMTAP	114	136	2
NMTAP	114	144	1
NMTAP	114	152	0
NMTAP	114	160	7
NMTAP	114	168	6
NMTAP	114	176	5
NMTAP	114	184	4
NMTAP	114	192	0
NMTAP	114	208	4
NMTAP	114	224	0
NMTAP	114	240	4
NMTAP	114	256	0
NMTAP	114	272	4
NMTAP	114	288	0
NMTAP	114	296	1
NMTAP	114	304	2
NMTAP	114	312	3
NMTAP	114	320	4
NMTAP	114	328	5
NMTAP	114	336	6
NMTAP	114	344	7
NMTAP	114	352	0
NMTAP	114	360	1
NMTAP	114	368	2
NMTAP	114	376	3
EXHLD	115	16	4	128
EXHLD	115	16	7	128

T_REC_TAP	1181
T_REC_BRK	1
T_REC_XTP	48
T_REC_BXX	92
T_REC_HLD	161
T_REC_XHO	4
T_REC_BHO	0
T_REC_BXH	0
T_REC_STR	0
T_REC_BST	0
T_REC_XST	0
T_REC_XBS	0
T_REC_TTP	8
T_REC_THO	5
T_REC_SLD	0
T_REC_BSL	0
T_REC_ALL	1500
T_NUM_TAP	1237
T_NUM_BRK	93
T_NUM_HLD	170
T_NUM_SLD	0
T_NUM_ALL	1500
T_JUDGE_TAP	1330
T_JUDGE_HLD	308
T_JUDGE_SLD	0
T_JUDGE_ALL	1638
TTM_EACHPAIRS	272
TTM_SCR_TAP	618500
TTM_SCR_BRK	241800
TTM_SCR_HLD	170000
TTM_SCR_SLD	0
TTM_SCR_ALL	1030300
TTM_SCR_S	990400
TTM_SCR_SS	1021000
TTM_RAT_ACV	10091

