VERSION	0.00.00	1.05.00
FES_MODE	0
BPM_DEF	192.000	192.000	192.000	192.000
MET_DEF	4	4
RESOLUTION	384
CLK_DEF	384
COMPATIBLE_CODE	MA2

BPM	0	0	192.000
MET	0	0	4	4
MET	38	0	4	3
MET	48	192	4	4

NMSTR	1	0	2
NMSI_	1	0	2	96	48	0
NMHLD	1	0	4	96
NMSTR	1	192	2
NMSI_	1	192	2	96	48	0
NMHLD	1	192	4	96
NMTAP	2	0	2
NMTAP	2	0	4
NMSTR	2	48	2
NMSCR	2	48	2	96	144	5
NMTAP	2	48	4
NMHLD	3	0	3	96
NMSTR	3	0	5
NMSI_	3	0	5	96	48	7
NMHLD	3	192	3	96
NMSTR	3	192	5
NMSI_	3	192	5	96	48	7
NMTAP	4	0	3
NMTAP	4	0	5
NMTAP	4	48	3
NMSTR	4	48	5
NMSCL	4	48	5	96	144	2
NMSTR	5	0	2
NMSI_	5	0	2	96	48	0
NMSTR	5	0	5
NMSI_	5	0	5	96	48	7
NMSTR	5	192	2
NMSI_	5	192	2	96	48	0
NMSTR	5	192	5
NMSI_	5	192	5	96	48	7
NMTAP	6	0	2
NMTAP	6	48	5
NMTAP	6	96	2
NMTAP	6	144	3
NMTAP	6	144	4
NMTAP	6	240	3
NMTAP	6	240	4
NMTAP	6	288	1
NMTAP	6	288	6
NMHLD	7	0	1	96
NMHLD	7	96	2	96
NMHLD	7	192	3	96
NMHLD	7	288	4	240
NMTAP	8	0	5
NMSTR	8	48	5
NMSCR	8	48	5	96	192	2
NMTAP	8	96	5
BRTAP	8	144	5
NMTTP	9	48	2	E	0	M1
NMTTP	9	96	1	E	0	M1
NMTTP	9	144	0	E	0	M1
NMTTP	9	192	7	E	0	M1
NMTTP	9	240	6	E	0	M1
NMTTP	9	288	5	E	0	M1
NMTAP	10	0	2
NMSTR	10	0	3
NMSI_	10	0	3	96	48	7
NMTAP	10	96	2
NMSTR	10	192	3
NMSI_	10	192	3	96	48	7
NMTAP	10	192	4
NMTAP	10	288	4
NMTAP	11	0	2
NMSTR	11	0	3
NMSI_	11	0	3	96	48	7
NMTAP	11	96	2
NMSTR	11	192	3
NMSI_	11	192	3	96	48	7
NMTAP	11	192	4
NMTAP	11	288	4
NMTAP	12	0	2
NMSTR	12	0	3
NMSI_	12	0	3	96	48	7
NMTAP	12	96	2
NMSTR	12	192	3
NMSI_	12	192	3	96	48	7
NMTAP	12	192	4
NMTAP	12	288	4
NMTAP	13	0	2
NMSTR	13	0	3
NMSI_	13	0	3	96	48	7
NMTAP	13	96	2
NMTAP	13	192	4
NMTAP	13	240	3
NMTAP	13	288	2
NMTAP	13	288	6
NMSTR	14	0	4
NMSI_	14	0	4	96	48	0
NMTAP	14	0	5
NMTAP	14	96	5
NMTAP	14	192	3
NMSTR	14	192	4
NMSI_	14	192	4	96	48	0
NMTAP	14	288	3
NMSTR	15	0	4
NMSI_	15	0	4	96	48	0
NMTAP	15	0	5
NMTAP	15	96	5
NMTAP	15	192	3
NMSTR	15	192	4
NMSI_	15	192	4	96	48	0
NMTAP	15	288	3
NMSTR	16	0	4
NMSI_	16	0	4	96	48	0
NMTAP	16	0	5
NMTAP	16	96	5
NMTAP	16	192	3
NMSTR	16	192	4
NMSI_	16	192	4	96	48	0
NMTAP	16	288	3
NMTAP	17	0	2
NMTAP	17	0	5
NMTAP	17	48	2
NMTAP	17	48	5
NMTAP	17	96	2
NMTAP	17	96	5
NMTAP	17	192	1
NMTAP	17	192	4
NMTAP	17	240	2
NMTAP	17	264	3
NMTAP	17	288	2
NMSTR	17	336	2
NMSXR	17	336	2	96	240	7
NMSTR	17	336	3
NMSXL	17	336	3	96	240	6
NMTAP	19	0	2
NMTAP	19	0	3
NMTAP	19	96	3
NMTAP	19	96	5
NMTAP	19	144	3
NMTAP	19	144	5
NMTAP	19	240	2
NMTAP	19	288	3
NMTAP	19	336	5
NMTAP	20	0	4
NMHLD	20	0	6	624
NMTAP	20	96	5
NMTAP	20	144	5
NMTAP	20	240	7
NMTAP	20	288	0
NMSTR	20	336	1
NMSCR	20	336	1	96	96	4
NMTAP	21	240	4
NMTAP	21	288	3
NMTAP	21	288	5
NMTAP	22	0	4
NMHLD	22	0	6	672
NMTAP	22	96	5
NMTAP	22	144	5
NMTAP	22	240	7
NMTAP	22	288	0
NMSTR	22	336	1
NMSCR	22	336	1	96	96	4
NMTAP	23	240	7
NMTAP	23	288	7
NMTAP	24	0	3
NMTAP	24	0	6
NMTAP	24	48	3
NMTAP	24	48	6
NMHLD	24	96	3	96
NMHLD	24	96	6	96
NMTAP	24	240	3
NMTAP	24	240	6
NMTAP	24	288	2
NMTAP	24	288	5
NMTAP	24	336	1
NMTAP	24	336	4
NMTAP	25	0	0
NMTAP	25	0	5
NMTAP	25	48	0
NMTAP	25	48	5
NMHLD	25	96	0	144
NMHLD	25	96	5	144
NMTAP	25	288	6
NMTAP	25	288	7
NMTAP	26	0	5
NMTAP	26	48	4
NMTAP	26	96	3
NMHLD	26	144	2	96
NMHLD	26	240	0	96
NMTAP	26	336	7
NMTAP	27	48	6
NMSTR	27	48	7
NMSCR	27	48	7	96	144	3
NMTAP	27	96	5
NMTAP	27	144	4
NMHLD	28	0	1	288
NMHLD	28	0	5	288
NMHLD	29	0	1	384
NMTAP	29	0	3
NMTAP	29	96	2
NMTAP	29	144	2
NMTAP	29	240	0
NMTAP	29	288	0
NMHLD	30	0	3	96
NMHLD	30	96	0	192
NMTTP	30	192	7	E	0	M1
NMTTP	30	288	7	E	0	M1
NMHLD	31	0	1	384
NMTAP	31	0	3
NMTAP	31	96	2
NMTAP	31	144	2
NMTAP	31	240	0
NMTAP	31	288	0
NMHLD	32	0	3	96
NMHLD	32	96	0	144
NMTTP	32	192	1	E	0	M1
NMTTP	32	240	0	E	0	M1
NMHLD	33	0	1	48
NMHLD	33	0	4	48
NMTAP	33	96	2
NMTAP	33	96	3
NMHLD	33	192	3	48
NMHLD	33	192	6	48
NMTAP	33	288	4
NMTAP	33	288	5
NMHLD	34	0	2	48
NMHLD	34	0	7	48
NMTAP	34	96	0
NMTAP	34	96	1
NMHLD	34	192	0	48
NMHLD	34	192	5	48
NMTAP	34	288	6
NMTAP	34	288	7
NMHLD	35	0	5	144
NMTAP	35	96	3
NMTAP	35	144	3
NMTAP	35	168	4
NMHLD	35	192	2	144
NMTAP	35	288	4
NMTAP	35	336	4
NMTAP	35	360	3
NMSTR	36	0	5
NMSF_	36	0	5	96	144	1
NMTAP	37	0	3
NMTAP	37	0	7
NMHLD	37	48	3	96
NMHLD	37	48	7	96
NMTAP	37	192	4
NMTAP	37	192	6
NMSTR	37	288	6
NMSCL	37	288	6	96	144	2
NMTAP	38	0	1
NMTAP	38	96	1
NMSTR	38	192	1
NMSCR	38	192	1	96	144	5
NMTAP	38	288	6
NMTAP	39	0	6
NMSTR	39	96	6
NMSCL	39	96	6	96	144	2
NMTAP	39	192	0
NMTAP	39	288	0
NMSTR	40	0	0
NMSCR	40	0	0	96	144	4
NMTAP	40	96	5
NMTAP	40	192	5
NMSTR	40	288	5
NMSCL	40	288	5	96	144	1
NMTAP	41	0	7
NMTAP	41	96	7
NMSTR	41	192	7
NMSCR	41	192	7	96	144	3
NMTAP	41	288	4
NMTAP	42	0	4
NMSTR	42	96	4
NMSCL	42	96	4	96	288	5
NMHLD	42	192	0	288
NMTAP	43	192	1
NMTAP	43	192	3
NMSTR	43	288	1
NMSCR	43	288	1	96	144	5
NMTAP	43	288	3
NMTAP	44	0	6
NMTAP	44	96	6
NMSTR	44	192	6
NMSCL	44	192	6	96	144	2
NMTAP	44	288	1
NMTAP	45	0	1
NMSTR	45	96	1
NMSCR	45	96	1	96	144	5
NMTAP	45	192	7
NMTAP	45	288	7
NMSTR	46	0	7
NMSI_	46	0	7	96	48	3
EXTAP	46	96	7
EXHLD	46	192	0	672
EXHLD	46	192	4	672
NMSTR	48	192	2
NMSUL	48	192	2	96	192	4
NMHLD	48	192	3	672
NMTAP	49	192	4
NMTAP	49	288	4
NMTAP	50	0	2
NMTAP	50	96	2
NMHLD	50	192	4	576
NMSTR	50	192	5
NMSUR	50	192	5	96	192	3
NMTAP	51	192	3
NMTAP	51	288	3
NMTAP	52	0	5
NMTAP	52	96	4
NMSTR	52	96	5
NMSI_	52	96	5	96	48	7
NMSTR	52	288	2
NMSI_	52	288	2	96	48	0
NMTAP	52	288	3
NMTAP	53	96	4
NMSTR	53	96	5
NMSI_	53	96	5	96	48	0
NMSTR	53	288	2
NMSI_	53	288	2	96	48	7
NMTAP	53	288	3
NMTAP	54	96	0
NMTAP	54	96	6
NMTAP	54	192	0
NMHLD	54	192	6	96
NMTAP	54	240	0
NMTAP	54	288	0
NMTAP	54	336	0
NMTAP	55	0	0
NMHLD	55	0	5	96
NMTAP	55	48	0
NMSTR	55	96	0
NMSI_	55	96	0	96	48	4
EXTAP	55	192	0
NMSTR	55	192	4
NMSF_	55	192	4	96	96	0
NMTTP	55	336	0	C	1	M1
NMTAP	56	192	5
NMTAP	56	288	5
NMTAP	57	0	5
NMSTR	57	96	3
NMSI_	57	96	3	96	48	0
NMSTR	57	96	4
NMSI_	57	96	4	96	48	7
EXTAP	57	192	3
EXTAP	57	192	4
NMTAP	57	288	1
NMTAP	57	288	6
NMTAP	57	336	5
NMTAP	58	0	2
NMTAP	58	0	4
NMTAP	58	48	1
NMTAP	58	72	3
NMTAP	58	96	1
NMSTR	58	144	2
NMSUL	58	144	2	96	48	6
NMTAP	58	144	3
NMTAP	58	240	4
NMHLD	58	288	4	96
NMTAP	59	0	3
NMTAP	59	96	0
NMTAP	59	96	1
NMSTR	59	192	3
NMSI_	59	192	3	96	48	7
NMTAP	59	192	5
NMTAP	59	288	4
NMTAP	60	0	1
NMSTR	60	0	3
NMSI_	60	0	3	96	48	7
NMTAP	60	96	2
NMSTR	60	192	3
NMSI_	60	192	3	96	48	7
NMTAP	60	192	5
NMTAP	60	288	4
NMTTP	61	0	1	B	0	M1
NMTTP	61	0	1	E	0	M1
NMTTP	61	0	2	B	0	M1
NMTTP	61	0	2	E	0	M1
NMTTP	61	0	3	E	0	M1
NMSTR	61	96	0
NMSI_	61	96	0	96	48	3
NMSTR	61	96	7
NMSI_	61	96	7	96	48	4
EXTAP	61	192	0
EXTAP	61	192	7
NMTAP	61	288	1
NMTAP	61	288	6
NMTAP	61	336	2
NMTAP	62	0	3
NMTAP	62	0	5
NMTAP	62	48	6
NMTAP	62	72	4
NMTAP	62	96	6
NMTAP	62	144	4
NMSTR	62	144	5
NMSUR	62	144	5	96	48	1
NMTAP	62	240	3
NMHLD	62	288	3	96
NMTAP	63	0	4
NMTAP	63	96	6
NMTAP	63	96	7
NMTAP	63	192	2
NMSTR	63	192	4
NMSI_	63	192	4	96	48	0
NMTAP	63	288	3
NMSTR	64	0	4
NMSI_	64	0	4	96	48	0
NMTAP	64	0	6
NMTAP	64	96	5
NMTAP	64	192	2
NMSTR	64	192	4
NMSI_	64	192	4	96	48	0
NMTAP	64	288	3
NMTAP	65	0	4
NMTAP	65	0	6
BRTAP	65	96	0
BRTAP	65	96	7
NMTAP	65	192	3
NMTAP	65	192	4
NMTAP	65	288	1
NMTAP	65	288	6
NMTAP	65	336	5
NMTAP	66	0	2
NMTAP	66	0	4
NMTAP	66	48	1
NMTAP	66	72	3
NMTAP	66	96	1
NMSTR	66	144	2
NMSCL	66	144	2	96	48	6
NMTAP	66	144	3
NMTAP	66	240	4
NMHLD	66	288	4	96
NMTAP	67	0	3
NMTAP	67	96	0
NMTAP	67	96	1
NMSTR	67	192	3
NMSI_	67	192	3	96	48	7
NMTAP	67	192	5
NMTAP	67	288	4
NMTAP	68	0	1
NMSTR	68	0	3
NMSI_	68	0	3	96	48	7
NMTAP	68	96	2
NMSTR	68	192	3
NMSI_	68	192	3	96	48	7
NMTAP	68	192	5
NMTAP	68	288	4
NMTAP	69	0	1
NMTAP	69	0	3
BRTAP	69	96	0
BRTAP	69	96	7
NMTAP	69	192	3
NMTAP	69	192	4
NMTAP	69	288	1
NMTAP	69	288	6
NMTAP	69	336	2
NMTAP	70	0	3
NMTAP	70	0	5
NMTAP	70	48	6
NMTAP	70	72	4
NMTAP	70	96	6
NMTAP	70	144	4
NMSTR	70	144	5
NMSCR	70	144	5	96	48	1
NMTAP	70	240	3
NMHLD	70	288	3	96
NMTAP	71	0	4
NMTAP	71	96	1
NMTAP	71	96	6
NMTAP	71	192	2
NMTAP	71	216	3
NMTAP	71	240	2
NMTAP	71	264	3
NMTAP	71	288	2
NMTAP	71	336	1
NMTAP	72	0	5
NMTAP	72	24	4
NMTAP	72	48	5
NMTAP	72	72	4
NMTAP	72	96	5
NMTAP	72	144	6
NMHLD	72	192	1	96
NMHLD	72	288	3	96
NMHLD	73	0	4	96
NMHLD	73	96	6	96
NMTHO	73	192	0	192	C	1	M1
NMTTP	74	0	4	B	0	M1
NMTTP	74	0	5	B	0	M1
NMTTP	74	0	5	E	0	M1
NMTAP	74	192	1
NMTAP	74	240	1
NMTAP	74	288	6
NMTAP	74	336	6
NMSTR	75	0	6
NMSI_	75	0	6	96	48	3
NMSTR	75	0	7
NMSI_	75	0	7	96	48	2
EXTAP	75	96	6
EXTAP	75	96	7
NMTAP	75	192	2
NMSTR	75	192	4
NMSI_	75	192	4	96	48	1
EXTAP	75	288	3
NMSTR	76	0	4
NMSI_	76	0	4	96	48	7
NMTAP	76	0	6
EXTAP	76	96	5
NMTAP	76	192	2
NMSTR	76	192	4
NMSI_	76	192	4	96	48	1
EXTAP	76	288	3
BRTAP	77	0	0
BRTAP	77	0	6
BRTAP	77	48	0
BRTAP	77	48	6
BRTAP	77	96	0
BRTAP	77	96	6
NMSTR	77	192	2
NMSCL	77	192	2	96	48	7
NMSTR	77	192	3
NMSUL	77	192	3	96	48	6
NMSTR	78	0	4
NMSUR	78	0	4	96	48	1
NMSTR	78	0	5
NMSCR	78	0	5	96	48	0
NMTAP	78	192	2
NMTAP	78	240	5
NMTAP	78	288	3
NMTAP	78	288	4
NMTTP	79	0	1	B	0	M1
NMTTP	79	0	2	E	0	M1
NMTTP	79	0	6	B	0	M1
NMTTP	79	0	6	E	0	M1
BRTAP	79	96	0
BRTAP	79	96	7
NMSTR	79	192	3
NMSI_	79	192	3	96	48	6
NMTAP	79	192	5
EXTAP	79	288	4
NMTAP	80	0	1
NMSTR	80	0	3
NMSI_	80	0	3	96	48	0
EXTAP	80	96	2
NMSTR	80	192	3
NMSI_	80	192	3	96	48	6
NMTAP	80	192	5
EXTAP	80	288	4
BRTAP	81	0	1
BRTAP	81	0	7
BRTAP	81	48	1
BRTAP	81	48	7
BRTAP	81	96	1
BRTAP	81	96	7
NMSTR	81	192	3
NMSI_	81	192	3	96	48	0
NMSTR	81	192	5
NMSI_	81	192	5	96	48	2
NMSTR	82	0	7
NMSV_	82	0	7	96	48	1
NMSV_	82	0	7	96	48	5
NMTAP	82	192	3
NMTAP	82	192	4
NMSTR	82	288	4
NMSI_	82	288	4	96	48	0
NMSTR	82	288	6
NMSI_	82	288	6	96	48	2
EXTAP	83	0	4
EXTAP	83	0	6
NMTTP	83	24	0	C	1	M1
BRTAP	83	96	2
BRTAP	83	96	5
NMSTR	83	192	1
NMSI_	83	192	1	96	48	5
NMTAP	83	192	6
EXTAP	83	288	7
NMTAP	84	0	1
NMSTR	84	0	6
NMSI_	84	0	6	96	48	2
EXTAP	84	96	0
NMSTR	84	192	1
NMSI_	84	192	1	96	48	5
NMTAP	84	192	6
EXTAP	84	288	7
NMTAP	85	0	1
NMTAP	85	0	6
BRTAP	85	96	0
BRTAP	85	96	7
NMTAP	85	192	3
NMTAP	85	192	4
NMTAP	85	288	1
NMTAP	85	288	6
NMTAP	85	336	5
NMTAP	86	0	2
NMTAP	86	0	4
NMTAP	86	48	1
NMTAP	86	72	3
NMTAP	86	96	1
NMSTR	86	144	2
NMSCL	86	144	2	96	48	6
NMTAP	86	144	3
NMTAP	86	240	4
NMHLD	86	288	4	96
NMSTR	87	0	3
NMSI_	87	0	3	96	48	0
EXTAP	87	96	3
EXTAP	87	96	4
NMTAP	87	192	2
NMTAP	87	216	3
NMTAP	87	240	2
NMTAP	87	264	3
NMTAP	87	288	2
NMTAP	87	336	0
NMTAP	88	0	5
NMTAP	88	24	4
NMTAP	88	48	5
NMTAP	88	72	4
NMTAP	88	96	5
NMTAP	88	144	7
EXSTR	88	192	3
NMSI_	88	192	3	96	48	7
EXTAP	88	288	3
EXSTR	88	288	4
NMSI_	88	288	4	96	48	0
EXSTR	89	0	2
NMSCL	89	0	2	96	48	7
EXTAP	89	0	4
EXTAP	89	96	2
EXSTR	89	96	5
NMSCR	89	96	5	96	48	0
EXSTR	89	192	3
NMSI_	89	192	3	96	48	7
EXTAP	89	192	5
EXTAP	89	288	3
EXSTR	89	288	4
NMSI_	89	288	4	96	48	0
EXSTR	90	0	2
NMSCL	90	0	2	96	48	7
EXTAP	90	0	4
EXTAP	90	96	2
EXSTR	90	96	5
NMSCR	90	96	5	96	48	0
EXSTR	90	192	3
NMSSL	90	192	3	96	480	7
NMTTP	90	192	4	A	0	M1
NMTTP	90	192	5	A	0	M1
NMTTP	90	192	5	D	1	M1

T_REC_TAP	311
T_REC_BRK	23
T_REC_XTP	28
T_REC_BXX	0
T_REC_HLD	50
T_REC_XHO	2
T_REC_BHO	0
T_REC_BXH	0
T_REC_STR	88
T_REC_BST	0
T_REC_XST	9
T_REC_XBS	0
T_REC_TTP	27
T_REC_THO	1
T_REC_SLD	98
T_REC_BSL	0
T_REC_ALL	637
T_NUM_TAP	463
T_NUM_BRK	23
T_NUM_HLD	53
T_NUM_SLD	98
T_NUM_ALL	637
T_JUDGE_TAP	486
T_JUDGE_HLD	203
T_JUDGE_SLD	98
T_JUDGE_ALL	787
TTM_EACHPAIRS	151
TTM_SCR_TAP	231500
TTM_SCR_BRK	59800
TTM_SCR_HLD	53000
TTM_SCR_SLD	147000
TTM_SCR_ALL	491300
TTM_SCR_S	474350
TTM_SCR_SS	489000
TTM_RAT_ACV	10047

