VERSION	0.00.00	1.05.00
FES_MODE	0
BPM_DEF	192.000	192.000	192.000	192.000
MET_DEF	4	4
RESOLUTION	384
CLK_DEF	384
COMPATIBLE_CODE	MA2

BPM	0	0	192.000
MET	0	0	4	4
MET	38	0	4	3
MET	48	192	4	4

NMHLD	1	0	3	96
NMSTR	1	0	5
NMSI_	1	0	5	96	48	7
NMHLD	1	192	3	96
NMSTR	1	192	5
NMSI_	1	192	5	96	48	7
NMTAP	2	0	3
NMTAP	2	0	5
NMTAP	2	48	3
NMSTR	2	48	5
NMSCL	2	48	5	96	144	2
NMSTR	3	0	2
NMSI_	3	0	2	96	48	0
NMHLD	3	0	4	96
NMSTR	3	192	2
NMSI_	3	192	2	96	48	0
NMHLD	3	192	4	96
NMTAP	4	0	2
NMTAP	4	0	4
NMSTR	4	48	2
NMSCR	4	48	2	96	144	5
NMTAP	4	48	4
NMSTR	5	0	2
NMSI_	5	0	2	96	48	0
NMSTR	5	0	5
NMSI_	5	0	5	96	48	7
NMSTR	5	192	2
NMSI_	5	192	2	96	48	0
NMSTR	5	192	5
NMSI_	5	192	5	96	48	7
NMTAP	6	0	5
NMTAP	6	48	2
NMTAP	6	96	5
NMTAP	6	144	3
NMTAP	6	144	4
NMTAP	6	240	3
NMTAP	6	240	4
NMTAP	6	288	1
NMTAP	6	288	6
NMHLD	7	0	6	96
NMHLD	7	96	5	96
NMHLD	7	192	4	96
NMHLD	7	288	3	240
NMTAP	8	0	2
NMSTR	8	48	2
NMSCL	8	48	2	96	192	5
NMTAP	8	96	2
BRTAP	8	144	2
NMTTP	9	48	5	E	0	M1
NMTTP	9	96	6	E	0	M1
NMTTP	9	144	7	E	0	M1
NMTTP	9	192	0	E	0	M1
NMTTP	9	240	1	E	0	M1
NMTTP	9	288	2	E	0	M1
NMSTR	10	0	4
NMSI_	10	0	4	96	48	0
NMTAP	10	0	5
NMTAP	10	96	5
NMTAP	10	192	3
NMSTR	10	192	4
NMSI_	10	192	4	96	48	0
NMTAP	10	288	3
NMSTR	11	0	4
NMSI_	11	0	4	96	48	0
NMTAP	11	0	5
NMTAP	11	96	5
NMTAP	11	192	3
NMSTR	11	192	4
NMSI_	11	192	4	96	48	0
NMTAP	11	288	3
NMSTR	12	0	4
NMSI_	12	0	4	96	48	0
NMTAP	12	0	5
NMTAP	12	96	5
NMTAP	12	192	3
NMSTR	12	192	4
NMSI_	12	192	4	96	48	0
NMTAP	12	288	3
NMSTR	13	0	4
NMSI_	13	0	4	96	48	0
NMTAP	13	0	5
NMTAP	13	96	5
NMTAP	13	192	3
NMTAP	13	240	4
NMTAP	13	288	1
NMTAP	13	288	5
NMTAP	14	0	2
NMSTR	14	0	3
NMSI_	14	0	3	96	48	7
NMTAP	14	96	2
NMSTR	14	192	3
NMSI_	14	192	3	96	48	7
NMTAP	14	192	4
NMTAP	14	288	4
NMTAP	15	0	2
NMSTR	15	0	3
NMSI_	15	0	3	96	48	7
NMTAP	15	96	2
NMSTR	15	192	3
NMSI_	15	192	3	96	48	7
NMTAP	15	192	4
NMTAP	15	288	4
NMTAP	16	0	2
NMSTR	16	0	3
NMSI_	16	0	3	96	48	7
NMTAP	16	96	2
NMSTR	16	192	3
NMSI_	16	192	3	96	48	7
NMTAP	16	192	4
NMTAP	16	288	4
NMTAP	17	0	2
NMTAP	17	0	5
NMTAP	17	48	2
NMTAP	17	48	5
NMTAP	17	96	2
NMTAP	17	96	5
NMTAP	17	192	3
NMTAP	17	192	6
NMTAP	17	240	5
NMTAP	17	264	4
NMTAP	17	288	5
NMSTR	17	336	4
NMSXR	17	336	4	96	240	1
NMSTR	17	336	5
NMSXL	17	336	5	96	240	0
NMTAP	19	0	4
NMTAP	19	0	5
NMTAP	19	96	2
NMTAP	19	96	4
NMHLD	19	144	2	144
NMHLD	19	144	4	144
NMTAP	20	0	1
NMTAP	20	0	3
NMTAP	20	96	6
NMTAP	20	96	7
NMTAP	20	144	6
NMTAP	20	144	7
NMTAP	20	240	4
NMTAP	20	240	5
NMTAP	20	288	4
NMTAP	20	288	5
NMTTP	21	0	6	E	0	M1
NMTTP	21	48	5	E	0	M1
NMTTP	21	96	4	E	0	M1
NMTTP	21	144	3	E	0	M1
NMTTP	21	192	2	E	0	M1
NMTAP	21	288	0
NMHLD	22	0	1	288
NMTAP	22	0	3
NMTAP	22	96	2
NMTAP	22	144	2
NMTAP	22	240	0
NMTAP	22	288	0
NMTTP	23	0	2	E	0	M1
NMTTP	23	48	3	E	0	M1
NMTTP	23	96	4	E	0	M1
NMTTP	23	144	5	E	0	M1
NMTTP	23	192	6	E	0	M1
EXTAP	23	288	0
EXTAP	23	288	7
NMTAP	24	0	1
NMTAP	24	0	4
NMTAP	24	48	1
NMTAP	24	48	4
NMTAP	24	96	1
NMSTR	24	96	4
NMSI_	24	96	4	96	48	1
NMTAP	24	288	0
NMTAP	24	288	2
NMTAP	25	0	2
NMTAP	25	0	7
NMTAP	25	48	2
NMTAP	25	48	7
NMTAP	25	96	2
NMSTR	25	96	7
NMSI_	25	96	7	96	48	2
NMTAP	25	288	1
NMTAP	25	288	3
NMTAP	26	0	2
NMTAP	26	48	2
NMTAP	26	96	3
NMTAP	26	192	5
NMTAP	26	240	5
NMTAP	26	288	4
NMTAP	27	0	1
NMTAP	27	48	1
NMTAP	27	96	3
NMTAP	27	192	6
NMTAP	27	240	6
NMTAP	27	288	4
NMSTR	28	0	2
NMSCR	28	0	2	96	96	5
NMTAP	28	0	5
BRTAP	28	240	7
BRTAP	28	288	7
BRTAP	28	336	7
NMTAP	29	0	4
NMHLD	29	0	6	384
NMTAP	29	96	5
NMTAP	29	144	5
NMTAP	29	240	7
NMSTR	29	288	7
NMSI_	29	288	7	96	96	2
CNSI_	30	96	2	0	96	6
CNSI_	30	192	6	0	96	3
NMTAP	31	0	4
NMHLD	31	0	6	384
NMTAP	31	96	5
NMTAP	31	144	5
NMTAP	31	240	7
NMTAP	31	288	7
NMHLD	32	0	4	96
NMHLD	32	96	2	96
NMTAP	32	192	0
NMTAP	32	240	1
NMTAP	32	240	7
NMTAP	32	288	1
NMTAP	32	288	7
NMTAP	33	0	6
NMTAP	33	48	5
NMTAP	33	96	4
NMTAP	33	144	6
NMTAP	33	192	5
NMTAP	33	240	4
NMTAP	33	288	6
NMTAP	33	336	5
NMTAP	34	0	7
NMTAP	34	48	6
NMTAP	34	96	5
NMTAP	34	144	7
NMTAP	34	192	6
NMTAP	34	240	5
NMTAP	34	288	7
NMHLD	35	0	2	144
NMTAP	35	0	6
NMTAP	35	96	4
NMTAP	35	144	4
NMTAP	35	168	3
NMHLD	35	192	5	144
NMTAP	35	288	3
NMTAP	35	336	3
NMTAP	35	360	4
NMSTR	36	0	2
NMSF_	36	0	2	96	144	6
NMHLD	37	0	2	192
NMSTR	37	0	6
NMSXL	37	0	6	96	96	7
NMSTR	37	288	1
NMSCR	37	288	1	96	144	5
NMTAP	38	0	6
NMTAP	38	96	6
NMSTR	38	192	6
NMSCL	38	192	6	96	144	2
NMTAP	38	288	1
NMTAP	39	0	1
NMSTR	39	96	1
NMSCR	39	96	1	96	144	5
NMTAP	39	192	7
NMTAP	39	288	7
NMSTR	40	0	7
NMSCL	40	0	7	96	144	3
NMTAP	40	96	2
NMTAP	40	192	2
NMSTR	40	288	2
NMSCR	40	288	2	96	144	6
NMTAP	41	0	0
NMTAP	41	96	0
NMSTR	41	192	0
NMSCL	41	192	0	96	144	4
NMTAP	41	288	3
NMTAP	42	0	2
NMTAP	42	96	1
NMHLD	42	192	0	480
NMTAP	42	192	4
NMTTP	42	288	3	E	0	M1
NMTTP	42	336	4	E	0	M1
NMTHO	43	0	5	96	E	0	M1
NMTAP	43	192	4
NMTAP	43	240	5
NMSTR	43	288	6
NMSCL	43	288	6	96	144	2
NMTAP	44	0	1
EXTAP	44	96	0
NMSTR	44	192	1
NMSCR	44	192	1	96	144	5
NMTAP	44	288	6
EXTAP	45	0	7
NMSTR	45	96	6
NMSCL	45	96	6	96	144	2
NMTAP	45	192	0
EXTAP	45	288	7
NMSTR	46	0	0
NMSI_	46	0	0	96	48	4
EXTAP	46	96	0
BXHLD	46	192	3	672
EXHLD	46	192	7	672
NMHLD	48	192	4	672
NMTAP	48	192	6
NMTAP	48	288	5
NMTAP	48	336	5
NMTAP	49	0	5
NMTTP	49	96	5	E	0	M1
NMTTP	49	144	4	E	0	M1
NMTAP	49	240	2
NMTAP	49	288	2
NMTAP	50	0	3
BRTAP	50	96	5
BRTAP	50	192	2
NMHLD	50	192	3	672
NMTAP	50	240	1
NMTAP	50	288	0
NMTTP	51	0	1	E	0	M1
NMTTP	51	0	1	D	0	M1
NMTTP	51	72	2	E	0	M1
NMTTP	51	72	2	D	0	M1
NMTTP	51	144	3	E	0	M1
NMTTP	51	144	3	D	0	M1
NMTAP	51	240	4
NMTAP	51	288	4
NMTAP	51	336	4
NMTAP	52	0	4
NMTAP	52	96	2
NMSTR	52	192	2
BRSI_	52	192	2	96	48	0
NMTAP	52	192	3
NMTAP	53	0	4
NMSTR	53	0	5
BRSI_	53	0	5	96	48	7
NMSTR	53	192	2
BRSI_	53	192	2	96	48	7
NMTAP	53	192	3
NMTAP	54	0	4
NMSTR	54	0	5
BRSI_	54	0	5	96	48	0
NMHLD	54	192	1	96
NMTAP	54	192	7
NMTAP	54	240	7
NMTAP	54	288	7
NMTAP	54	336	7
NMHLD	55	0	2	96
NMTAP	55	0	7
NMTAP	55	48	7
NMSTR	55	96	7
NMSI_	55	96	7	96	48	3
NMSTR	55	192	3
NMSF_	55	192	3	96	96	7
EXTAP	55	192	7
NMTTP	55	336	0	C	1	M1
NMTAP	56	192	6
NMTAP	56	192	7
NMTAP	56	288	3
NMTAP	56	288	4
NMSTR	57	0	0
NMSI_	57	0	0	96	48	5
NMSTR	57	0	1
NMSI_	57	0	1	96	48	4
BRTAP	57	96	0
BRTAP	57	96	1
EXSTR	57	192	4
NMSI_	57	192	4	96	48	0
EXTAP	57	192	6
NMTAP	57	288	5
NMTAP	58	0	2
NMSTR	58	0	4
NMSI_	58	0	4	96	48	0
NMTAP	58	96	3
NMTAP	58	192	4
NMTAP	58	192	7
NMTAP	58	240	6
NMTAP	58	288	3
NMTAP	58	288	5
NMTAP	58	336	2
NMTTP	59	0	2	B	0	M1
NMTTP	59	0	2	E	0	M1
NMTTP	59	0	3	B	0	M1
NMTTP	59	0	3	E	0	M1
NMTTP	59	0	4	E	0	M1
NMSTR	59	96	0
BRSI_	59	96	0	96	48	3
NMSTR	59	96	7
BRSI_	59	96	7	96	48	4
BRTAP	59	192	0
BRTAP	59	192	7
NMTAP	59	288	1
NMTAP	59	288	6
NMTAP	59	336	2
NMTAP	60	0	3
NMTAP	60	0	5
NMTAP	60	48	6
NMTAP	60	72	4
NMTAP	60	96	6
NMTAP	60	144	4
NMSTR	60	144	5
BRSUR	60	144	5	96	48	1
NMTAP	60	240	2
NMHLD	60	288	2	96
NMSTR	61	0	3
NMSI_	61	0	3	96	48	6
BRSI_	61	0	3	96	48	0
BRTAP	61	96	3
NMTAP	61	192	5
NMSTR	61	192	7
NMSI_	61	192	7	96	48	3
NMTAP	61	288	6
NMTAP	62	0	1
NMSTR	62	0	7
NMSI_	62	0	7	96	48	3
NMTAP	62	96	0
NMTAP	62	144	0
NMTAP	62	192	4
NMTAP	62	192	7
NMTAP	62	240	5
NMTAP	62	288	0
NMTAP	62	288	6
NMTAP	62	336	1
NMSTR	63	0	2
BRSI_	63	0	2	96	48	7
NMSTR	63	0	3
BRSI_	63	0	3	96	48	6
BRTAP	63	96	2
BRTAP	63	96	3
BRTAP	63	192	0
BRTAP	63	192	5
NMTAP	63	288	2
NMTAP	63	288	7
NMTAP	63	336	6
NMTAP	64	0	3
NMTAP	64	0	5
NMTAP	64	48	2
NMTAP	64	72	4
NMTAP	64	96	2
NMTAP	64	144	1
NMSTR	64	144	3
BRSCR	64	144	3	96	48	6
NMTAP	64	240	7
NMTAP	64	288	7
NMTAP	64	336	0
NMSTR	65	0	0
BRSI_	65	0	0	96	48	5
NMSTR	65	0	1
BRSI_	65	0	1	96	48	4
BRTAP	65	96	0
BRTAP	65	96	1
EXSTR	65	192	4
NMSI_	65	192	4	96	48	0
EXTAP	65	192	6
NMTAP	65	288	5
NMTAP	66	0	2
NMSTR	66	0	4
NMSI_	66	0	4	96	48	0
NMTAP	66	96	3
NMTAP	66	144	3
NMTAP	66	192	4
NMTAP	66	192	7
NMTAP	66	240	6
NMTAP	66	288	3
NMTAP	66	288	5
NMTAP	66	336	2
NMTAP	66	336	4
NMTAP	67	0	1
NMSTR	67	0	3
NMSI_	67	0	3	96	48	7
NMTAP	67	96	2
NMTAP	67	96	3
BRTAP	67	192	0
BRTAP	67	192	6
NMTAP	67	288	1
NMTAP	67	288	6
NMTAP	67	336	5
NMTAP	68	0	2
NMTAP	68	0	4
NMTAP	68	48	1
NMTAP	68	72	3
NMTAP	68	96	1
NMSTR	68	144	2
BRSCL	68	144	2	96	48	6
NMTAP	68	144	3
NMTAP	68	240	4
NMHLD	68	288	4	96
NMSTR	69	0	3
NMSI_	69	0	3	96	48	6
BRSI_	69	0	3	96	48	0
BRTAP	69	96	3
NMTAP	69	192	5
NMSTR	69	192	7
NMSI_	69	192	7	96	48	3
NMTAP	69	288	6
NMTAP	70	0	1
NMSTR	70	0	7
NMSI_	70	0	7	96	48	3
NMTAP	70	96	0
NMTAP	70	144	0
NMTAP	70	192	1
NMTAP	70	192	4
NMTAP	70	240	2
NMTAP	70	288	3
NMTAP	70	288	5
NMTAP	70	336	6
NMSTR	71	0	0
BRSI_	71	0	0	96	48	2
NMSTR	71	0	7
BRSI_	71	0	7	96	48	3
NMTAP	71	96	0
NMTAP	71	96	7
NMTAP	71	192	4
NMTAP	71	240	4
NMTAP	71	288	3
NMTAP	71	288	5
NMTAP	71	336	2
NMTAP	72	0	1
NMTAP	72	0	3
NMTAP	72	48	5
NMTAP	72	96	3
NMTAP	72	96	7
NMTAP	72	144	0
BXHLD	72	192	6	96
NMTAP	72	192	7
BXHLD	72	288	4	96
BXHLD	73	0	3	96
BXHLD	73	96	1	96
NMTHO	73	192	0	192	C	1	M1
NMTTP	74	0	1	B	0	M1
NMTTP	74	0	2	B	0	M1
NMTTP	74	0	2	E	0	M1
NMTAP	74	192	6
NMTAP	74	240	6
NMTAP	74	288	1
NMTAP	74	336	1
NMSTR	75	0	0
NMSI_	75	0	0	96	48	5
NMSTR	75	0	1
BRSI_	75	0	1	96	48	4
EXTAP	75	96	0
EXTAP	75	96	1
BXSTR	75	192	3
BRSI_	75	192	3	96	48	1
BXSTR	75	192	6
BRSI_	75	192	6	96	48	0
NMTAP	75	288	3
NMTAP	75	288	6
NMTAP	76	0	2
NMTAP	76	0	7
NMTAP	76	48	6
NMTAP	76	72	4
NMTAP	76	96	5
NMSTR	76	144	3
BRSUR	76	144	3	96	96	0
NMTAP	76	144	4
NMTAP	76	240	4
NMTAP	76	288	5
NMTAP	76	336	6
BRTAP	77	0	1
BRTAP	77	0	7
BRTAP	77	48	1
BRTAP	77	48	7
BRTAP	77	96	1
BRTAP	77	96	7
NMSTR	77	192	2
NMSCL	77	192	2	96	48	7
NMSTR	77	192	3
BRSUL	77	192	3	96	48	6
NMSTR	78	0	4
BRSUR	78	0	4	96	48	1
NMSTR	78	0	5
NMSCR	78	0	5	96	48	0
NMTAP	78	192	2
NMTAP	78	240	5
NMTAP	78	288	4
NMTAP	78	336	3
NMTTP	79	0	1	B	0	M1
NMTTP	79	0	2	E	0	M1
NMTTP	79	0	6	B	0	M1
NMTTP	79	0	6	E	0	M1
NMSTR	79	96	0
BRSCR	79	96	0	96	48	3
NMSTR	79	96	7
BRSCL	79	96	7	96	48	4
BRTAP	79	192	0
BRTAP	79	192	7
NMTAP	79	288	2
NMTAP	79	288	5
NMTAP	79	336	6
NMTAP	80	0	3
NMTAP	80	0	7
NMTAP	80	48	1
NMTAP	80	72	0
NMTAP	80	96	1
NMTAP	80	144	2
NMSTR	80	144	7
BRSLL	80	144	7	96	96	2
NMTAP	80	240	3
NMTAP	80	288	2
NMTAP	80	336	1
BRTAP	81	0	0
BRTAP	81	0	3
BRTAP	81	48	0
BRTAP	81	48	3
BRTAP	81	96	0
BRTAP	81	96	3
NMSTR	81	192	2
BRSI_	81	192	2	96	48	5
NMSTR	81	192	4
NMSI_	81	192	4	96	48	7
NMSTR	82	0	0
NMSV_	82	0	0	96	48	2
BRSV_	82	0	0	96	48	6
NMTAP	82	192	3
NMTAP	82	192	4
NMSTR	82	288	1
BRSI_	82	288	1	96	48	5
NMSTR	82	288	3
NMSI_	82	288	3	96	48	7
EXTAP	83	0	1
EXTAP	83	0	3
NMTTP	83	24	0	C	1	M1
BRTAP	83	96	2
BRTAP	83	96	5
NMSTR	83	192	0
BRSI_	83	192	0	96	48	4
NMTAP	83	288	0
NMTAP	83	288	7
NMTAP	83	336	6
NMTAP	84	0	5
NMTAP	84	48	5
NMTAP	84	72	4
NMTAP	84	96	6
NMHLD	84	144	3	96
NMTAP	84	144	7
NMTAP	84	240	0
NMTAP	84	288	2
NMTAP	84	288	7
NMTAP	84	336	1
NMTAP	84	336	6
NMSTR	85	0	0
NMSI_	85	0	0	96	48	3
NMSTR	85	0	5
NMSI_	85	0	5	96	48	0
BRTAP	85	96	0
BRTAP	85	96	5
BXSTR	85	192	2
BRSI_	85	192	2	96	48	6
BXTAP	85	192	7
NMTAP	85	288	3
NMTAP	86	0	0
NMSTR	86	0	5
BRSI_	86	0	5	96	48	1
NMTAP	86	96	3
NMTAP	86	144	3
NMTAP	86	192	0
NMTAP	86	240	7
NMTAP	86	288	6
NMTAP	86	336	5
NMSTR	87	0	4
BRSI_	87	0	4	96	48	7
EXTAP	87	96	3
EXTAP	87	96	4
NMTAP	87	192	0
NMTAP	87	192	1
NMTAP	87	240	0
NMTAP	87	240	1
NMTAP	87	288	2
NMTAP	87	288	7
NMTAP	87	336	2
NMTAP	87	336	7
NMTAP	88	0	3
NMTAP	88	0	6
NMTAP	88	48	3
NMTAP	88	48	6
NMTAP	88	96	4
NMTAP	88	96	5
NMTAP	88	144	4
NMTAP	88	144	5
NMTAP	88	192	3
EXSTR	88	192	4
BRSI_	88	192	4	96	48	0
EXSTR	88	288	3
BRSI_	88	288	3	96	48	7
EXTAP	88	288	4
EXTAP	89	0	3
EXSTR	89	0	5
BRSCR	89	0	5	96	48	0
EXSTR	89	96	2
BRSCL	89	96	2	96	48	7
EXTAP	89	96	5
EXTAP	89	192	2
EXSTR	89	192	4
BRSI_	89	192	4	96	48	0
EXSTR	89	288	3
BRSI_	89	288	3	96	48	7
EXTAP	89	288	4
EXTAP	90	0	3
EXSTR	90	0	5
BRSCR	90	0	5	96	48	0
EXSTR	90	96	2
BRSCL	90	96	2	96	48	7
EXTAP	90	96	5
NMTTP	90	192	2	A	0	M1
NMTTP	90	192	3	A	0	M1
NMTTP	90	192	3	D	1	M1
BXSTR	90	192	4
BRSSR	90	192	4	96	480	0

T_REC_TAP	350
T_REC_BRK	38
T_REC_XTP	22
T_REC_BXX	1
T_REC_HLD	26
T_REC_XHO	1
T_REC_BHO	0
T_REC_BXH	5
T_REC_STR	90
T_REC_BST	0
T_REC_XST	10
T_REC_XBS	4
T_REC_TTP	43
T_REC_THO	2
T_REC_SLD	65
T_REC_BSL	42
T_REC_ALL	699
T_NUM_TAP	515
T_NUM_BRK	90
T_NUM_HLD	29
T_NUM_SLD	65
T_NUM_ALL	699
T_JUDGE_TAP	558
T_JUDGE_HLD	151
T_JUDGE_SLD	107
T_JUDGE_ALL	816
TTM_EACHPAIRS	163
TTM_SCR_TAP	257500
TTM_SCR_BRK	234000
TTM_SCR_HLD	29000
TTM_SCR_SLD	97500
TTM_SCR_ALL	618000
TTM_SCR_S	590750
TTM_SCR_SS	609000
TTM_RAT_ACV	10147

