VERSION	0.00.00	1.05.00
FES_MODE	0
BPM_DEF	145.000	145.000	145.000	145.000
MET_DEF	4	4
RESOLUTION	384
CLK_DEF	384
COMPATIBLE_CODE	MA2

BPM	0	0	145.000
MET	0	0	4	4

NMTTP	2	0	5	B	0	M1
NMTTP	2	0	6	B	0	M1
NMTHO	2	0	6	168	E	0	M1
NMTTP	3	0	1	B	0	M1
NMTTP	3	0	2	B	0	M1
NMTHO	3	0	2	168	E	0	M1
NMTHO	4	0	3	360	B	0	M1
NMTHO	4	0	4	360	B	0	M1
NMTHO	4	0	4	360	E	0	M1
NMTHO	4	192	0	168	B	0	M1
NMTHO	4	192	0	168	E	0	M1
NMTHO	4	192	7	168	B	0	M1
EXHLD	5	168	2	72
EXHLD	5	168	5	72
NMTAP	6	0	5
NMTAP	6	96	3
NMTAP	6	96	5
NMTAP	6	192	2
NMTAP	6	288	2
NMTAP	6	288	4
NMTAP	7	0	5
NMTAP	7	96	4
NMTAP	7	96	5
NMTAP	7	192	2
NMTAP	7	288	2
NMTAP	7	288	3
NMTHO	8	0	0	288	C	0	M1
NMTAP	8	0	4
NMTAP	8	96	4
NMHLD	8	192	4	96
NMTTP	8	336	2	E	1	M1
EXTAP	8	336	7
EXTAP	9	24	1
NMTTP	9	24	5	E	1	M1
NMTTP	9	96	3	D	1	M1
EXTAP	9	96	6
EXTAP	9	168	2
NMTTP	9	168	7	E	1	M1
BRTAP	9	288	3
BRTAP	9	288	5
NMSTR	10	0	4
NMSI_	10	0	4	96	192	6
CNSI_	10	288	6	0	144	2
NMTAP	10	288	7
NMHLD	10	336	7	96
CNSI_	11	48	2	0	192	4
NMTAP	11	144	0
NMTAP	11	240	1
NMSTR	11	336	2
NMSI_	11	336	2	96	36	5
NMSTR	12	48	2
BRSI_	12	48	2	96	144	0
CNSI_	12	288	0	0	144	6
NMTAP	12	288	3
NMHLD	12	336	3	96
CNSI_	13	48	6	0	240	2
NMTAP	13	144	4
NMTAP	13	240	5
NMTAP	13	336	6
NMSTR	14	0	6
NMSCR	14	0	6	96	96	1
NMSTR	14	96	1
NMSCR	14	96	1	96	96	4
NMSTR	14	192	4
NMSCR	14	192	4	96	96	7
NMSTR	14	288	7
NMSLR	14	288	7	96	96	3
NMSTR	15	0	3
NMSLR	15	0	3	96	96	7
NMSTR	15	96	7
NMSLR	15	96	7	96	96	3
NMTAP	15	192	3
NMTAP	15	288	7
NMHLD	16	0	1	48
NMHLD	16	48	2	48
NMHLD	16	96	3	48
NMHLD	16	144	4	48
NMHLD	16	192	5	48
NMHLD	16	240	6	48
NMHLD	16	288	7	48
NMHLD	16	336	0	48
NMTAP	17	0	1
NMTAP	17	32	0
NMTAP	17	48	1
NMTAP	17	80	0
NMTAP	17	96	2
NMTAP	17	128	7
NMTAP	17	144	2
NMTAP	17	176	7
EXSTR	17	192	0
BRSI_	17	192	0	96	36	4
EXSTR	17	192	1
BRSI_	17	192	1	96	36	5
BRTAP	17	288	0
BRTAP	17	288	1
EXTAP	18	0	3
EXTAP	18	0	6
NMHLD	18	96	2	48
NMTAP	18	144	3
NMHLD	18	192	4	48
NMTAP	18	240	3
NMHLD	18	288	2	48
NMTAP	18	336	3
NMHLD	19	0	1	48
NMTAP	19	48	3
NMHLD	19	96	0	48
NMTAP	19	144	3
NMSTR	19	192	7
NMSI_	19	192	7	96	36	2
NMSI_	19	192	7	96	36	3
NMTAP	19	240	7
NMTAP	20	0	1
NMTAP	20	0	4
NMHLD	20	96	5	48
NMTAP	20	144	4
NMHLD	20	192	3	48
NMTAP	20	240	4
NMHLD	20	288	5	48
NMTAP	20	336	4
NMHLD	21	0	6	48
NMTAP	21	48	4
NMHLD	21	96	7	48
NMTAP	21	144	4
NMTAP	21	192	0
NMSTR	21	240	0
NMSXR	21	240	0	96	64	6
NMSTR	21	336	0
NMSXL	21	336	0	96	64	2
NMTAP	22	144	5
NMHLD	22	192	5	48
NMTAP	22	240	3
NMHLD	22	288	2	48
NMTAP	22	336	4
NMHLD	23	0	6	48
NMTAP	23	48	7
NMHLD	23	96	1	48
NMTAP	23	144	0
NMSTR	23	192	6
NMSCR	23	192	6	96	36	1
NMTAP	23	240	6
NMTAP	24	0	2
NMTAP	24	0	3
NMSTR	24	48	4
NMSCL	24	48	4	96	48	1
NMSTR	24	96	5
NMSXL	24	96	5	96	96	5
EXTAP	24	144	4
EXTAP	24	192	5
NMTAP	24	288	3
NMSTR	24	336	4
NMSCL	24	336	4	96	48	1
NMSTR	25	0	5
NMSXL	25	0	5	96	96	5
EXTAP	25	48	4
EXSTR	25	96	5
NMSXR	25	96	5	96	96	4
NMTAP	25	192	1
NMTAP	25	288	1
NMTAP	26	0	2
NMTAP	26	0	3
NMTAP	26	48	5
NMTAP	26	96	6
NMTAP	26	96	7
NMTAP	26	144	1
NMTAP	26	176	7
NMSTR	26	192	0
NMSI_	26	192	0	96	32	6
NMTAP	26	240	4
NMSTR	26	288	0
NMSI_	26	288	0	96	32	2
NMTAP	26	336	4
NMSTR	27	0	0
NMSCL	27	0	0	96	48	5
NMTAP	27	48	4
NMSTR	27	96	0
NMSCR	27	96	0	96	48	3
NMSTR	27	144	4
NMSXL	27	144	4	96	96	3
NMTAP	27	192	0
EXTAP	27	240	4
NMHLD	27	336	2	96
NMTAP	28	48	3
NMTAP	28	96	0
NMTAP	28	96	1
NMTAP	28	144	6
NMTAP	28	176	0
NMSTR	28	192	7
NMSI_	28	192	7	96	32	1
NMTAP	28	240	3
NMSTR	28	288	7
NMSI_	28	288	7	96	32	5
NMTAP	28	336	3
NMSTR	29	0	7
NMSCR	29	0	7	96	48	2
NMTAP	29	48	3
NMSTR	29	96	7
NMSCL	29	96	7	96	48	4
NMSTR	29	144	3
NMSXR	29	144	3	96	96	4
NMTAP	29	192	7
EXTAP	29	240	3
NMHLD	29	336	5	240
NMSTR	30	96	4
NMSI_	30	96	4	96	48	7
NMTAP	30	192	4
NMTAP	30	288	5
NMTAP	30	336	4
NMSTR	31	0	2
NMSCR	31	0	2	96	48	5
NMHLD	31	0	3	192
NMTAP	31	192	6
BRTAP	31	240	5
BRTAP	31	240	7
BRTAP	31	336	0
BRTAP	31	336	2
NMTAP	32	0	3
NMSTR	32	48	4
NMSCL	32	48	4	96	48	1
NMSTR	32	96	5
NMSXL	32	96	5	96	96	5
EXTAP	32	144	4
EXTAP	32	192	5
NMTAP	32	288	3
NMSTR	32	336	4
NMSCL	32	336	4	96	48	1
NMSTR	33	0	5
NMSXL	33	0	5	96	96	5
EXTAP	33	48	4
EXSTR	33	96	5
NMSXR	33	96	5	96	96	4
NMTAP	33	192	1
NMTAP	33	288	1
NMTAP	34	0	2
NMTAP	34	0	3
NMTHO	34	192	6	384	E	0	M1
NMTHO	34	264	5	312	E	0	M1
NMTHO	34	336	4	240	E	0	M1
NMTAP	35	288	2
NMHLD	36	0	1	144
NMHLD	36	0	3	72
NMTHO	36	192	4	480	E	0	M1
NMTHO	36	264	3	408	E	0	M1
NMTHO	36	336	2	336	E	0	M1
NMTAP	38	0	0
NMHLD	38	48	0	48
NMTAP	38	96	1
NMHLD	38	144	1	48
NMTAP	38	192	2
NMHLD	38	240	2	48
NMTAP	38	288	3
NMHLD	38	336	3	48
NMTAP	39	0	7
NMHLD	39	48	7	48
NMTAP	39	96	6
NMHLD	39	144	6	48
NMTAP	39	192	5
NMHLD	39	240	5	48
NMTAP	39	288	4
NMHLD	39	336	4	48
EXTAP	40	0	0
NMTAP	40	32	0
NMTAP	40	48	1
NMTAP	40	80	1
NMTAP	40	96	2
NMTAP	40	128	2
NMTAP	40	144	3
NMTAP	40	176	3
NMTAP	40	192	4
NMTAP	40	224	4
NMTAP	40	240	5
NMTAP	40	272	5
NMTAP	40	288	6
NMTAP	40	320	6
NMHLD	40	336	7	336
BRHLD	41	0	0	288
BRSTR	42	0	7
NMSV_	42	0	7	96	48	2
NMTTP	42	6	7	D	1	M1
NMTTP	42	12	6	A	0	M1
NMTTP	42	18	6	D	0	M1
NMTTP	42	24	5	A	0	M1
BRSTR	42	48	0
BRSV_	42	48	0	96	48	5
NMTTP	42	54	1	D	1	M1
NMTTP	42	60	1	A	0	M1
NMTTP	42	66	2	D	0	M1
NMTTP	42	72	2	A	0	M1
BRTAP	42	96	7
BRTAP	42	144	0
EXTAP	42	240	4
BRTAP	42	288	1
BRTAP	42	288	6
NMTAP	43	0	2
NMTAP	43	0	4
NMTAP	43	48	3
NMTAP	43	96	4
NMSTR	43	128	4
NMSCL	43	128	4	96	48	1
NMTAP	43	144	3
NMTAP	43	176	5
EXTAP	43	224	4
EXTAP	43	224	6
CNSI_	43	272	1	0	48	5
NMTAP	43	288	7
NMTAP	43	336	7
NMTAP	44	0	4
NMTAP	44	0	6
NMTAP	44	48	5
NMTAP	44	96	3
NMSTR	44	128	3
NMSCR	44	128	3	96	48	6
NMTAP	44	144	4
NMTAP	44	176	2
EXTAP	44	224	1
EXTAP	44	224	3
CNSI_	44	272	6	0	48	2
NMTAP	44	288	0
NMTAP	44	336	0
NMTAP	45	0	1
NMTAP	45	0	3
NMTAP	45	48	2
NMTAP	45	80	3
NMTAP	45	96	1
NMTAP	45	144	5
NMTAP	45	176	4
NMTAP	45	192	6
NMTAP	45	240	2
NMTAP	45	272	3
NMHLD	45	288	1	48
NMTAP	45	336	0
NMTAP	45	368	0
NMTAP	46	32	7
NMTAP	46	48	2
NMSTR	46	80	2
NMSCL	46	80	2	96	112	4
NMTAP	46	96	0
NMHLD	46	128	0	160
BXTAP	46	176	2
NMTAP	47	0	4
NMTAP	47	0	5
NMTAP	47	48	1
NMTAP	47	96	7
NMSTR	47	128	7
NMSCL	47	128	7	96	48	5
NMTAP	47	144	0
NMTAP	47	176	5
EXTAP	47	224	4
EXTAP	47	224	7
CNSI_	47	272	5	0	48	0
NMTAP	47	288	3
NMTAP	47	336	4
NMTAP	48	0	5
NMTAP	48	0	7
NMTAP	48	48	6
NMTAP	48	96	0
NMSTR	48	128	0
NMSCR	48	128	0	96	48	2
NMTAP	48	144	7
NMTAP	48	176	2
EXTAP	48	224	0
EXTAP	48	224	3
CNSI_	48	272	2	0	48	7
NMTAP	48	288	4
NMTAP	48	336	3
NMTAP	49	0	0
NMTAP	49	0	2
NMTAP	49	48	2
NMTAP	49	80	3
NMTAP	49	96	1
NMTAP	49	144	5
NMTAP	49	176	4
NMTAP	49	192	6
NMTAP	49	240	2
NMTAP	49	272	3
EXTAP	49	288	0
NMTTP	49	336	0	D	0	M1
EXTAP	49	336	4
NMTTP	49	344	7	A	0	M1
NMTTP	49	352	7	D	1	M1
NMTTP	50	24	1	D	0	M1
EXTAP	50	24	4
NMTTP	50	32	1	A	0	M1
NMTTP	50	40	2	D	1	M1
NMTTP	50	96	0	E	0	M1
EXTAP	50	96	4
NMTTP	50	104	7	E	0	M1
NMTTP	50	112	6	D	1	M1
NMTTP	50	168	1	E	0	M1
EXTAP	50	168	4
NMTTP	50	176	2	E	0	M1
NMTTP	50	184	3	D	1	M1
NMTAP	50	240	5
NMTAP	50	288	4
NMTAP	50	336	3
NMSTR	51	0	3
NMSCR	51	0	3	96	480	3
NMHLD	51	0	4	384
NMSTR	52	96	4
BRSUL	52	96	4	96	96	3
BRTAP	53	0	2
BRTAP	53	0	6
NMSTR	53	96	0
NMSCR	53	96	0	96	48	3
NMTAP	53	96	1
NMTAP	53	192	0
NMTAP	53	192	5
NMTAP	53	264	6
NMSTR	53	288	0
NMSCL	53	288	0	96	48	5
NMTAP	53	336	7
NMTAP	54	0	0
NMTAP	54	0	3
NMTAP	54	72	2
NMSTR	54	96	0
NMSCR	54	96	0	96	48	3
NMTAP	54	144	1
NMTAP	54	192	0
NMTAP	54	192	6
NMHLD	54	264	5	72
NMTAP	54	336	4
BRTAP	55	0	4
BRTAP	55	0	6
NMTAP	55	96	6
NMSTR	55	96	7
NMSCL	55	96	7	96	48	4
NMTAP	55	192	2
NMTAP	55	192	7
NMTAP	55	264	1
NMSTR	55	288	7
NMSCR	55	288	7	96	48	2
NMTAP	55	336	0
NMTAP	56	0	4
NMTAP	56	0	7
NMTAP	56	72	5
NMSTR	56	96	7
NMSCL	56	96	7	96	48	4
NMTAP	56	144	6
NMTAP	56	192	1
NMTAP	56	192	7
NMHLD	56	264	2	72
NMTAP	56	336	3
BRTAP	57	0	1
BRTAP	57	0	3
NMSTR	57	96	0
NMSCL	57	96	0	96	48	5
NMTAP	57	96	7
NMTAP	57	192	0
NMTAP	57	192	1
NMTAP	57	264	2
NMSTR	57	288	4
NMSCL	57	288	4	96	48	1
NMTAP	57	336	3
NMTAP	58	0	4
NMTAP	58	0	5
NMTAP	58	72	6
NMSTR	58	96	0
NMSCL	58	96	0	96	48	5
NMTAP	58	144	7
NMTAP	58	192	0
NMTAP	58	192	1
NMTAP	58	264	2
NMSTR	58	288	4
NMSCL	58	288	4	96	96	0
NMTAP	58	336	3
NMTAP	59	0	4
NMHLD	59	0	5	288
CNSUL	59	96	0	0	192	6
BRTAP	60	0	5
BRTAP	60	0	6
BRTAP	60	48	4
BRTAP	60	48	7
BRTAP	60	96	0
BRTAP	60	96	3
BRTAP	60	144	1
BRTAP	60	144	2
NMTTP	61	0	2	B	0	M1
NMTTP	61	0	2	E	0	M1
NMTHO	61	0	2	96	A	0	M1
NMTTP	61	168	0	E	0	M1
NMTTP	61	168	7	B	0	M1
NMTHO	61	168	7	120	A	0	M1
NMTTP	62	0	3	B	0	M1
NMTHO	62	0	3	96	A	0	M1
NMTTP	62	0	4	E	0	M1
EXTAP	62	96	1
NMTAP	62	112	0
NMTAP	62	128	7
NMTAP	62	144	6
NMTAP	62	160	5
NMTAP	62	176	4
BXSTR	62	192	1
BRSI_	62	192	1	96	36	4
BXTAP	62	192	3
BXTAP	62	288	1
BXSTR	62	288	6
BRSI_	62	288	6	96	36	3
BXHLD	63	0	0	96
BXTAP	63	0	6
NMTAP	63	96	3
NMTTP	63	168	2	E	0	M1
NMTTP	63	168	3	E	0	M1
EXHLD	63	168	5	120
NMTAP	63	288	4
EXHLD	63	360	2	120
NMTTP	63	360	5	E	0	M1
NMTTP	63	360	6	E	0	M1
NMTAP	64	96	0
NMTAP	64	120	0
EXSTR	64	168	1
NMSSR	64	168	1	96	60	5
EXTAP	64	168	7
NMHLD	64	240	6	144
NMTAP	65	0	4
BRTAP	65	96	0
NMSTR	65	128	0
NMSCL	65	128	0	96	48	5
NMTAP	65	144	7
NMTAP	65	176	1
EXTAP	65	224	0
EXTAP	65	224	3
CNSI_	65	272	5	0	48	1
NMTAP	65	288	2
NMTAP	65	336	2
NMTAP	66	0	0
NMTAP	66	0	1
NMTAP	66	48	2
NMTAP	66	96	4
NMSTR	66	128	4
NMSCL	66	128	4	96	48	1
NMTAP	66	144	3
NMTAP	66	176	5
EXTAP	66	224	4
BXTAP	66	224	7
CNSI_	66	272	1	0	48	5
BXTAP	66	288	6
BXTAP	66	336	6
NMTAP	67	0	4
NMTAP	67	0	5
NMTAP	67	48	2
NMTAP	67	80	3
NMTAP	67	96	0
NMTAP	67	144	5
NMTAP	67	176	4
NMTAP	67	192	7
NMTAP	67	240	2
NMTAP	67	272	3
NMTAP	67	288	0
NMHLD	67	336	0	144
NMTAP	67	336	4
NMTAP	68	24	5
NMTAP	68	48	5
NMSTR	68	96	6
NMSI_	68	96	6	96	36	2
NMSTR	68	144	1
NMSI_	68	144	1	96	36	5
BRTAP	68	288	7
NMTAP	69	0	2
NMTAP	69	0	3
NMTAP	69	96	0
NMSTR	69	96	5
NMSCR	69	96	5	96	48	0
NMTAP	69	192	4
NMTAP	69	192	5
NMHLD	69	264	3	72
NMSTR	69	288	1
NMSCR	69	288	1	96	48	4
NMTAP	69	336	0
NMTAP	70	0	0
NMTAP	70	0	1
NMHLD	70	72	7	72
NMSTR	70	96	5
NMSCR	70	96	5	96	48	0
NMTAP	70	144	4
NMTAP	70	192	4
NMTAP	70	192	5
NMHLD	70	264	3	72
NMTAP	70	336	1
BRTAP	71	0	0
BRTAP	71	0	2
NMSTR	71	96	2
NMSCL	71	96	2	96	48	7
NMTAP	71	96	7
NMTAP	71	192	2
NMTAP	71	192	3
NMHLD	71	264	4	72
NMSTR	71	288	6
NMSCL	71	288	6	96	48	3
NMTAP	71	336	7
NMTAP	72	0	6
NMTAP	72	0	7
NMHLD	72	72	0	72
NMSTR	72	96	2
NMSCL	72	96	2	96	48	7
NMTAP	72	144	3
NMTAP	72	192	2
NMTAP	72	192	3
NMHLD	72	264	4	72
NMTAP	72	336	6
BRTAP	73	0	5
BRTAP	73	0	7
NMTAP	73	96	0
NMSTR	73	96	1
NMSCL	73	96	1	96	48	6
NMTAP	73	192	1
NMTAP	73	192	2
NMHLD	73	264	3	72
NMSTR	73	288	5
NMSCL	73	288	5	96	48	2
NMTAP	73	336	6
NMTAP	74	0	5
NMTAP	74	0	6
NMHLD	74	72	7	72
NMSTR	74	96	1
NMSCL	74	96	1	96	48	6
NMTAP	74	144	2
NMTAP	74	192	1
NMTAP	74	192	2
NMHLD	74	264	3	72
NMTAP	74	336	4
NMTAP	75	0	2
NMTAP	75	0	5
NMTAP	75	96	2
NMTAP	75	96	3
NMTAP	75	144	0
NMTAP	75	144	1
NMTAP	75	192	6
NMTAP	75	192	7
NMTAP	75	240	4
NMTAP	75	240	5
NMTAP	75	288	2
NMTAP	75	288	6
NMTTP	75	336	3	E	0	M1
EXHLD	75	336	6	48
NMTTP	75	344	3	B	0	M1
NMTTP	75	352	4	B	0	M1
NMTTP	75	360	5	E	1	M1
EXHLD	76	24	2	48
NMTTP	76	24	7	E	0	M1
NMTTP	76	32	7	B	0	M1
NMTTP	76	40	0	B	0	M1
NMTTP	76	48	1	E	1	M1
NMTTP	76	96	3	D	0	M1
EXHLD	76	96	6	48
NMTTP	76	102	3	A	0	M1
NMTTP	76	108	4	D	0	M1
NMTTP	76	114	4	A	0	M1
NMTTP	76	120	5	D	1	M1
EXHLD	76	168	2	48
NMTTP	76	168	7	D	0	M1
NMTTP	76	174	7	A	0	M1
NMTTP	76	180	0	D	0	M1
NMTTP	76	186	0	A	0	M1
NMTTP	76	192	1	D	1	M1
EXTAP	76	240	6
EXSTR	76	288	0
BRSSL	76	288	0	96	48	4
EXSTR	76	288	7
NMSSR	76	288	7	96	48	3
EXTAP	76	336	1
EXTAP	76	336	6
BRTAP	77	0	0
BRTAP	77	0	7
NMTAP	77	144	3
NMTAP	77	176	4
NMTAP	77	192	2
NMTAP	77	192	5
NMTAP	77	288	1
NMSTR	77	336	1
NMSI_	77	336	1	96	48	7
NMTAP	78	0	4
NMSTR	78	48	1
NMSI_	78	48	1	96	48	5
NMTAP	78	96	4
NMSTR	78	144	1
NMSI_	78	144	1	96	48	3
NMTAP	78	192	4
NMTAP	78	240	1
NMTAP	78	288	4
NMTAP	78	336	1
NMTAP	79	0	2
NMHLD	79	0	3	72
NMTAP	79	72	4
NMHLD	79	96	4	72
NMTAP	79	168	5
NMTAP	79	192	5
NMSTR	79	240	2
NMSI_	79	240	2	96	48	7
NMSTR	79	240	6
NMSI_	79	240	6	96	48	3
NMTAP	79	288	1
NMTAP	79	288	5
NMTAP	79	336	2
NMTAP	79	336	6
NMTAP	80	48	0
NMTAP	80	48	6
NMTAP	80	96	3
NMTAP	80	144	1
NMTAP	80	144	7
NMTAP	80	192	4
NMSTR	80	240	0
NMSCR	80	240	0	96	48	3
NMSTR	80	240	6
NMSCL	80	240	6	96	48	3
EXSTR	80	336	0
NMSV_	80	336	0	96	48	7
EXSTR	80	336	6
NMSV_	80	336	6	96	48	7
CNSI_	81	96	7	0	96	2
CNSI_	81	96	7	0	96	4
BRTAP	81	288	3
BRTAP	81	288	7
BRHLD	81	336	1	144
BRTAP	81	336	5
NMTTP	82	0	6	E	0	M1
NMTTP	82	0	7	E	0	M1
NMTTP	82	16	0	E	0	M1
NMTTP	82	32	1	E	0	M1
NMTTP	82	48	2	E	0	M1
NMTTP	82	64	3	E	0	M1
NMTTP	82	80	4	E	0	M1
BXHLD	82	96	4	96
NMTTP	82	128	0	D	0	M1
NMTTP	82	128	1	D	0	M1
NMTTP	82	144	7	D	0	M1
NMTTP	82	160	6	D	0	M1
NMTTP	82	176	5	D	0	M1
NMTTP	82	192	4	D	1	M1
EXSTR	82	288	7
NMSLL	82	288	7	96	96	2
NMSLR	82	288	7	96	96	4
BRTAP	83	0	7
NMTAP	83	192	3
NMTAP	83	224	3
NMSTR	83	240	5
NMSI_	83	240	5	96	36	0
NMTAP	83	288	2
NMSTR	83	336	1
NMSI_	83	336	1	96	36	5
BRTAP	83	336	5
NMTAP	84	48	1
NMSTR	84	48	6
NMSI_	84	48	6	96	36	3
NMTAP	84	96	7
NMSTR	84	144	0
NMSI_	84	144	0	96	36	4
NMTAP	84	144	6
NMTAP	84	192	7
NMSTR	84	240	0
NMSXR	84	240	0	96	108	2
NMSTR	84	240	5
NMSXL	84	240	5	96	108	3
BRTAP	84	336	0
BRTAP	84	336	5

T_REC_TAP	316
T_REC_BRK	41
T_REC_XTP	37
T_REC_BXX	7
T_REC_HLD	58
T_REC_XHO	8
T_REC_BHO	2
T_REC_BXH	2
T_REC_STR	76
T_REC_BST	2
T_REC_XST	10
T_REC_XBS	2
T_REC_TTP	69
T_REC_THO	18
T_REC_SLD	84
T_REC_BSL	8
T_REC_ALL	740
T_NUM_TAP	508
T_NUM_BRK	64
T_NUM_HLD	84
T_NUM_SLD	84
T_NUM_ALL	740
T_JUDGE_TAP	560
T_JUDGE_HLD	240
T_JUDGE_SLD	92
T_JUDGE_ALL	892
TTM_EACHPAIRS	100
TTM_SCR_TAP	254000
TTM_SCR_BRK	166400
TTM_SCR_HLD	84000
TTM_SCR_SLD	126000
TTM_SCR_ALL	630400
TTM_SCR_S	605300
TTM_SCR_SS	624000
TTM_RAT_ACV	10102

