VERSION	0.00.00	1.05.00
FES_MODE	0
BPM_DEF	145.000	145.000	145.000	145.000
MET_DEF	4	4
RESOLUTION	384
CLK_DEF	384
COMPATIBLE_CODE	MA2

BPM	0	0	145.000
MET	0	0	4	4

NMTTP	2	0	2	E	0	M1
NMTTP	2	192	2	B	0	M1
NMTTP	3	0	3	B	0	M1
NMTTP	3	192	4	E	0	M1
NMTTP	4	0	6	E	0	M1
NMTTP	4	192	5	B	0	M1
NMTTP	5	0	4	B	0	M1
NMTTP	5	192	4	E	0	M1
NMTAP	6	0	2
NMHLD	6	96	2	576
NMTAP	6	192	4
NMTAP	6	288	4
NMTAP	7	0	3
NMTAP	7	96	3
NMTAP	7	192	4
NMTAP	7	288	4
NMTAP	8	0	5
NMHLD	8	96	5	480
NMTTP	8	192	4	E	0	M1
NMTHO	8	288	5	288	E	1	M1
EXSTR	10	0	6
NMSLL	10	0	6	96	192	2
NMSTR	11	0	1
NMSI_	11	0	1	96	96	6
NMSTR	12	0	7
NMSLL	12	0	7	96	192	2
NMSTR	13	0	0
NMSCL	13	0	0	96	192	3
EXTAP	14	0	2
NMTAP	14	96	1
NMTAP	14	96	3
NMTTP	14	288	2	E	0	M1
NMTTP	14	288	3	E	0	M1
NMTAP	15	96	3
NMTAP	15	96	5
NMTTP	15	288	4	E	0	M1
NMTTP	15	288	5	E	0	M1
NMTAP	16	96	4
NMTAP	16	96	6
NMTTP	16	288	5	E	0	M1
NMTTP	16	288	6	E	0	M1
NMTAP	17	96	2
NMTAP	17	96	4
EXTAP	17	288	3
EXTAP	17	288	4
NMHLD	18	0	2	96
NMTAP	18	96	3
NMTAP	18	192	1
NMTAP	18	240	1
NMTAP	18	288	0
NMTAP	19	0	6
NMTAP	19	0	7
NMTAP	19	96	6
NMSTR	19	96	7
NMSI_	19	96	7	96	48	2
CNSI_	19	240	2	0	96	4
NMHLD	20	0	5	96
NMTAP	20	96	4
NMTAP	20	192	6
NMTAP	20	240	6
NMTAP	20	288	7
NMTAP	21	0	1
NMTAP	21	48	1
NMTAP	21	96	0
NMTAP	21	192	2
NMSTR	21	192	3
NMSLR	21	192	3	96	96	7
NMHLD	22	0	1	96
NMTAP	22	96	0
NMTAP	22	192	2
NMTAP	22	240	2
NMTAP	22	288	3
NMTAP	23	0	5
NMTAP	23	48	5
NMTAP	23	96	4
NMTAP	23	192	6
NMTAP	23	192	7
NMTAP	23	288	0
NMTAP	23	288	7
NMTAP	24	0	1
NMTAP	24	48	1
NMTAP	24	96	0
NMTAP	24	144	0
NMTAP	24	192	2
NMTAP	24	288	6
NMTAP	24	336	6
NMTAP	25	0	7
NMTAP	25	48	7
NMTAP	25	96	5
NMTAP	25	192	4
NMTAP	25	192	6
NMTAP	25	288	2
NMTAP	25	288	3
NMHLD	26	0	1	96
NMHLD	26	96	0	96
NMHLD	26	192	2	96
NMHLD	26	288	3	192
NMSTR	27	0	1
NMSUR	27	0	1	96	192	4
NMTAP	27	288	5
NMHLD	28	0	5	96
NMHLD	28	96	4	96
NMHLD	28	192	6	96
NMHLD	28	288	7	192
NMSTR	29	0	5
NMSUL	29	0	5	96	192	2
NMTAP	29	288	0
NMTAP	30	0	1
NMTAP	30	0	3
NMHLD	30	96	2	96
NMTAP	30	192	3
NMTAP	30	288	0
NMTAP	30	288	1
NMTAP	30	336	0
NMTAP	30	336	1
NMTAP	31	48	0
NMTAP	31	48	7
NMTAP	31	144	6
NMTAP	31	144	7
NMTAP	31	240	4
NMTAP	31	240	5
BRTAP	31	336	3
BRTAP	31	336	6
NMTAP	32	48	5
NMTAP	32	96	5
NMTAP	32	144	4
NMTAP	32	192	6
NMTAP	32	288	2
NMTAP	32	336	2
NMTAP	33	0	3
NMTAP	33	48	3
NMTAP	33	96	1
NMTAP	33	192	2
NMTAP	33	192	7
NMTAP	33	288	2
NMTAP	33	288	7
NMSTR	34	0	1
NMSI_	34	0	1	96	96	3
NMHLD	34	0	6	1344
CNSI_	34	192	3	0	144	0
CNSI_	34	336	0	0	144	4
NMTAP	35	288	4
NMSTR	36	0	5
NMSXR	36	0	5	96	384	2
NMTAP	37	288	2
NMTAP	37	288	6
NMHLD	38	0	1	672
NMSTR	38	0	7
NMSI_	38	0	7	96	192	3
CNSV_	38	288	3	0	192	0
NMTAP	39	288	0
NMSTR	40	0	0
NMSCL	40	0	0	96	96	5
NMSCR	40	0	0	96	96	3
EXSTR	40	288	3
NMSI_	40	288	3	96	48	1
EXSTR	40	288	4
NMSI_	40	288	4	96	48	6
NMTAP	42	0	7
NMTAP	42	48	7
NMTAP	42	96	0
NMTAP	42	144	0
NMSTR	42	192	6
NMSI_	42	192	6	96	48	2
BRTAP	43	0	0
NMTAP	43	48	0
NMTAP	43	96	1
NMTAP	43	96	3
NMTAP	43	192	4
NMTAP	43	192	6
NMSTR	43	288	6
NMSCL	43	288	6	96	48	3
NMSTR	43	288	7
NMSV_	43	288	7	96	48	2
NMHLD	44	96	1	96
NMTAP	44	192	3
NMTAP	44	240	3
NMHLD	44	288	2	96
NMHLD	45	0	0	96
NMHLD	45	96	7	96
NMTAP	45	192	5
NMTAP	45	240	5
NMTAP	45	288	4
NMTAP	46	0	1
NMTAP	46	48	1
NMSTR	46	96	3
NMSF_	46	96	3	96	96	7
BRTAP	47	0	7
NMTAP	47	48	7
NMTAP	47	96	4
NMTAP	47	96	6
NMTAP	47	192	1
NMTAP	47	192	3
NMSTR	47	288	0
NMSV_	47	288	0	96	48	5
NMSTR	47	288	1
NMSCR	47	288	1	96	48	4
NMHLD	48	96	6	96
NMTAP	48	192	4
NMTAP	48	240	4
NMTAP	48	288	4
NMTAP	48	288	5
NMTAP	49	0	6
NMTAP	49	0	7
NMTAP	49	96	2
NMTAP	49	96	3
NMTAP	49	192	0
NMTAP	49	192	1
NMTAP	49	288	4
NMTAP	49	288	5
NMSTR	49	336	4
NMSXL	49	336	4	96	240	7
NMSXR	49	336	4	96	240	1
NMTAP	49	336	5
NMTHO	51	0	0	576	C	1	M1
NMTAP	53	0	0
NMTAP	53	0	7
NMTAP	53	96	0
NMTAP	53	96	7
NMHLD	53	192	1	72
NMHLD	53	264	2	72
NMTAP	53	336	3
NMHLD	54	0	4	72
NMHLD	54	72	5	72
NMTAP	54	144	6
NMTAP	54	192	6
EXTAP	54	264	5
EXTAP	54	264	7
NMTAP	54	336	0
NMTAP	54	336	6
NMTAP	55	0	0
NMTAP	55	0	6
NMTAP	55	96	1
NMTAP	55	96	7
NMHLD	55	192	6	72
NMHLD	55	264	5	72
NMTAP	55	336	4
NMHLD	56	0	3	72
NMHLD	56	72	2	72
NMTAP	56	144	1
NMTAP	56	192	1
EXTAP	56	264	0
EXTAP	56	264	1
NMTAP	56	336	2
NMTAP	56	336	3
NMTAP	57	0	2
NMTAP	57	0	3
NMTAP	57	96	3
NMTAP	57	96	4
NMHLD	57	192	5	72
NMHLD	57	264	6	72
NMTAP	57	336	7
NMHLD	58	0	2	72
NMHLD	58	72	1	72
NMTAP	58	144	0
NMHLD	58	192	7	72
NMHLD	58	264	6	72
NMTAP	58	336	5
NMSTR	59	0	5
NMSCR	59	0	5	96	192	2
NMTAP	60	0	0
NMTAP	60	0	7
NMTAP	60	48	0
NMTAP	60	48	7
NMTAP	60	96	0
NMTAP	60	96	7
NMTAP	60	144	0
NMTAP	60	144	7
BXTAP	60	192	0
BXTAP	60	192	7
NMTTP	61	0	1	E	0	M1
NMTTP	61	192	2	E	0	M1
NMTTP	62	0	3	E	0	M1
NMTHO	62	192	4	96	E	1	M1
EXTAP	63	0	5
EXTAP	63	96	5
EXTAP	63	192	4
EXTAP	63	192	6
EXTAP	63	288	4
EXTAP	63	288	6
NMTAP	64	0	7
NMTAP	64	48	7
NMTAP	64	96	0
NMTAP	64	144	0
BXHLD	64	192	1	96
BXHLD	64	192	5	96
NMTAP	65	0	6
NMTAP	65	48	6
NMTAP	65	96	4
NMTAP	65	192	6
NMTAP	65	192	7
NMTAP	65	288	0
NMTAP	65	288	1
NMTAP	66	0	1
NMTAP	66	48	1
NMTAP	66	96	3
NMTAP	66	192	0
NMTAP	66	192	1
NMTAP	66	288	6
NMTAP	66	288	7
NMSTR	67	0	5
NMSCR	67	0	5	96	96	0
NMSTR	67	192	1
NMSCR	67	192	1	96	96	4
NMTAP	68	0	6
NMTAP	68	48	6
NMTAP	68	96	0
NMTAP	68	144	0
NMHLD	68	192	1	96
NMHLD	68	192	7	96
BRTAP	69	0	0
BRTAP	69	0	1
NMTAP	69	96	4
NMTAP	69	96	6
NMTAP	69	192	6
NMTAP	69	192	7
NMTAP	69	288	1
NMTAP	69	288	3
NMTAP	70	0	0
NMTAP	70	0	1
NMTAP	70	96	0
NMTAP	70	96	1
NMTAP	70	192	0
NMTAP	70	192	7
NMSTR	70	288	6
NMSI_	70	288	6	96	48	3
NMSTR	70	288	7
NMSI_	70	288	7	96	48	3
NMSTR	71	96	0
NMSI_	71	96	0	96	48	4
NMSTR	71	96	1
NMSI_	71	96	1	96	48	4
NMSTR	71	288	6
NMSCL	71	288	6	96	144	1
NMSTR	71	288	7
NMSUL	71	288	7	96	144	0
NMTAP	72	288	2
NMTAP	72	288	7
NMTAP	73	0	2
NMTAP	73	0	7
NMTAP	73	96	1
NMTAP	73	144	1
NMTAP	73	192	0
NMTAP	73	240	0
NMTAP	73	288	2
NMTAP	74	0	3
NMTAP	74	0	5
NMTAP	74	96	6
NMTAP	74	144	6
NMTAP	74	192	7
NMTAP	74	240	7
NMTAP	74	288	5
NMTAP	75	0	4
NMTAP	75	0	5
NMTAP	75	48	4
NMTAP	75	48	5
NMTAP	75	96	4
NMTAP	75	96	5
NMTAP	75	192	2
NMTAP	75	192	7
NMTAP	75	288	0
NMTAP	75	288	5
NMTAP	75	336	0
NMTAP	75	336	5
NMSTR	76	0	0
NMSXR	76	0	0	96	288	2
NMSTR	76	0	5
NMSXL	76	0	5	96	288	3
NMTAP	77	192	2
NMTAP	77	192	3
NMTAP	77	288	1
NMTAP	77	288	3
NMTAP	77	336	1
NMTAP	77	336	3
NMTAP	78	48	0
NMTAP	78	48	7
NMTAP	78	144	4
NMTAP	78	144	6
NMTAP	78	240	3
NMTAP	78	240	4
NMSTR	78	336	1
NMSI_	78	336	1	96	48	3
NMSTR	78	336	3
NMSI_	78	336	3	96	48	5
NMTAP	79	192	4
NMTAP	79	192	6
NMTAP	79	288	5
NMTAP	79	288	7
NMTAP	79	336	5
NMTAP	79	336	7
NMTAP	80	48	3
NMTAP	80	48	4
NMTAP	80	144	0
NMTAP	80	144	2
NMTAP	80	240	3
NMTAP	80	240	4
NMSTR	80	336	5
NMSCL	80	336	5	96	144	1
NMSTR	80	336	7
NMSUL	80	336	7	96	144	1
NMTAP	81	288	1
NMHLD	81	336	1	96
NMHLD	82	48	3	96
NMHLD	82	144	5	96
NMHLD	82	240	7	96
NMSTR	82	336	4
NMSI_	82	336	4	96	48	0
EXTAP	83	144	6
EXTAP	83	192	6
NMTAP	83	288	0
NMTAP	83	288	2
NMTAP	83	336	0
NMTAP	83	336	2
NMTAP	84	48	4
NMTAP	84	48	5
NMTAP	84	144	5
NMTAP	84	144	7
NMTAP	84	240	2
NMTAP	84	240	3
BRSTR	84	336	1
NMSI_	84	336	1	96	48	4
BRSTR	84	336	5
BRSI_	84	336	5	96	48	0

T_REC_TAP	252
T_REC_BRK	6
T_REC_XTP	15
T_REC_BXX	2
T_REC_HLD	41
T_REC_XHO	0
T_REC_BHO	0
T_REC_BXH	2
T_REC_STR	34
T_REC_BST	2
T_REC_XST	3
T_REC_XBS	0
T_REC_TTP	18
T_REC_THO	3
T_REC_SLD	40
T_REC_BSL	1
T_REC_ALL	419
T_NUM_TAP	322
T_NUM_BRK	13
T_NUM_HLD	44
T_NUM_SLD	40
T_NUM_ALL	419
T_JUDGE_TAP	332
T_JUDGE_HLD	166
T_JUDGE_SLD	41
T_JUDGE_ALL	539
TTM_EACHPAIRS	100
TTM_SCR_TAP	161000
TTM_SCR_BRK	33800
TTM_SCR_HLD	44000
TTM_SCR_SLD	60000
TTM_SCR_ALL	298800
TTM_SCR_S	288600
TTM_SCR_SS	297500
TTM_RAT_ACV	10043

