VERSION	0.00.00	1.05.00
FES_MODE	0
BPM_DEF	145.000	145.000	145.000	145.000
MET_DEF	4	4
RESOLUTION	384
CLK_DEF	384
COMPATIBLE_CODE	MA2

BPM	0	0	145.000
MET	0	0	4	4

NMTAP	2	0	0
NMTAP	3	0	1
NMTAP	4	0	2
NMTAP	5	0	3
NMTAP	5	0	4
NMTAP	6	0	4
NMTAP	7	0	5
NMTAP	8	0	6
EXTAP	9	0	0
EXTAP	9	0	7
NMHLD	10	0	6	384
NMHLD	10	0	7	384
NMHLD	12	0	4	384
NMHLD	12	0	5	384
NMHLD	14	0	2	384
NMHLD	14	0	3	384
NMHLD	16	0	0	384
NMHLD	16	0	1	384
NMTAP	18	0	0
NMTAP	18	192	0
NMTAP	19	0	1
NMTAP	20	0	2
NMTAP	20	192	2
NMTAP	21	0	3
NMTAP	22	0	4
NMTAP	22	192	4
NMTAP	23	0	5
NMTAP	24	0	6
NMTAP	24	192	6
NMTAP	25	0	0
NMTAP	25	0	7
EXTAP	26	0	7
NMTAP	26	192	7
NMTAP	27	0	6
NMTAP	27	0	7
NMTAP	28	0	5
NMTAP	28	192	5
NMTAP	29	0	4
NMTAP	29	0	5
NMTAP	30	0	3
NMTAP	30	192	3
NMTAP	31	0	2
NMTAP	31	0	3
NMTAP	32	0	1
NMTAP	32	192	1
NMTAP	33	0	0
NMTAP	33	0	1
NMTTP	34	0	1	E	0	L1
NMTTP	35	0	2	E	0	L1
NMTTP	36	0	3	E	0	L1
NMTTP	37	0	4	E	0	L1
NMTTP	38	0	5	E	0	L1
NMTTP	39	0	6	E	0	L1
NMTTP	40	0	7	E	0	L1
NMTTP	41	0	0	C	1	L1
EXTAP	42	0	7
EXTAP	42	96	7
EXTAP	42	192	7
NMTAP	43	0	6
NMTAP	43	192	6
NMTAP	44	0	5
NMTAP	44	96	5
NMTAP	44	192	5
NMTAP	45	0	4
NMTAP	45	192	4
NMTAP	46	0	3
NMTAP	46	0	4
NMTAP	46	192	3
NMTAP	46	192	4
NMTAP	47	0	3
NMTAP	47	96	3
NMTAP	47	192	3
NMTAP	48	0	2
NMTAP	48	192	2
NMTAP	49	0	1
NMTAP	49	96	1
NMTAP	49	192	1
NMTAP	50	0	0
NMTAP	50	192	0
EXHLD	51	0	0	384
EXHLD	51	0	7	384
NMSTR	53	0	0
NMSI_	53	0	0	96	288	4
NMSTR	55	0	7
NMSI_	55	0	7	96	288	3
NMSTR	57	0	1
NMSI_	57	0	1	96	288	5
NMSTR	59	0	6
NMSI_	59	0	6	96	288	2
NMHLD	61	0	0	384
NMHLD	61	0	1	384
NMHLD	63	0	6	384
NMHLD	63	0	7	384
NMTAP	65	0	0
BRTAP	65	96	0
NMTAP	65	192	0
NMTAP	66	0	1
NMTAP	66	96	1
NMTAP	66	192	1
NMTAP	67	0	2
NMTAP	67	96	2
NMTAP	67	192	2
NMTAP	68	0	3
NMTAP	68	96	3
NMTAP	68	192	3
NMTAP	68	192	4
NMTAP	69	0	4
NMTAP	69	96	4
NMTAP	69	192	4
NMTAP	70	0	5
NMTAP	70	96	5
NMTAP	70	192	5
NMTAP	71	0	6
NMTAP	71	96	6
NMTAP	71	192	6
NMTAP	72	0	7
NMTAP	72	96	7
NMTAP	72	192	0
NMTAP	72	192	7
NMTAP	73	0	1
NMTAP	73	96	1
NMTAP	73	192	1
NMTAP	74	0	0
NMTAP	74	96	0
NMTAP	74	192	0
NMTAP	74	192	7
NMTAP	75	0	6
NMTAP	75	96	6
NMTAP	75	192	6
EXTAP	76	0	0
EXTAP	76	0	7
NMTAP	77	0	0
NMTAP	77	96	0
NMTAP	77	192	0
NMHLD	78	0	1	192
NMTAP	79	0	2
NMTAP	79	96	2
NMTAP	79	192	2
NMHLD	80	0	3	192
NMTAP	81	0	4
NMTAP	81	96	4
NMTAP	81	192	4
NMHLD	82	0	5	192
NMTAP	83	0	6
NMTAP	83	96	6
NMTAP	83	192	6
EXSTR	84	0	7
NMSI_	84	0	7	96	288	3

T_REC_TAP	104
T_REC_BRK	1
T_REC_XTP	8
T_REC_BXX	0
T_REC_HLD	15
T_REC_XHO	2
T_REC_BHO	0
T_REC_BXH	0
T_REC_STR	4
T_REC_BST	0
T_REC_XST	1
T_REC_XBS	0
T_REC_TTP	8
T_REC_THO	0
T_REC_SLD	5
T_REC_BSL	0
T_REC_ALL	148
T_NUM_TAP	125
T_NUM_BRK	1
T_NUM_HLD	17
T_NUM_SLD	5
T_NUM_ALL	148
T_JUDGE_TAP	126
T_JUDGE_HLD	124
T_JUDGE_SLD	5
T_JUDGE_ALL	255
TTM_EACHPAIRS	20
TTM_SCR_TAP	62500
TTM_SCR_BRK	2600
TTM_SCR_HLD	17000
TTM_SCR_SLD	7500
TTM_SCR_ALL	89600
TTM_SCR_S	86850
TTM_SCR_SS	89500
TTM_RAT_ACV	10011

