VERSION	0.00.00	1.05.00
FES_MODE	0
BPM_DEF	165.000	165.000	165.500	130.000
MET_DEF	4	4
RESOLUTION	384
CLK_DEF	576
COMPATIBLE_CODE	MA2

BPM	0	0	165.000
BPM	12	0	155.000
BPM	12	96	135.000
BPM	12	192	130.000
BPM	12	288	165.500
BPM	13	0	145.000
BPM	13	192	165.000
MET	0	0	4	6
MET	13	192	4	4
MET	37	192	4	3
MET	49	192	4	4

NMTAP	1	192	2
NMHLD	1	288	2	288
NMTTP	2	96	3	E	0	M1
NMTTP	2	192	4	E	0	M1
NMTAP	3	0	5
NMHLD	3	96	5	288
NMTTP	3	288	5	E	0	M1
NMTTP	4	0	4	E	0	M1
NMTAP	4	192	2
NMHLD	4	288	1	288
NMTTP	5	96	2	E	0	M1
NMTTP	5	192	3	E	0	M1
NMTAP	6	0	5
NMHLD	6	96	5	96
NMTAP	6	192	4
NMTAP	6	288	2
NMHLD	7	0	2	96
NMTAP	7	96	3
NMTAP	7	192	4
NMSTR	7	288	4
NMSUR	7	288	4	96	192	2
NMTAP	8	96	3
NMTAP	8	192	3
NMTAP	9	0	2
NMSTR	9	96	2
NMSUL	9	96	2	96	192	5
NMTAP	9	288	4
NMTAP	10	0	4
NMTAP	10	192	5
NMSTR	10	288	5
NMSXL	10	288	5	96	288	3
NMTAP	11	96	3
NMTAP	11	192	2
NMTTP	12	0	1	E	0	M1
NMTTP	12	96	0	C	0	M1
NMTTP	12	192	5	E	0	M1
NMTHO	12	288	4	192	E	1	M1
BXTAP	13	192	6
NMTAP	13	240	7
NMTAP	13	288	0
NMTAP	13	288	5
NMTAP	13	336	6
NMTAP	14	0	1
NMTAP	14	48	0
NMTAP	14	96	2
NMTAP	14	96	7
NMTAP	14	144	1
NMTAP	14	192	0
NMTAP	14	192	6
NMTAP	14	240	5
NMTAP	14	288	0
NMTAP	14	288	6
NMTAP	14	336	7
NMTAP	15	0	1
NMTAP	15	24	0
NMTAP	15	48	1
NMTAP	15	96	0
NMTAP	15	96	2
NMTAP	15	192	2
NMTAP	15	240	3
NMTAP	15	288	1
NMTAP	15	288	4
NMTAP	15	336	2
NMTAP	16	0	5
NMTAP	16	48	4
NMTAP	16	96	3
NMTAP	16	96	6
NMTAP	16	144	5
NMTAP	16	192	2
NMTAP	16	192	4
NMTAP	16	240	1
NMSTR	16	288	3
NMSI_	16	288	3	96	48	0
NMSTR	16	288	5
NMSI_	16	288	5	96	48	0
NMTAP	16	336	6
NMTAP	17	96	1
NMTAP	17	96	7
NMTAP	17	192	6
NMTAP	17	240	6
NMTAP	17	288	4
NMTAP	17	288	5
NMTAP	17	336	6
NMTAP	18	0	1
NMTAP	18	48	1
NMTAP	18	96	2
NMTAP	18	96	3
NMTAP	18	144	1
NMTAP	18	192	0
NMTAP	18	192	7
NMTAP	18	240	6
NMTAP	18	288	5
NMTAP	18	288	7
NMTAP	18	336	6
NMTAP	19	0	1
NMTAP	19	24	0
NMTAP	19	48	1
NMTAP	19	96	2
NMTAP	19	96	7
NMTAP	19	192	3
NMTAP	19	192	6
NMTAP	19	240	5
NMTAP	19	288	1
NMTAP	19	288	4
NMTAP	19	336	2
NMTAP	20	0	4
NMTAP	20	24	3
NMTAP	20	48	4
NMTAP	20	72	3
NMTAP	20	96	4
NMSTR	20	192	2
NMSI_	20	192	2	96	48	7
NMSTR	20	192	5
NMSI_	20	192	5	96	48	0
NMTAP	21	0	1
NMTAP	21	0	6
NMSTR	21	96	5
NMSCR	21	96	5	96	288	2
NMTAP	21	192	4
NMTAP	21	288	4
NMTAP	22	0	4
NMTAP	22	96	4
NMHLD	22	192	3	96
NMHLD	22	288	2	96
NMHLD	23	0	1	96
NMSTR	23	96	0
NMSI_	23	96	0	96	96	3
NMSTR	23	192	3
NMSCR	23	192	3	96	96	6
NMSTR	23	288	6
NMSCR	23	288	6	96	96	1
NMSTR	24	0	1
NMSI_	24	0	1	96	96	4
NMSTR	24	96	4
NMSUR	24	96	4	96	192	2
NMHLD	24	192	3	192
NMSTR	25	96	2
NMSCL	25	96	2	96	288	5
NMTAP	25	192	3
NMTAP	25	288	3
NMTAP	26	0	3
NMTAP	26	96	3
NMHLD	26	192	4	96
NMHLD	26	288	5	96
NMHLD	27	0	6	96
NMSTR	27	96	7
NMSI_	27	96	7	96	96	4
NMSTR	27	192	4
NMSCL	27	192	4	96	96	1
NMSTR	27	288	1
NMSCL	27	288	1	96	96	6
NMSTR	28	0	6
NMSCL	28	0	6	96	96	3
NMSTR	28	96	3
NMSLR	28	96	3	96	144	1
NMTTP	28	192	0	C	1	M1
CNSI_	28	336	1	0	48	7
NMTAP	29	96	0
NMTAP	29	96	6
BRSTR	29	192	1
NMSI_	29	192	1	96	48	3
NMTAP	29	240	4
NMTAP	29	336	4
NMSTR	30	0	2
NMSI_	30	0	2	96	48	4
NMTAP	30	48	5
NMTAP	30	144	5
NMTAP	30	240	6
NMTAP	30	288	3
NMTAP	30	288	6
NMTAP	30	336	5
NMTAP	30	360	4
NMTAP	31	0	5
NMTAP	31	48	2
NMTAP	31	72	3
NMTAP	31	96	2
NMTAP	31	144	1
NMTAP	31	144	4
NMHLD	31	192	1	48
NMHLD	31	192	4	48
NMHLD	31	288	1	48
NMHLD	31	288	4	48
NMHLD	32	0	2	48
NMHLD	32	0	5	48
NMHLD	32	96	3	48
NMHLD	32	96	6	48
EXTAP	32	192	7
EXTAP	32	216	6
EXTAP	32	240	5
EXTAP	32	264	4
EXTAP	32	288	3
EXTAP	32	312	2
EXTAP	32	336	1
EXTAP	32	360	0
NMTTP	33	0	0	C	0	M1
EXTAP	33	0	7
NMTAP	33	96	1
NMTAP	33	96	5
NMSTR	33	192	6
NMSI_	33	192	6	96	48	4
NMTAP	33	240	3
NMTAP	33	336	3
NMSTR	34	0	5
NMSI_	34	0	5	96	48	3
NMTAP	34	48	2
NMTAP	34	144	2
NMTAP	34	240	1
NMTAP	34	288	1
NMTAP	34	288	4
NMTAP	34	336	2
NMTAP	34	360	3
NMTAP	35	0	2
NMTAP	35	48	5
NMTAP	35	72	4
NMTAP	35	96	5
NMTAP	35	144	4
NMTAP	35	144	6
NMTAP	35	192	4
NMSTR	35	192	6
NMSI_	35	192	6	96	48	0
NMSTR	35	288	2
NMSI_	35	288	2	96	48	4
NMSTR	36	0	5
NMSI_	36	0	5	96	48	1
NMTAP	36	96	2
NMSTR	36	144	2
NMSUR	36	144	2	96	192	4
NMTAP	36	240	0
NMTAP	36	288	7
NMTAP	36	336	6
NMTAP	37	0	5
NMTAP	37	48	5
NMTAP	37	96	4
NMTAP	37	96	5
NMTAP	37	192	4
NMTAP	37	288	5
NMTAP	38	0	4
NMHLD	38	0	6	288
NMTTP	38	96	5	E	0	M1
NMTTP	38	192	6	E	0	M1
NMTTP	38	288	7	E	0	M1
NMTAP	39	0	7
NMTAP	39	96	0
NMHLD	39	192	1	288
NMTAP	39	192	7
NMTTP	39	288	1	E	0	M1
NMTTP	40	0	2	E	0	M1
NMTTP	40	96	3	E	0	M1
NMTAP	40	192	4
NMTAP	40	288	5
NMTAP	41	0	4
NMTAP	41	0	6
NMTAP	41	96	3
NMTAP	41	192	2
NMTAP	41	288	1
NMSTR	41	288	3
NMSCR	41	288	3	96	192	7
NMTAP	42	0	2
NMTAP	42	96	3
NMSTR	42	192	4
NMSCL	42	192	4	96	192	0
NMTAP	42	288	5
NMTAP	43	0	4
NMHLD	43	96	3	576
NMTTP	43	192	7	E	0	M1
NMTTP	43	288	6	E	0	M1
NMTTP	44	0	5	E	0	M1
NMTTP	44	96	4	E	0	M1
NMTTP	44	192	3	E	0	M1
EXHLD	44	288	1	576
NMTTP	45	0	4	E	0	M1
NMTTP	45	96	3	E	0	M1
NMTTP	45	192	2	E	0	M1
NMTTP	45	288	1	E	0	M1
NMTTP	46	0	0	E	0	M1
NMHLD	46	96	5	576
NMTTP	46	192	0	E	0	M1
NMTTP	46	288	7	E	0	M1
NMTTP	47	0	6	E	0	M1
NMTTP	47	96	5	E	0	M1
NMTTP	47	192	4	E	0	M1
NMTTP	47	288	0	C	0	M1
NMSTR	48	0	0
NMSCR	48	0	0	96	192	3
BRTAP	48	288	7
NMTTP	49	192	6	E	0	M1
NMTTP	49	288	0	C	0	M1
NMTTP	50	0	2	E	0	M1
NMSTR	50	96	0
NMSI_	50	96	0	96	48	2
NMTAP	50	96	5
NMSTR	50	192	0
NMSI_	50	192	0	96	48	4
NMTAP	50	240	4
NMSTR	50	288	0
NMSI_	50	288	0	96	48	2
NMTAP	50	336	3
NMSTR	51	0	0
NMSI_	51	0	0	96	48	4
NMTAP	51	48	4
NMTAP	51	96	0
NMTAP	51	144	3
NMTAP	51	192	5
NMTAP	51	216	5
NMTAP	51	240	4
NMSTR	51	288	2
NMSI_	51	288	2	96	48	5
NMSI_	51	288	2	96	48	7
NMTAP	51	312	3
NMTAP	51	336	1
NMSTR	52	96	6
NMSI_	52	96	6	96	48	4
NMSTR	52	192	6
NMSI_	52	192	6	96	48	2
NMTAP	52	240	0
NMSTR	52	288	6
NMSI_	52	288	6	96	48	4
NMTAP	52	336	7
NMSTR	53	0	6
NMSI_	53	0	6	96	48	2
NMTAP	53	48	0
NMTAP	53	96	6
NMTAP	53	144	7
EXTAP	53	192	0
NMTAP	53	216	1
NMTAP	53	240	2
NMTAP	53	264	3
NMSTR	53	288	0
NMSI_	53	288	0	96	48	4
NMTAP	53	312	7
NMTAP	53	336	6
NMTAP	53	360	5
NMTAP	54	0	0
NMSTR	54	96	7
NMSI_	54	96	7	96	48	5
NMSTR	54	192	7
NMSI_	54	192	7	96	48	3
NMTAP	54	240	3
NMSTR	54	288	7
NMSI_	54	288	7	96	48	5
NMTAP	54	336	4
NMSTR	55	0	7
NMSI_	55	0	7	96	48	3
NMTAP	55	48	3
NMTAP	55	96	7
NMTAP	55	144	4
NMTAP	55	192	2
NMTAP	55	216	2
NMTAP	55	240	3
NMSTR	55	288	5
NMSI_	55	288	5	96	48	0
NMSI_	55	288	5	96	48	2
NMTAP	55	312	4
NMTAP	55	336	6
NMSTR	56	96	1
NMSI_	56	96	1	96	48	3
NMSTR	56	192	1
NMSI_	56	192	1	96	48	5
NMTAP	56	240	7
NMSTR	56	288	1
NMSI_	56	288	1	96	48	3
NMTAP	56	336	0
NMTAP	57	0	1
NMTAP	57	48	7
NMSTR	57	96	2
NMSI_	57	96	2	96	48	0
NMSTR	57	96	7
NMSI_	57	96	7	96	48	3
NMSTR	57	192	2
NMSI_	57	192	2	96	48	5
NMSTR	57	192	7
NMSI_	57	192	7	96	48	5
NMTAP	57	288	2
NMTAP	57	288	7
BRHLD	58	0	3	96
BRHLD	58	0	7	96
NMHLD	58	192	2	48
NMHLD	58	288	2	48
NMHLD	59	0	3	48
NMHLD	59	96	3	48
NMHLD	59	192	4	48
NMHLD	59	288	4	48
NMHLD	60	0	5	48
NMSTR	60	96	5
NMSUL	60	96	5	96	192	3
NMTAP	60	192	4
NMTAP	60	288	3
NMTAP	61	0	2
NMSTR	61	96	2
NMSV_	61	96	2	96	96	7
NMTAP	61	192	3
NMTAP	61	288	3
CNSV_	61	288	7	0	96	4
NMTAP	62	0	3
NMTAP	62	96	3
NMHLD	62	192	5	48
NMHLD	62	288	5	48
NMHLD	63	0	4	48
NMHLD	63	96	4	48
NMHLD	63	192	3	48
NMHLD	63	288	3	48
NMHLD	64	0	2	48
NMSTR	64	96	2
NMSUR	64	96	2	96	288	5
NMTAP	64	192	4
NMTAP	64	288	5
NMTAP	65	0	6
NMSTR	65	96	7
NMSCL	65	96	7	96	192	0
NMTTP	65	192	0	C	0	M1
NMTAP	66	0	7
NMTAP	66	96	1
NMTAP	66	96	6
EXSTR	66	192	0
NMSUL	66	192	0	96	48	4
NMTAP	66	240	5
NMTAP	66	336	5
NMSTR	67	0	3
NMSUL	67	0	3	96	48	7
NMTAP	67	48	5
NMTAP	67	144	5
NMTAP	67	240	6
NMTAP	67	288	0
NMTAP	67	288	6
NMTAP	67	336	1
NMTAP	67	360	3
NMTAP	68	0	2
NMTAP	68	48	6
NMSTR	68	96	4
NMSUL	68	96	4	96	96	7
NMTAP	68	96	5
NMSTR	68	192	7
NMSUL	68	192	7	96	96	3
NMSTR	68	288	3
NMSCL	68	288	3	96	96	0
NMSTR	69	0	0
NMSUR	69	0	0	96	96	4
NMSTR	69	96	4
NMSXL	69	96	4	96	192	0
NMTTP	69	192	0	C	1	M1
NMTAP	70	96	0
NMTAP	70	96	7
NMSTR	70	192	6
NMSI_	70	192	6	96	48	3
NMTAP	70	240	2
NMTAP	70	336	2
NMSTR	71	0	4
NMSI_	71	0	4	96	48	0
NMTAP	71	48	2
NMTAP	71	144	2
NMTAP	71	240	1
NMTAP	71	288	1
NMTAP	71	288	7
NMTAP	71	336	6
NMTAP	71	360	4
NMTAP	72	0	5
NMTAP	72	48	1
NMTAP	72	96	2
NMSTR	72	96	3
NMSLR	72	96	3	96	96	7
NMSTR	72	192	7
NMSLR	72	192	7	96	96	3
NMSTR	72	288	3
NMSLR	72	288	3	96	96	7
NMTAP	73	0	7
NMTAP	73	96	1
NMSTR	73	144	1
NMSCR	73	144	1	96	144	6
NMTTP	73	240	6	E	0	M1
NMTTP	73	288	5	E	0	M1
NMTTP	73	336	4	E	0	M1
NMTTP	74	0	3	E	0	M1
NMTAP	74	96	0
NMTAP	74	96	1
NMHLD	74	192	2	192
NMTAP	74	288	3
NMHLD	75	0	3	288
NMTAP	75	96	4
NMTAP	75	192	4
NMHLD	75	288	4	288
NMTAP	76	0	5
NMTAP	76	96	5
NMSTR	76	192	5
NMSXL	76	192	5	96	192	4
NMTAP	76	288	4
NMTAP	77	0	3
BRTAP	77	96	3
NMSTR	77	192	2
NMSCL	77	192	2	96	96	7
NMTAP	77	288	3
NMTAP	78	0	4
NMSTR	78	96	5
NMSCL	78	96	5	96	96	2
NMTAP	78	192	6
NMTAP	78	288	7
NMSTR	79	0	0
NMSCL	79	0	0	96	96	5
NMTAP	79	96	1
NMTAP	79	192	2
NMTAP	79	288	3
NMTAP	79	336	3
NMTAP	80	0	4
NMTAP	80	48	4
NMTAP	80	96	2
NMTAP	80	192	3
NMHLD	80	192	5	192
NMTAP	80	288	4
NMHLD	81	0	4	288
NMTAP	81	96	3
NMTAP	81	192	3
NMHLD	81	288	3	288
NMTAP	82	0	2
NMTAP	82	96	2
NMSTR	82	192	2
NMSLL	82	192	2	96	96	6
NMTAP	82	288	3
NMTAP	83	0	3
CNSI_	83	0	6	0	96	4
NMTAP	83	96	3
NMSTR	83	192	3
NMSXL	83	192	3	96	192	3
NMSXR	83	192	3	96	192	3
NMTAP	84	192	1
NMTAP	84	192	4
NMTAP	84	288	2
NMTAP	84	288	5
NMTHO	85	0	3	288	B	1	M1
NMTHO	85	0	3	288	E	0	M1
NMTHO	85	0	4	288	B	0	M1
NMTHO	85	0	5	288	E	0	M1
NMSTR	86	96	7
NMSCL	86	96	7	96	48	5
NMSTR	86	192	7
NMSUR	86	192	7	96	48	3
NMTAP	86	240	3
NMSTR	86	288	7
NMSCL	86	288	7	96	48	5
NMTAP	86	336	4
NMSTR	87	0	7
NMSUR	87	0	7	96	48	3
NMTAP	87	48	3
NMTAP	87	96	7
NMTAP	87	144	4
NMTAP	87	192	2
NMTAP	87	216	2
NMTAP	87	240	3
NMSTR	87	288	5
NMSI_	87	288	5	96	48	2
NMSCR	87	288	5	96	48	0
NMTAP	87	312	4
NMTAP	87	336	6
NMSTR	88	96	1
NMSCR	88	96	1	96	48	3
NMSTR	88	192	1
NMSUR	88	192	1	96	48	5
NMTAP	88	240	7
NMSTR	88	288	1
NMSCR	88	288	1	96	48	3
NMTAP	88	336	0
NMSTR	89	0	1
NMSUR	89	0	1	96	48	5
NMTAP	89	48	7
NMTAP	89	96	1
NMTAP	89	144	0
NMTAP	89	192	4
NMTAP	89	216	7
NMTAP	89	240	4
NMTAP	89	264	7
NMTAP	89	288	3
NMTAP	89	312	6
NMTAP	89	336	2
NMTAP	89	360	5
EXTAP	90	0	1
EXTAP	90	0	4
NMSTR	90	96	0
NMSCR	90	96	0	96	48	2
NMSTR	90	192	0
NMSUL	90	192	0	96	48	4
NMTAP	90	240	4
NMSTR	90	288	0
NMSCR	90	288	0	96	48	2
NMTAP	90	336	3
NMSTR	91	0	0
NMSUL	91	0	0	96	48	4
NMTAP	91	48	4
NMTAP	91	96	0
NMTAP	91	144	3
NMTAP	91	192	5
NMTAP	91	216	5
NMTAP	91	240	4
NMSTR	91	288	2
NMSI_	91	288	2	96	48	5
NMSCL	91	288	2	96	48	7
NMTAP	91	312	3
NMTAP	91	336	1
NMSTR	92	96	6
NMSCL	92	96	6	96	48	4
NMSTR	92	192	6
NMSUL	92	192	6	96	48	2
NMTAP	92	240	0
NMSTR	92	288	6
NMSCL	92	288	6	96	48	4
NMTAP	92	336	7
NMSTR	93	0	6
NMSUL	93	0	6	96	48	2
NMTAP	93	48	0
NMTAP	93	96	6
NMTAP	93	144	0
NMHLD	93	192	0	48
NMHLD	93	192	3	48
NMHLD	93	288	1	48
NMHLD	93	288	4	48
NMSTR	94	0	2
NMSV_	94	0	2	96	48	0
NMSTR	94	0	6
NMSV_	94	0	6	96	48	4
NMTTP	94	96	0	C	1	M1
NMSTR	94	192	0
NMSI_	94	192	0	96	48	4
NMSTR	94	192	7
NMSI_	94	192	7	96	48	3
NMTAP	94	240	1
NMTAP	94	240	6
BRTAP	94	288	0
BRTAP	94	288	7
NMTAP	95	0	5
NMSTR	95	0	7
NMSCL	95	0	7	96	48	4
NMTAP	95	48	6
NMTAP	95	96	1
NMTAP	95	96	7
NMTAP	95	144	1
NMTAP	95	192	2
NMTAP	95	216	3
NMTAP	95	240	2
NMSTR	95	288	4
NMSI_	95	288	4	96	48	0
NMSTR	95	288	5
NMSI_	95	288	5	96	48	1
NMTAP	95	336	3
NMTAP	95	336	6
NMTAP	96	0	4
NMTAP	96	0	5
NMSTR	96	96	2
NMSI_	96	96	2	96	48	4
NMTAP	96	96	7
NMTAP	96	192	2
NMSTR	96	192	7
NMSI_	96	192	7	96	48	5
NMTAP	96	240	0
NMSTR	96	288	2
NMSI_	96	288	2	96	48	7
NMTAP	96	288	7
NMTAP	96	336	1
NMTAP	97	0	2
NMSTR	97	0	4
NMSI_	97	0	4	96	48	0
NMTAP	97	48	3
NMTAP	97	96	1
NMTAP	97	96	4
NMTAP	97	192	7
NMTAP	97	216	6
NMTAP	97	240	5
NMTAP	97	264	4
NMSTR	97	288	7
BRSUL	97	288	7	96	48	3
NMTAP	97	312	0
NMTAP	97	336	1
NMTAP	97	360	2
NMTAP	98	0	7
NMSTR	98	96	0
NMSI_	98	96	0	96	48	3
NMTAP	98	96	4
NMSTR	98	192	0
NMSI_	98	192	0	96	48	5
NMTAP	98	192	6
NMTAP	98	240	7
NMSTR	98	288	0
NMSCR	98	288	0	96	48	3
NMTAP	98	288	2
NMTAP	98	336	1
NMSTR	99	0	0
NMSI_	99	0	0	96	48	4
NMTAP	99	0	6
NMTAP	99	48	7
NMTAP	99	96	0
NMTAP	99	96	2
NMTAP	99	144	1
NMTAP	99	192	6
NMTAP	99	216	7
NMTAP	99	240	5
NMSTR	99	288	2
NMSI_	99	288	2	96	48	6
NMSTR	99	288	3
NMSI_	99	288	3	96	48	7
NMTAP	99	336	1
NMTAP	99	336	4
NMTAP	100	0	2
NMTAP	100	0	3
NMTAP	100	96	0
NMSTR	100	96	5
NMSI_	100	96	5	96	48	3
NMSTR	100	192	0
NMSI_	100	192	0	96	48	2
NMTAP	100	192	5
NMTAP	100	240	7
NMTAP	100	288	0
NMSTR	100	288	5
NMSI_	100	288	5	96	48	0
NMTAP	100	336	6
NMSTR	101	0	3
NMSI_	101	0	3	96	48	7
NMTAP	101	0	5
NMTAP	101	48	4
NMTAP	101	96	3
NMTAP	101	96	6
NMSTR	101	192	0
NMSI_	101	192	0	96	48	4
NMSTR	101	192	6
NMSI_	101	192	6	96	48	2
NMTAP	101	288	0
NMTAP	101	288	6
BRSTR	102	0	1
NMSXR	102	0	1	96	384	7
BRSTR	102	0	5
NMSXR	102	0	5	96	384	3
NMSTR	103	192	0
BRSCR	103	192	0	96	48	3
NMSTR	103	192	4
BRSCR	103	192	4	96	48	7
NMSTR	103	288	0
NMSI_	103	288	0	96	48	5
NMSTR	103	288	4
NMSI_	103	288	4	96	48	1
NMTAP	104	0	0
NMTAP	104	0	4
EXTAP	104	96	2
NMTAP	104	108	3
NMTAP	104	120	4
NMTAP	104	132	5
NMTAP	104	144	6
NMTAP	104	156	7
NMTAP	104	168	0
NMTAP	104	180	1
BRTAP	104	192	2
BRTAP	104	192	6

T_REC_TAP	373
T_REC_BRK	6
T_REC_XTP	13
T_REC_BXX	1
T_REC_HLD	48
T_REC_XHO	1
T_REC_BHO	2
T_REC_BXH	0
T_REC_STR	119
T_REC_BST	3
T_REC_XST	1
T_REC_XBS	0
T_REC_TTP	43
T_REC_THO	5
T_REC_SLD	125
T_REC_BSL	3
T_REC_ALL	743
T_NUM_TAP	549
T_NUM_BRK	15
T_NUM_HLD	54
T_NUM_SLD	125
T_NUM_ALL	743
T_JUDGE_TAP	559
T_JUDGE_HLD	176
T_JUDGE_SLD	128
T_JUDGE_ALL	863
TTM_EACHPAIRS	87
TTM_SCR_TAP	274500
TTM_SCR_BRK	39000
TTM_SCR_HLD	54000
TTM_SCR_SLD	187500
TTM_SCR_ALL	555000
TTM_SCR_S	536900
TTM_SCR_SS	553500
TTM_RAT_ACV	10027

