VERSION	0.00.00	1.05.00
FES_MODE	0
BPM_DEF	165.000	165.000	165.500	130.000
MET_DEF	4	4
RESOLUTION	384
CLK_DEF	576
COMPATIBLE_CODE	MA2

BPM	0	0	165.000
BPM	12	0	155.000
BPM	12	96	135.000
BPM	12	192	130.000
BPM	12	288	165.500
BPM	13	0	145.000
BPM	13	192	165.000
MET	0	0	4	6
MET	13	192	4	4
MET	37	192	4	3
MET	49	192	4	4

NMTAP	1	192	2
NMTAP	1	192	4
NMHLD	1	288	2	384
NMHLD	1	288	4	384
NMTAP	3	0	3
NMTAP	3	0	5
NMHLD	3	96	3	384
NMHLD	3	96	5	384
NMTAP	4	192	2
NMTAP	4	192	4
NMSTR	4	288	2
NMSV_	4	288	2	96	144	7
NMSTR	4	288	4
NMSV_	4	288	4	96	144	7
EXTAP	5	288	7
NMSTR	6	0	7
NMSCL	6	0	7	96	192	4
NMSCR	6	0	7	96	192	2
NMTAP	7	96	2
NMTAP	7	96	4
NMTAP	7	192	3
NMHLD	7	288	2	192
NMTAP	8	96	3
NMTAP	8	192	2
NMTAP	8	192	4
NMTAP	9	0	4
NMHLD	9	96	5	192
NMTAP	9	288	4
NMTAP	10	0	3
NMTAP	10	0	5
NMTAP	10	192	3
NMHLD	10	288	2	96
NMHLD	10	288	4	96
NMTAP	11	96	5
NMHLD	11	192	4	96
NMHLD	11	192	6	96
NMSTR	12	0	5
NMSI_	12	0	5	96	144	1
CNSI_	12	240	1	0	96	4
CNSI_	12	336	4	0	96	0
BXTAP	13	192	1
EXTAP	13	288	1
NMTAP	14	0	0
NMTAP	14	0	1
NMTAP	14	96	2
NMTAP	14	96	7
NMTAP	14	192	6
NMTAP	14	288	6
NMTAP	15	0	6
NMTAP	15	0	7
NMTAP	15	96	0
NMTAP	15	96	5
NMTAP	15	192	1
NMTAP	15	288	1
NMTAP	15	288	3
NMTAP	16	0	2
NMTAP	16	0	4
NMTAP	16	96	3
NMTAP	16	96	5
NMTAP	16	192	6
NMTAP	16	288	4
NMTAP	16	288	6
EXTAP	17	0	3
EXTAP	17	0	7
BXTAP	17	192	6
EXTAP	17	288	6
NMTAP	18	0	6
NMTAP	18	0	7
NMTAP	18	96	0
NMTAP	18	96	5
NMTAP	18	192	1
NMTAP	18	288	1
NMTAP	19	0	0
NMTAP	19	0	1
NMTAP	19	96	2
NMTAP	19	96	7
NMSTR	19	192	6
NMSI_	19	192	6	96	96	3
NMTAP	20	0	2
NMTAP	20	96	2
NMTAP	20	192	1
NMTAP	20	192	3
NMTAP	20	288	2
NMTAP	20	288	4
BXTAP	21	0	1
BXTAP	21	0	5
NMHLD	21	192	6	768
NMHLD	21	192	7	384
NMTAP	23	0	0
NMTTP	23	192	0	E	0	M1
NMTTP	23	288	7	E	0	M1
NMTTP	24	0	6	E	0	M1
NMTTP	24	96	5	E	0	M1
NMTHO	24	192	4	192	E	0	M1
NMHLD	25	192	0	384
NMHLD	25	192	1	768
NMTAP	27	0	7
NMTTP	27	192	0	E	0	M1
NMTTP	27	288	1	E	0	M1
NMTTP	28	0	2	E	0	M1
NMTTP	28	96	3	E	0	M1
NMTHO	28	192	4	192	E	0	M1
NMTAP	29	192	2
NMTAP	29	288	1
NMTAP	29	288	3
NMTAP	30	0	5
NMTAP	30	96	4
NMTAP	30	96	6
NMSTR	30	192	7
NMSCL	30	192	7	96	96	4
NMSTR	31	0	3
NMSCL	31	0	3	96	96	0
NMTAP	31	192	6
NMTAP	31	288	6
NMTAP	31	288	7
NMTAP	32	0	5
NMTAP	32	96	4
NMTAP	32	96	5
NMTAP	32	192	2
NMTAP	32	240	2
NMTAP	32	288	3
EXTAP	33	0	1
EXTAP	33	0	4
NMTAP	33	192	5
NMTAP	33	288	4
NMTAP	33	288	6
NMTAP	34	0	2
NMTAP	34	96	1
NMTAP	34	96	3
NMSTR	34	192	0
NMSCR	34	192	0	96	96	3
NMSTR	35	0	4
NMSCR	35	0	4	96	96	7
NMTAP	35	192	1
NMTAP	35	288	0
NMTAP	35	288	1
NMTAP	36	0	2
NMTAP	36	96	2
NMTAP	36	96	3
NMSTR	36	192	2
NMSCL	36	192	2	96	144	7
NMSTR	36	192	3
NMSCR	36	192	3	96	144	6
BXHLD	37	192	0	192
NMTAP	38	0	6
NMHLD	38	96	6	192
NMTAP	38	288	4
NMHLD	39	0	4	192
NMTAP	39	192	5
NMTAP	39	288	5
NMTAP	40	0	4
NMTAP	40	0	6
NMTAP	40	96	4
NMTAP	40	96	6
NMHLD	40	192	7	192
NMTAP	41	0	1
NMHLD	41	96	1	192
NMTAP	41	288	3
NMHLD	42	0	3	192
NMTAP	42	192	2
NMTAP	42	288	3
EXTAP	43	0	4
EXTAP	43	0	5
EXTAP	43	96	3
EXTAP	43	96	6
NMTAP	43	192	3
NMTAP	43	192	6
NMTAP	43	288	5
NMTAP	43	336	5
NMTAP	44	0	4
NMHLD	44	96	3	96
NMHLD	44	96	6	96
NMTAP	44	288	2
NMTAP	44	288	5
NMTAP	45	0	1
NMTAP	45	0	4
NMTAP	45	96	2
NMTAP	45	144	2
NMTAP	45	192	3
NMHLD	45	288	1	96
NMHLD	45	288	4	96
NMTAP	46	96	2
NMTAP	46	96	5
NMSTR	46	192	6
NMSI_	46	192	6	96	96	3
NMTAP	47	0	2
NMSTR	47	96	1
NMSI_	47	96	1	96	96	4
NMTAP	47	288	5
NMSTR	48	0	6
NMSCR	48	0	6	96	96	1
NMTAP	48	192	2
NMHLD	48	288	2	192
NMSTR	49	96	3
NMSI_	49	96	3	96	96	7
BXTAP	50	192	0
BXTAP	50	192	6
NMTAP	50	288	4
NMTAP	50	288	5
NMTAP	51	0	1
NMTAP	51	0	7
NMTAP	51	96	2
NMTAP	51	96	3
NMTAP	51	192	1
NMTAP	51	240	1
NMTAP	51	288	3
NMTAP	51	336	3
NMSTR	52	0	2
NMSI_	52	0	2	96	48	7
EXTAP	52	192	5
NMTAP	52	288	6
NMTAP	52	288	7
NMTAP	53	0	2
NMTAP	53	96	0
NMTAP	53	96	1
NMTAP	53	192	2
NMTAP	53	240	2
NMTAP	53	288	3
NMTAP	53	336	3
NMTAP	54	0	1
BXTAP	54	96	0
BXTAP	54	96	7
NMTAP	54	192	6
NMTAP	54	192	7
NMTAP	54	288	2
NMTAP	54	288	4
NMTAP	55	0	0
NMTAP	55	0	1
NMTAP	55	96	3
NMTAP	55	96	5
NMTAP	55	192	6
NMTAP	55	240	6
NMTAP	55	288	7
NMTAP	55	336	7
NMSTR	56	0	5
NMSI_	56	0	5	96	48	2
BXHLD	56	192	1	96
NMHLD	56	288	3	96
NMHLD	57	0	4	96
NMSTR	57	96	6
NMSCL	57	96	6	96	192	1
BXTAP	58	96	0
BXTAP	58	96	7
NMHLD	58	192	1	576
NMTAP	58	192	6
NMTHO	59	192	3	192	B	0	M1
NMTTP	60	192	2	E	0	M1
NMTTP	60	288	2	B	0	M1
NMTTP	61	0	3	B	0	M1
NMTTP	61	96	4	E	0	M1
NMTHO	61	192	4	192	A	0	M1
NMHLD	62	192	6	576
NMTHO	63	192	0	192	B	0	M1
NMTTP	64	192	7	A	0	M1
NMTTP	64	288	7	B	0	M1
NMTTP	65	0	0	C	0	M1
NMTTP	65	96	3	B	0	M1
NMTHO	65	192	3	192	A	0	M1
BXHLD	66	192	2	96
NMTAP	66	288	4
NMHLD	67	0	5	96
NMTAP	67	96	3
NMHLD	67	192	1	96
NMHLD	67	288	2	96
NMHLD	68	0	3	96
NMTAP	68	96	4
NMTAP	68	192	5
NMTAP	68	288	4
NMTAP	68	288	5
NMTAP	69	0	2
NMSTR	69	96	2
BRSCL	69	96	2	96	192	5
NMTAP	69	96	3
BXHLD	70	192	5	96
NMTAP	70	288	3
NMHLD	71	0	2	96
NMTAP	71	96	4
NMHLD	71	192	6	96
NMHLD	71	288	5	96
NMHLD	72	0	4	96
NMTAP	72	96	3
NMTAP	72	192	2
NMTAP	72	288	2
NMTAP	72	288	3
NMTAP	73	0	5
NMTAP	73	96	4
NMSTR	73	96	5
NMSI_	73	96	5	96	96	0
CNSCL	73	288	0	0	96	6
CNSI_	74	0	6	0	96	3
NMTAP	74	192	1
NMTAP	74	192	3
NMHLD	74	288	1	96
NMHLD	74	288	3	96
NMTAP	75	96	0
NMTAP	75	96	2
NMHLD	75	192	0	96
NMHLD	75	192	2	96
NMHLD	76	0	1	96
NMHLD	76	0	3	96
NMTAP	76	192	2
NMTAP	76	192	4
BXTAP	76	288	2
BXTAP	76	288	4
NMTAP	77	0	5
NMTAP	77	48	5
NMTAP	77	96	3
NMHLD	77	192	4	96
NMHLD	77	192	6	96
NMTAP	78	0	5
NMTAP	78	0	7
NMHLD	78	96	5	96
NMHLD	78	96	7	96
NMTAP	78	288	5
NMTAP	78	288	7
NMHLD	79	0	6	96
NMHLD	79	96	5	96
NMHLD	79	192	4	96
NMHLD	79	288	5	96
NMHLD	80	0	6	96
NMTAP	80	96	4
BXSTR	80	192	7
NMSI_	80	192	7	96	96	3
NMTAP	81	0	2
NMSTR	81	96	1
NMSI_	81	96	1	96	96	5
NMTAP	81	288	6
NMTAP	82	0	5
NMTAP	82	96	4
NMSTR	82	192	3
NMSV_	82	192	3	96	96	0
NMSTR	82	192	5
NMSV_	82	192	5	96	96	0
BXHLD	83	192	0	96
BXHLD	83	192	1	96
NMTAP	84	0	0
NMTAP	84	0	7
BXHLD	84	96	6	96
BXHLD	84	96	7	96
NMSTR	84	288	0
BRSXL	84	288	0	96	288	3
NMSTR	84	288	7
BRSXR	84	288	7	96	288	4
EXTAP	86	96	3
EXTAP	86	96	4
BRTAP	86	192	3
BRTAP	86	192	4
NMTAP	86	288	0
NMTAP	86	288	1
NMTAP	87	0	3
NMTAP	87	0	4
NMTAP	87	96	6
NMTAP	87	96	7
NMTAP	87	192	5
NMTAP	87	240	5
NMTAP	87	288	4
NMTAP	88	0	4
NMTAP	88	0	5
BRTAP	88	96	3
BRTAP	88	96	6
NMTAP	88	192	4
NMTAP	88	192	6
NMTAP	88	288	0
NMTAP	88	288	7
NMTAP	89	0	1
NMTAP	89	0	3
NMTAP	89	96	0
NMTAP	89	96	7
NMTAP	89	192	1
NMTAP	89	192	5
NMSTR	89	288	1
NMSCR	89	288	1	96	96	4
NMSTR	89	288	5
NMSCR	89	288	5	96	96	0
BRTAP	90	192	3
NMTAP	90	288	0
NMTAP	90	288	7
NMTAP	91	0	4
NMTAP	91	0	5
NMTAP	91	96	0
NMTAP	91	96	7
NMTAP	91	192	1
NMTAP	91	240	1
NMTAP	91	288	3
NMTAP	92	0	2
NMTAP	92	0	4
BRTAP	92	96	2
BRTAP	92	96	4
NMHLD	92	192	4	96
NMHLD	92	192	6	96
NMHLD	93	0	1	96
NMHLD	93	0	3	96
NMTTP	93	192	1	B	0	M1
NMTTP	93	192	2	B	0	M1
NMTTP	93	192	3	B	0	M1
NMTTP	93	288	4	B	0	M1
NMTTP	93	288	5	B	0	M1
NMTTP	93	288	6	B	0	M1
NMTTP	94	0	0	C	0	M1
BXTAP	94	96	0
BXTAP	94	96	7
NMTAP	94	192	6
NMTAP	94	240	6
NMTAP	94	288	7
NMTAP	95	0	0
NMTAP	95	0	5
NMSTR	95	96	1
NMSCL	95	96	1	96	96	6
NMSTR	95	288	5
NMSCL	95	288	5	96	96	2
NMTAP	96	96	0
NMTAP	96	192	1
NMTAP	96	240	1
NMTAP	96	288	0
NMTAP	97	0	2
NMTAP	97	0	7
NMSTR	97	96	6
NMSI_	97	96	6	96	96	2
NMSTR	97	288	0
NMSF_	97	288	0	96	96	4
BRTAP	98	192	2
BRTAP	98	192	6
NMTAP	98	288	2
NMTAP	98	288	6
NMTAP	99	0	1
NMTAP	99	48	1
NMTAP	99	96	2
NMTAP	99	96	3
NMTAP	99	192	6
NMTAP	99	240	6
NMSTR	99	288	4
NMSUR	99	288	4	96	96	1
NMSTR	99	288	5
NMSCR	99	288	5	96	96	0
NMTAP	100	192	2
NMTAP	100	240	2
NMTAP	100	288	3
NMTAP	101	0	5
NMTAP	101	48	5
NMTAP	101	96	4
BRTAP	101	192	5
BRTAP	101	192	7
BRTAP	101	288	0
BRTAP	101	288	2
BRTAP	102	0	4
BXHLD	102	0	6	768
NMTTP	102	192	4	E	0	M1
NMTTP	103	0	5	E	0	M1
NMTAP	103	192	5
NMTAP	103	288	5
NMTAP	104	0	4
NMTAP	104	96	3
NMTAP	104	96	7
BRTAP	104	192	1
BRTAP	104	192	5

T_REC_TAP	243
T_REC_BRK	16
T_REC_XTP	14
T_REC_BXX	14
T_REC_HLD	55
T_REC_XHO	0
T_REC_BHO	0
T_REC_BXH	9
T_REC_STR	33
T_REC_BST	0
T_REC_XST	0
T_REC_XBS	1
T_REC_TTP	25
T_REC_THO	6
T_REC_SLD	32
T_REC_BSL	3
T_REC_ALL	451
T_NUM_TAP	315
T_NUM_BRK	43
T_NUM_HLD	61
T_NUM_SLD	32
T_NUM_ALL	451
T_JUDGE_TAP	346
T_JUDGE_HLD	268
T_JUDGE_SLD	35
T_JUDGE_ALL	649
TTM_EACHPAIRS	114
TTM_SCR_TAP	157500
TTM_SCR_BRK	111800
TTM_SCR_HLD	61000
TTM_SCR_SLD	48000
TTM_SCR_ALL	378300
TTM_SCR_S	362800
TTM_SCR_SS	374000
TTM_RAT_ACV	10114

