VERSION	0.00.00	1.05.00
FES_MODE	0
BPM_DEF	165.000	165.000	165.500	130.000
MET_DEF	4	4
RESOLUTION	384
CLK_DEF	576
COMPATIBLE_CODE	MA2

BPM	0	0	165.000
BPM	12	0	155.000
BPM	12	96	135.000
BPM	12	192	130.000
BPM	12	288	165.500
BPM	13	0	145.000
BPM	13	192	165.000
MET	0	0	4	6
MET	13	192	4	4
MET	37	192	4	3
MET	49	192	4	4

NMTAP	1	192	7
NMTAP	1	288	7
NMTAP	2	96	6
NMTAP	2	96	7
NMTAP	3	0	5
NMTAP	3	96	5
NMTAP	3	288	4
NMTAP	3	288	5
NMTAP	4	192	3
NMTAP	4	288	3
NMTAP	5	96	2
NMTAP	5	96	3
NMTAP	6	0	1
NMTAP	6	96	1
NMTAP	6	288	0
NMTAP	6	288	7
NMTAP	7	192	0
NMTAP	7	288	0
NMTAP	8	96	0
NMTAP	8	96	1
NMTAP	9	0	2
NMTAP	9	96	2
NMTAP	9	288	2
NMTAP	9	288	3
NMTAP	10	192	4
NMTAP	10	288	4
NMTAP	11	96	4
NMTAP	11	96	5
EXTAP	12	0	6
EXTAP	12	96	6
EXTAP	12	288	0
EXTAP	12	288	7
NMHLD	13	192	6	192
NMTAP	14	0	7
NMTAP	14	192	6
NMTAP	14	192	7
NMTAP	15	0	6
NMTAP	15	0	7
NMHLD	15	192	5	192
NMTAP	16	0	4
NMTAP	16	192	4
NMTAP	16	192	5
NMTAP	17	0	4
NMTAP	17	0	5
NMHLD	17	192	2	192
NMTAP	18	0	3
NMTAP	18	192	2
NMTAP	18	192	3
NMTAP	19	0	2
NMTAP	19	0	3
NMHLD	19	192	1	192
NMTAP	20	0	0
NMTAP	20	192	0
NMTAP	20	192	1
NMTAP	21	0	0
NMTAP	21	0	1
NMTAP	21	192	0
NMTAP	21	288	0
NMTAP	22	0	1
NMTAP	22	192	2
NMTAP	22	288	2
NMTAP	23	0	3
NMTAP	23	192	4
NMTAP	23	288	4
NMTAP	24	0	5
NMTAP	24	192	6
NMTAP	24	288	6
NMTAP	25	0	0
NMTAP	25	0	7
NMTAP	25	192	7
NMTAP	25	288	7
NMTAP	26	0	6
NMTAP	26	192	5
NMTAP	26	288	5
NMTAP	27	0	4
NMTAP	27	192	3
NMTAP	27	288	3
NMTAP	28	0	2
NMTAP	28	192	1
NMTAP	28	288	1
NMTAP	29	0	0
NMTAP	29	0	7
NMTAP	29	192	1
NMTAP	29	288	1
NMTAP	30	0	0
NMTAP	30	0	1
NMTAP	30	192	2
NMTAP	30	288	2
NMTAP	31	0	2
NMTAP	31	0	3
NMTAP	31	192	4
NMTAP	31	288	4
NMTAP	32	0	4
NMTAP	32	0	5
NMTAP	32	192	6
NMTAP	32	192	7
NMTAP	32	288	6
NMTAP	32	288	7
NMTAP	33	0	6
NMTAP	33	0	7
NMTAP	33	192	6
NMTAP	33	288	6
NMTAP	34	0	6
NMTAP	34	0	7
NMTAP	34	192	5
NMTAP	34	288	5
NMTAP	35	0	4
NMTAP	35	0	5
NMTAP	35	192	3
NMTAP	35	288	3
NMTAP	36	0	2
NMTAP	36	0	3
NMTAP	36	192	0
NMTAP	36	192	1
NMTAP	36	288	0
NMTAP	36	288	1
NMTAP	37	0	0
NMTAP	37	0	1
NMTTP	37	192	2	E	0	L1
NMTTP	37	288	2	B	0	L1
NMTTP	38	0	3	B	0	L1
NMTTP	38	96	4	E	0	L1
NMTTP	39	0	6	E	0	L1
NMTTP	39	96	5	B	0	L1
NMTTP	39	192	4	B	0	L1
NMTTP	39	288	4	E	0	L1
NMTTP	40	192	1	B	0	L1
NMTTP	40	288	2	B	0	L1
NMTTP	41	0	3	B	0	L1
NMTTP	41	96	4	B	0	L1
NMTTP	41	192	5	B	0	L1
NMTTP	41	288	6	B	0	L1
NMTHO	42	0	0	288	C	0	L1
NMTTP	43	192	7	B	0	L1
NMTTP	43	288	6	B	0	L1
NMTTP	44	0	5	B	0	L1
NMTTP	44	96	3	B	0	L1
NMTTP	44	96	4	B	0	L1
NMTTP	45	0	0	B	0	L1
NMTTP	45	96	1	B	0	L1
NMTTP	45	192	2	B	0	L1
NMTTP	45	288	3	B	0	L1
NMTTP	45	288	4	B	0	L1
NMTTP	46	192	6	B	0	L1
NMTTP	46	288	5	B	0	L1
NMTTP	47	0	4	B	0	L1
NMTTP	47	96	3	B	0	L1
NMTTP	47	192	2	B	0	L1
NMTTP	47	288	1	B	0	L1
NMTHO	48	0	0	288	C	1	L1
NMTAP	50	192	6
NMTAP	50	288	6
NMTAP	51	0	7
NMTAP	51	96	7
NMTAP	51	192	0
NMTAP	51	288	0
NMTAP	52	0	0
NMTAP	52	0	1
NMTAP	52	192	2
NMTAP	52	288	2
NMTAP	53	0	1
NMTAP	53	96	1
NMTAP	53	192	0
NMTAP	53	288	0
NMTAP	54	0	6
NMTAP	54	0	7
NMTAP	54	192	6
NMTAP	54	288	6
NMTAP	55	0	5
NMTAP	55	96	5
NMTAP	55	192	4
NMTAP	55	288	4
NMTAP	56	0	2
NMTAP	56	0	3
NMTAP	56	192	1
NMTAP	56	288	1
NMTAP	57	0	2
NMTAP	57	96	2
NMTAP	57	192	3
NMTAP	57	288	3
BXTAP	58	0	4
BXTAP	58	0	5
NMHLD	58	192	5	192
NMHLD	59	0	4	192
NMHLD	59	192	3	192
NMTAP	60	0	2
NMHLD	60	192	2	192
NMHLD	61	0	3	192
NMHLD	61	192	4	192
NMTAP	62	0	5
NMHLD	62	192	6	192
NMHLD	63	0	5	192
NMHLD	63	192	4	192
NMTAP	64	0	3
NMHLD	64	192	1	192
NMHLD	65	0	2	192
NMHLD	65	192	3	192
NMTAP	66	0	4
NMTAP	66	192	2
NMTAP	66	288	2
NMTAP	67	0	2
NMTAP	67	96	2
NMTAP	67	192	1
NMTAP	67	288	1
NMTAP	68	0	1
NMTAP	68	96	1
NMTAP	68	192	0
NMTAP	68	288	0
NMTAP	69	0	0
NMTAP	69	96	0
NMTAP	69	192	6
NMTAP	69	192	7
NMTAP	70	0	6
NMTAP	70	0	7
NMTAP	70	192	5
NMTAP	70	288	5
NMTAP	71	0	5
NMTAP	71	96	5
NMTAP	71	192	6
NMTAP	71	288	6
NMTAP	72	0	6
NMTAP	72	96	6
NMTAP	72	192	7
NMTAP	72	288	7
NMTAP	73	0	7
NMTAP	73	96	7
NMTAP	73	192	0
NMTAP	73	192	1
NMSTR	74	192	1
NMSI_	74	192	1	96	192	4
NMSTR	76	0	6
NMSI_	76	0	6	96	192	3
NMSTR	77	192	2
NMSI_	77	192	2	96	192	7
NMTAP	79	0	6
NMTAP	79	96	6
NMTAP	79	288	6
NMTAP	79	288	7
NMSTR	80	192	6
NMSI_	80	192	6	96	192	2
NMSTR	82	0	0
NMSI_	82	0	0	96	192	4
NMSTR	83	192	6
NMSUL	83	192	6	96	480	3
NMTAP	85	288	2
NMTAP	85	288	3
NMTAP	86	192	2
NMTAP	86	288	2
NMTAP	87	0	0
NMTAP	87	0	1
NMTAP	87	96	0
NMTAP	87	96	1
NMTAP	87	192	7
NMTAP	87	288	7
NMTAP	88	0	6
NMTAP	88	0	7
NMTAP	88	192	5
NMTAP	88	288	5
NMTAP	89	0	6
NMTAP	89	0	7
NMTAP	89	96	6
NMTAP	89	96	7
NMTAP	89	192	0
NMTAP	89	288	0
NMTAP	90	0	0
NMTAP	90	0	1
NMTAP	90	192	1
NMTAP	90	288	1
NMTAP	91	0	2
NMTAP	91	0	3
NMTAP	91	96	2
NMTAP	91	96	3
NMTAP	91	192	4
NMTAP	91	288	4
NMTAP	92	0	4
NMTAP	92	0	5
NMTAP	92	192	6
NMTAP	92	288	6
NMTAP	93	0	4
NMTAP	93	0	5
NMTAP	93	96	4
NMTAP	93	96	5
NMTAP	93	192	3
NMTAP	93	288	3
BXTAP	94	0	2
BXTAP	94	0	3
NMTAP	94	192	2
NMTAP	94	288	2
NMTAP	95	0	0
NMTAP	95	0	1
NMTAP	95	96	0
NMTAP	95	96	1
NMTAP	95	192	7
NMTAP	95	288	7
NMTAP	96	0	6
NMTAP	96	0	7
NMTAP	96	96	6
NMTAP	96	96	7
NMTAP	96	192	5
NMTAP	96	288	5
NMTAP	97	0	6
NMTAP	97	0	7
NMTAP	97	96	6
NMTAP	97	96	7
NMTAP	97	192	0
NMTAP	97	288	0
NMTAP	98	0	0
NMTAP	98	0	1
NMTAP	98	192	1
NMTAP	98	288	1
NMTAP	99	0	2
NMTAP	99	0	3
NMTAP	99	96	2
NMTAP	99	96	3
NMTAP	99	192	4
NMTAP	99	288	4
NMTAP	100	0	4
NMTAP	100	0	5
NMTAP	100	96	4
NMTAP	100	96	5
NMTAP	100	192	6
NMTAP	100	288	6
NMTAP	101	0	4
NMTAP	101	0	5
NMTAP	101	96	4
NMTAP	101	96	5
NMTAP	101	192	3
NMTAP	101	288	3
BXTAP	102	0	2
BXTAP	102	0	3
NMTAP	102	192	0
NMTAP	102	192	1
NMTAP	102	288	0
NMTAP	102	288	1
NMTAP	103	0	0
NMTAP	103	0	1
NMTAP	103	192	6
NMTAP	103	192	7
NMTAP	103	288	6
NMTAP	103	288	7
NMTAP	104	0	6
NMTAP	104	0	7
BRTAP	104	192	0
BRTAP	104	192	7

T_REC_TAP	272
T_REC_BRK	2
T_REC_XTP	4
T_REC_BXX	6
T_REC_HLD	16
T_REC_XHO	0
T_REC_BHO	0
T_REC_BXH	0
T_REC_STR	6
T_REC_BST	0
T_REC_XST	0
T_REC_XBS	0
T_REC_TTP	30
T_REC_THO	2
T_REC_SLD	6
T_REC_BSL	0
T_REC_ALL	344
T_NUM_TAP	312
T_NUM_BRK	8
T_NUM_HLD	18
T_NUM_SLD	6
T_NUM_ALL	344
T_JUDGE_TAP	320
T_JUDGE_HLD	76
T_JUDGE_SLD	6
T_JUDGE_ALL	402
TTM_EACHPAIRS	72
TTM_SCR_TAP	156000
TTM_SCR_BRK	20800
TTM_SCR_HLD	18000
TTM_SCR_SLD	9000
TTM_SCR_ALL	203800
TTM_SCR_S	196950
TTM_SCR_SS	203000
TTM_RAT_ACV	10039

