VERSION	0.00.00	1.05.00
FES_MODE	0
BPM_DEF	165.000	165.000	165.500	130.000
MET_DEF	4	4
RESOLUTION	384
CLK_DEF	576
COMPATIBLE_CODE	MA2

BPM	0	0	165.000
BPM	12	0	155.000
BPM	12	96	135.000
BPM	12	192	130.000
BPM	12	288	165.500
BPM	13	0	145.000
BPM	13	192	165.000
MET	0	0	4	6
MET	13	192	4	4
MET	37	192	4	3
MET	49	192	4	4

NMTAP	7	192	0
NMTAP	9	0	0
NMTAP	10	192	7
NMTAP	12	0	0
NMTAP	12	0	7
EXTAP	13	192	0
NMTAP	14	0	0
NMTAP	14	192	1
NMTAP	15	192	2
NMTAP	16	0	2
NMTAP	16	192	3
NMTAP	16	192	4
NMTAP	17	192	4
NMTAP	18	0	4
NMTAP	18	192	5
NMTAP	19	192	6
NMTAP	20	0	6
NMTAP	20	192	0
NMTAP	20	192	7
NMTAP	21	192	7
NMTAP	22	0	7
NMTAP	22	192	6
NMTAP	23	0	6
NMTAP	23	192	5
NMTAP	24	0	5
NMTAP	24	192	4
NMTAP	24	192	5
NMTAP	25	192	3
NMTAP	26	0	3
NMTAP	26	192	2
NMTAP	27	0	2
NMTAP	27	192	1
NMTAP	28	0	1
NMTAP	28	192	0
NMTAP	28	192	1
NMTAP	29	192	0
NMTAP	30	0	0
NMTAP	30	192	1
NMTAP	31	0	1
NMTAP	31	192	2
NMTAP	31	192	3
NMTAP	32	0	2
NMTAP	32	0	3
NMTAP	32	192	2
NMTAP	32	192	3
NMTAP	33	192	4
NMTAP	34	0	4
NMTAP	34	192	5
NMTAP	35	0	5
NMTAP	35	192	6
NMTAP	35	192	7
NMTAP	36	0	6
NMTAP	36	0	7
NMTAP	36	192	6
NMTAP	36	192	7
NMHLD	37	192	6	288
NMHLD	37	192	7	288
NMTAP	39	0	5
NMTAP	39	288	5
NMHLD	40	192	4	288
NMHLD	40	192	5	288
NMTAP	42	0	3
NMTAP	42	288	3
NMHLD	43	192	2	288
NMHLD	43	192	3	288
NMTAP	45	0	1
NMTAP	45	288	1
NMHLD	46	192	0	288
NMHLD	46	192	1	288
NMTAP	48	0	7
NMTAP	48	288	0
NMTAP	48	288	7
BXTAP	50	192	0
NMTAP	50	288	0
NMTAP	51	0	0
NMTAP	51	192	1
NMTAP	52	0	1
NMTAP	52	192	2
NMTAP	52	288	2
NMTAP	53	0	2
NMTAP	53	192	3
NMTAP	53	192	4
NMTAP	54	192	4
NMTAP	54	288	4
NMTAP	55	0	4
NMTAP	55	192	5
NMTAP	56	0	5
NMTAP	56	192	6
NMTAP	56	288	6
NMTAP	57	0	6
NMTAP	57	192	0
NMTAP	57	192	7
NMSTR	58	192	7
NMSI_	58	192	7	96	288	3
NMSTR	60	192	0
NMSI_	60	192	0	96	288	4
NMSTR	62	192	6
NMSI_	62	192	6	96	288	2
NMSTR	64	192	1
NMSI_	64	192	1	96	288	5
NMTAP	66	192	6
NMTAP	67	0	6
NMTAP	67	192	6
NMTAP	67	192	7
NMTAP	68	0	6
NMTAP	68	0	7
NMTAP	68	192	5
NMTAP	69	0	5
NMTAP	69	192	4
NMTAP	69	192	5
NMTAP	70	0	4
NMTAP	70	0	5
NMTAP	70	192	3
NMTAP	71	0	3
NMTAP	71	192	2
NMTAP	71	192	3
NMTAP	72	0	2
NMTAP	72	0	3
NMTAP	72	192	1
NMTAP	73	0	1
NMTAP	73	192	0
NMTAP	73	192	1
NMTTP	74	192	1	E	0	L1
NMTTP	75	96	2	E	0	L1
NMTTP	76	0	3	E	0	L1
NMTTP	76	288	4	E	0	L1
NMTTP	77	192	5	E	0	L1
NMTTP	78	96	6	E	0	L1
NMTTP	79	0	7	E	0	L1
NMTTP	79	288	0	C	0	L1
NMTTP	80	192	6	B	0	L1
NMTTP	80	192	7	B	0	L1
NMTTP	81	96	4	B	0	L1
NMTTP	81	96	5	B	0	L1
NMTTP	82	0	2	B	0	L1
NMTTP	82	0	3	B	0	L1
NMTTP	82	288	0	B	0	L1
NMTTP	82	288	1	B	0	L1
NMTHO	83	192	0	576	C	1	L1
BRTAP	86	192	0
NMTAP	86	288	0
NMTAP	87	0	0
NMTAP	87	192	1
NMTAP	87	288	1
NMTAP	88	0	1
NMTAP	88	192	2
NMTAP	88	288	2
NMTAP	89	0	2
NMTAP	89	192	3
NMTAP	89	192	4
NMTAP	90	0	3
NMTAP	90	0	4
NMTAP	90	192	4
NMTAP	90	288	4
NMTAP	91	0	4
NMTAP	91	192	5
NMTAP	91	288	5
NMTAP	92	0	5
NMTAP	92	192	6
NMTAP	92	288	6
NMTAP	93	0	6
NMTAP	93	192	0
NMTAP	93	192	7
NMTAP	94	0	0
NMTAP	94	0	7
BRTAP	94	192	7
NMTAP	94	288	7
NMTAP	95	0	7
NMTAP	95	192	6
NMTAP	95	288	6
NMTAP	96	0	6
NMTAP	96	192	5
NMTAP	96	288	5
NMTAP	97	0	5
NMTAP	97	192	4
NMTAP	97	288	4
NMTAP	98	0	3
NMTAP	98	0	4
NMTAP	98	192	3
NMTAP	98	288	3
NMTAP	99	0	3
NMTAP	99	192	2
NMTAP	99	288	2
NMTAP	100	0	2
NMTAP	100	192	1
NMTAP	100	288	1
NMTAP	101	0	1
EXTAP	101	192	0
EXTAP	101	192	7
NMTTP	102	192	0	E	0	L1
NMTTP	103	192	0	B	0	L1
NMTTP	103	192	7	B	0	L1
NMTTP	104	192	0	C	1	L1

T_REC_TAP	150
T_REC_BRK	2
T_REC_XTP	3
T_REC_BXX	1
T_REC_HLD	8
T_REC_XHO	0
T_REC_BHO	0
T_REC_BXH	0
T_REC_STR	4
T_REC_BST	0
T_REC_XST	0
T_REC_XBS	0
T_REC_TTP	20
T_REC_THO	1
T_REC_SLD	4
T_REC_BSL	0
T_REC_ALL	193
T_NUM_TAP	177
T_NUM_BRK	3
T_NUM_HLD	9
T_NUM_SLD	4
T_NUM_ALL	193
T_JUDGE_TAP	180
T_JUDGE_HLD	60
T_JUDGE_SLD	4
T_JUDGE_ALL	244
TTM_EACHPAIRS	31
TTM_SCR_TAP	88500
TTM_SCR_BRK	7800
TTM_SCR_HLD	9000
TTM_SCR_SLD	6000
TTM_SCR_ALL	111300
TTM_SCR_S	107700
TTM_SCR_SS	111000
TTM_RAT_ACV	10027

