VERSION	0.00.00	1.05.00
FES_MODE	0
BPM_DEF	135.000	135.000	135.000	135.000
MET_DEF	4	4
RESOLUTION	384
CLK_DEF	384
COMPATIBLE_CODE	MA2

BPM	0	0	135.000
MET	0	0	4	4

NMTAP	1	0	4
NMTAP	1	96	4
NMTAP	1	192	4
NMTAP	1	288	4
NMTAP	2	0	4
NMTAP	2	96	4
NMTAP	2	192	4
EXTAP	2	288	3
NMTAP	2	288	4
NMHLD	3	0	2	96
NMTAP	3	0	4
NMTAP	3	96	4
NMHLD	3	192	0	96
NMTAP	3	192	4
NMTAP	3	288	4
NMTAP	4	0	4
NMHLD	4	0	6	96
NMTAP	4	96	4
NMHLD	4	192	0	96
NMTAP	4	192	4
NMTAP	4	288	4
NMHLD	5	0	2	96
NMTAP	5	0	4
NMTAP	5	96	4
NMHLD	5	192	0	96
NMTAP	5	192	4
NMTAP	5	288	4
NMTAP	6	0	4
BRTAP	6	0	6
BRTAP	6	96	2
NMTAP	6	96	4
NMTAP	6	192	4
BRTAP	6	192	5
NMTAP	6	288	4
NMTAP	7	0	3
NMTAP	7	0	4
NMSTR	7	96	3
NMSI_	7	96	3	96	96	0
NMTAP	7	96	4
NMTAP	7	192	4
NMTAP	7	288	4
NMTAP	8	0	0
NMTAP	8	0	4
NMSTR	8	96	0
NMSI_	8	96	0	96	96	5
NMTAP	8	96	4
NMTAP	8	192	4
NMTAP	8	288	4
NMTAP	9	0	4
NMTAP	9	0	6
NMTAP	9	96	4
NMSTR	9	96	6
NMSI_	9	96	6	96	96	1
NMTAP	9	192	4
NMTAP	9	288	4
NMTAP	10	0	0
NMTAP	10	0	4
NMSTR	10	96	0
NMSCR	10	96	0	96	96	3
NMTAP	10	96	4
NMTAP	10	192	4
NMTAP	10	288	4
NMTAP	11	0	3
NMTAP	11	0	4
NMSTR	11	96	3
NMSUL	11	96	3	96	96	7
NMTAP	11	96	4
NMTAP	11	192	4
NMTAP	11	288	4
NMTAP	12	0	4
NMTAP	12	0	6
NMTAP	12	96	4
NMSTR	12	96	6
NMSUR	12	96	6	96	96	2
NMTAP	12	192	4
NMTAP	12	288	4
NMTAP	13	0	3
NMTAP	13	0	4
NMTAP	13	96	3
NMTAP	13	96	4
NMTAP	13	192	4
NMTAP	13	192	5
NMTAP	13	288	4
NMSTR	13	288	5
NMSXL	13	288	5	96	192	2
NMTAP	14	0	4
NMTAP	14	96	4
NMTAP	14	192	4
NMTAP	14	288	2
NMTAP	14	288	4
NMTAP	15	0	4
NMTAP	15	0	6
NMTAP	15	96	4
NMTAP	15	96	7
NMTAP	15	144	7
NMTAP	15	192	0
NMTAP	15	192	4
NMTAP	15	240	0
NMTAP	15	288	4
NMTAP	15	288	7
NMTAP	15	336	7
NMTAP	16	0	0
NMTAP	16	0	4
NMTAP	16	48	0
NMTAP	16	96	4
NMSTR	16	96	7
NMSLR	16	96	7	96	96	3
NMTAP	16	192	4
NMTAP	16	288	4
NMTAP	17	0	2
NMTAP	17	0	4
NMTAP	17	96	3
NMTAP	17	96	4
NMTAP	17	144	5
NMTAP	17	192	4
NMTAP	17	192	6
NMTAP	17	240	6
NMTAP	17	288	4
NMTAP	17	288	5
NMTAP	17	336	3
NMTAP	18	0	2
NMTAP	18	0	4
NMTAP	18	48	2
NMTAP	18	96	3
NMSTR	18	96	4
NMSLL	18	96	4	96	96	0
NMTAP	18	144	5
NMTAP	18	192	4
NMTAP	18	192	6
NMTAP	18	288	4
NMHLD	19	0	2	96
NMTAP	19	0	4
NMTAP	19	48	3
NMTAP	19	96	4
NMTAP	19	144	3
NMTAP	19	192	4
NMHLD	19	192	6	96
NMTAP	19	240	5
NMTAP	19	288	4
NMTAP	19	336	3
NMHLD	20	0	2	96
NMTAP	20	0	4
NMTAP	20	48	3
NMTAP	20	96	4
NMTAP	20	144	5
NMTAP	20	192	4
NMHLD	20	192	6	96
NMTAP	20	240	5
NMTAP	20	288	4
NMTAP	20	336	3
NMTAP	21	0	2
NMTAP	21	0	4
NMTAP	21	48	3
NMTAP	21	96	4
NMTAP	21	96	6
NMTAP	21	144	3
NMTAP	21	144	5
NMTAP	21	192	2
NMTAP	21	192	4
NMTAP	21	240	1
NMTAP	21	240	3
NMSTR	21	288	0
NMSI_	21	288	0	96	48	2
NMTAP	21	288	4
BRSTR	22	0	0
NMSI_	22	0	0	96	48	5
BRTAP	22	0	4
BRSTR	22	96	0
NMSI_	22	96	0	96	48	3
BRTAP	22	96	4
BRTAP	22	192	0
BRTAP	22	192	4
NMSTR	22	288	2
NMSCL	22	288	2	96	192	5
NMTAP	22	288	4
EXTAP	23	0	4
EXTAP	23	144	4
EXTAP	23	192	4
NMSTR	23	288	5
NMSCR	23	288	5	96	192	2
NMTAP	24	0	4
NMTAP	24	72	4
NMTAP	24	144	4
NMTAP	24	192	4
NMSTR	24	288	2
NMSCL	24	288	2	96	192	5
NMTAP	25	0	4
NMTAP	25	144	4
NMTAP	25	192	4
NMSTR	25	288	5
NMSCR	25	288	5	96	96	0
NMTAP	26	0	4
NMTAP	26	72	4
CNSV_	26	96	0	0	96	2
NMTAP	26	144	4
NMTAP	26	192	4
NMTAP	26	288	4
NMHLD	27	0	0	96
NMTAP	27	0	4
NMTAP	27	96	4
NMTAP	27	192	4
NMHLD	27	192	7	96
NMTAP	27	288	4
NMHLD	28	0	3	96
NMTAP	28	0	4
NMTAP	28	96	4
NMTAP	28	192	4
NMHLD	28	192	5	96
NMTAP	28	264	4
NMTAP	28	336	4
NMTAP	29	0	4
NMTAP	29	48	4
NMTAP	29	96	3
NMTAP	29	96	4
NMTAP	29	144	3
NMTAP	29	144	4
NMTAP	29	192	4
NMTAP	29	240	4
NMTAP	29	288	4
NMTAP	29	288	5
NMTAP	29	336	4
NMTAP	29	336	5
NMTAP	30	0	4
NMTAP	30	24	4
NMTAP	30	48	4
NMTAP	30	72	4
NMTAP	30	96	4
NMTAP	30	120	4
NMTAP	30	144	4
NMTAP	30	168	4
NMTAP	30	192	4
NMTAP	30	216	4
NMTAP	30	240	4
NMTAP	30	264	4
NMSTR	30	288	4
NMSXL	30	288	4	96	192	7
NMSXR	30	288	4	96	192	1
NMTAP	30	312	4
NMTAP	30	336	4
NMTAP	30	360	4
BRTAP	31	288	2
BRTAP	31	288	6
NMTAP	32	0	4
NMTAP	32	48	5
NMTAP	32	72	3
NMTAP	32	96	4
NMTAP	32	120	3
NMTAP	32	144	5
NMTAP	32	168	3
NMTAP	32	192	4
NMTAP	32	216	3
NMTAP	32	240	5
NMTAP	32	264	3
NMTAP	32	288	4
NMTTP	32	336	0	B	0	M1
NMTTP	32	336	0	E	0	M1
NMTTP	32	336	0	A	0	M1
NMTTP	32	336	1	B	0	M1
NMTTP	32	336	6	B	0	M1
NMTTP	32	336	7	B	0	M1
NMTTP	32	336	7	A	0	M1
NMTAP	33	0	2
NMTAP	33	0	4
NMTAP	33	48	5
NMTAP	33	72	3
NMTAP	33	96	4
NMTAP	33	120	3
NMTAP	33	144	5
NMTAP	33	168	3
NMTAP	33	192	4
NMTAP	33	216	3
NMTAP	33	240	5
NMTAP	33	264	3
NMTAP	33	288	4
NMTTP	33	336	0	B	0	M1
NMTTP	33	336	0	E	0	M1
NMTTP	33	336	0	A	0	M1
NMTTP	33	336	1	B	0	M1
NMTTP	33	336	6	B	0	M1
NMTTP	33	336	7	B	0	M1
NMTTP	33	336	7	A	0	M1
NMTAP	34	0	2
NMTAP	34	0	4
NMTAP	34	96	4
NMTAP	34	120	2
NMTAP	34	144	3
NMTAP	34	168	2
NMTAP	34	192	4
NMTAP	34	216	2
NMTAP	34	240	3
NMTAP	34	264	2
NMTAP	34	288	4
NMTTP	34	336	0	B	0	M1
NMTTP	34	336	0	E	0	M1
NMTTP	34	336	0	A	0	M1
NMTTP	34	336	1	B	0	M1
NMTTP	34	336	6	B	0	M1
NMTTP	34	336	7	B	0	M1
NMTTP	34	336	7	A	0	M1
NMTAP	35	0	2
NMTAP	35	0	4
NMTAP	35	48	3
NMSTR	35	96	4
NMSCL	35	96	4	96	48	1
NMTAP	35	144	5
NMSTR	35	192	4
NMSCR	35	192	4	96	48	7
NMTAP	35	240	5
NMTAP	35	288	2
NMTAP	35	288	4
NMTAP	35	336	3
NMTAP	36	0	2
NMTAP	36	0	4
NMTAP	36	48	5
NMTAP	36	72	3
NMTAP	36	96	4
NMTAP	36	120	3
NMTAP	36	144	6
NMTAP	36	168	3
NMTAP	36	192	4
NMTAP	36	216	3
NMTAP	36	240	5
NMTAP	36	264	3
NMTAP	36	288	4
NMTTP	36	336	0	B	0	M1
NMTTP	36	336	0	E	0	M1
NMTTP	36	336	0	A	0	M1
NMTTP	36	336	1	B	0	M1
NMTTP	36	336	6	B	0	M1
NMTTP	36	336	7	B	0	M1
NMTTP	36	336	7	A	0	M1
NMTAP	37	0	4
NMTAP	37	96	4
NMTAP	37	120	2
NMTAP	37	144	3
NMTAP	37	168	2
NMTAP	37	192	4
NMTAP	37	216	2
NMTAP	37	240	3
NMTAP	37	264	2
NMTAP	37	288	4
NMTTP	37	336	0	B	0	M1
NMTTP	37	336	0	E	0	M1
NMTTP	37	336	0	A	0	M1
NMTTP	37	336	1	B	0	M1
NMTTP	37	336	6	B	0	M1
NMTTP	37	336	7	B	0	M1
NMTTP	37	336	7	A	0	M1
NMTAP	38	0	2
NMTAP	38	0	4
NMTAP	38	48	3
NMTAP	38	96	4
NMTAP	38	144	5
NMTAP	38	192	2
NMTAP	38	192	4
NMTAP	38	240	1
NMSTR	38	288	0
NMSI_	38	288	0	96	48	5
NMSTR	38	288	4
NMSI_	38	288	4	96	48	7
BXSTR	39	0	0
NMSI_	39	0	0	96	48	3
BXSTR	39	0	4
NMSI_	39	0	4	96	48	1
BXSTR	39	96	0
NMSI_	39	96	0	96	48	5
BXSTR	39	96	4
NMSI_	39	96	4	96	48	7
BXTAP	39	192	0
BXTAP	39	192	4
NMSTR	39	288	0
NMSCR	39	288	0	96	48	2
NMTAP	39	288	4
NMTAP	40	0	0
NMTAP	40	0	4
NMTAP	40	96	4
NMSTR	40	96	7
NMSCL	40	96	7	96	48	5
NMTAP	40	144	0
NMTAP	40	192	4
NMTAP	40	192	7
NMSTR	40	288	0
NMSCR	40	288	0	96	48	2
NMTAP	40	288	4
NMTAP	40	336	7
NMTAP	41	0	0
NMTAP	41	0	4
NMTAP	41	96	4
NMTAP	41	96	6
EXTAP	41	144	7
EXTAP	41	168	6
NMTAP	41	192	4
EXTAP	41	192	5
NMTAP	41	288	4
NMSTR	41	288	6
NMSI_	41	288	6	96	48	1
NMTAP	42	0	4
NMTAP	42	0	6
NMSTR	42	96	1
NMSI_	42	96	1	96	48	6
NMTAP	42	96	4
NMTAP	42	192	1
NMTAP	42	192	4
NMTAP	42	288	4
NMSTR	42	288	6
NMSI_	42	288	6	96	48	1
NMTAP	43	0	4
NMTAP	43	0	6
NMTAP	43	96	1
NMTAP	43	96	4
EXTAP	43	144	2
EXTAP	43	168	1
EXTAP	43	192	0
NMTAP	43	192	4
NMSTR	43	288	0
NMSI_	43	288	0	96	48	5
NMTAP	43	288	4
NMTAP	44	0	0
NMTAP	44	0	4
NMTAP	44	96	4
NMSTR	44	96	7
NMSI_	44	96	7	96	48	2
NMTAP	44	144	6
NMTAP	44	192	4
NMTAP	44	192	7
NMSTR	44	288	0
NMSI_	44	288	0	96	48	5
NMTAP	44	288	4
NMTAP	44	336	1
NMTAP	45	0	0
NMTAP	45	0	4
CNSLR	45	48	5	0	144	2
NMTAP	45	96	4
NMTAP	45	192	4
NMSTR	45	288	1
NMSCR	45	288	1	96	48	4
NMSTR	45	288	4
NMSCR	45	288	4	96	48	7
NMTAP	46	0	1
NMTAP	46	0	4
NMSTR	46	96	4
NMSCL	46	96	4	96	48	1
NMSTR	46	96	7
NMSCL	46	96	7	96	48	4
NMTAP	46	192	4
NMTAP	46	192	7
NMSTR	46	288	1
NMSCR	46	288	1	96	48	4
NMSTR	46	288	4
NMSCR	46	288	4	96	48	7
NMTAP	47	0	1
NMSTR	47	0	4
NMSI_	47	0	4	96	48	0
NMTAP	47	96	4
NMTAP	47	96	6
NMTAP	47	192	2
NMTAP	47	192	4
NMSTR	47	288	4
NMSCL	47	288	4	96	48	1
NMSTR	47	288	5
NMSCR	47	288	5	96	48	0
BRTAP	48	0	4
BRTAP	48	0	5
NMTAP	48	96	4
NMTAP	48	192	2
NMTAP	48	192	4
NMTAP	48	288	2
NMTAP	48	288	4
NMSTR	49	0	1
NMSCR	49	0	1	96	48	3
NMTAP	49	0	4
NMTAP	49	96	4
NMTAP	49	192	4
NMSTR	49	192	7
NMSCL	49	192	7	96	48	5
NMTAP	49	288	4
NMSTR	50	0	3
NMSCL	50	0	3	96	48	1
NMTAP	50	0	4
NMTAP	50	96	4
NMTAP	50	192	4
NMSTR	50	192	5
NMSCR	50	192	5	96	48	7
NMTAP	50	288	4
BRTAP	51	0	4
BRTAP	51	96	4
BRTAP	51	192	4
NMSTR	51	288	2
NMSCL	51	288	2	96	96	1
BRTAP	51	288	4
BRTAP	52	0	4
CNSI_	52	96	1	0	96	6
NMTAP	52	144	4
NMTAP	52	192	4
NMSTR	52	288	5
NMSCR	52	288	5	96	96	6
NMTAP	53	0	4
NMTAP	53	72	4
CNSI_	53	96	6	0	96	1
NMTAP	53	144	4
NMTAP	53	192	4
NMSTR	53	288	2
NMSCL	53	288	2	96	96	1
NMTAP	54	0	4
CNSI_	54	96	1	0	96	6
NMTAP	54	144	4
NMTAP	54	192	4
NMSTR	54	288	5
NMSCR	54	288	5	96	48	6
NMTAP	55	0	4
CNSXL	55	48	6	0	240	1
NMTAP	55	72	4
NMTAP	55	144	4
NMTAP	55	192	4
NMTAP	55	288	4
NMHLD	56	0	0	48
NMTAP	56	0	4
NMTAP	56	96	0
NMTAP	56	96	4
NMTAP	56	192	4
NMHLD	56	192	7	48
NMTAP	56	288	4
NMTAP	56	288	7
NMSTR	57	0	0
NMSI_	57	0	0	96	48	5
NMTAP	57	0	4
NMTAP	57	48	0
NMTAP	57	96	4
NMTAP	57	192	4
NMSTR	57	192	7
NMSI_	57	192	7	96	48	3
NMTAP	57	240	7
NMTAP	57	288	4
NMTAP	58	0	2
NMTAP	58	0	4
NMTAP	58	48	2
NMTAP	58	48	4
NMTAP	58	96	4
NMTAP	58	96	6
NMTAP	58	144	4
NMTAP	58	144	6
NMTAP	58	192	3
NMTAP	58	192	4
NMTAP	58	240	3
NMTAP	58	240	4
NMTAP	58	288	4
NMTAP	58	288	5
NMTAP	58	336	4
NMTAP	58	336	5
NMTAP	59	0	4
NMTAP	59	24	4
NMTAP	59	48	4
NMTAP	59	72	4
NMTAP	59	96	4
NMTAP	59	120	4
NMTAP	59	144	4
NMTAP	59	168	4
NMTAP	59	192	4
NMTAP	59	216	4
NMTAP	59	240	4
NMTAP	59	264	4
NMTAP	59	288	4
NMTAP	59	312	4
NMTAP	59	336	4
NMTAP	59	360	4
BRTAP	60	0	4
NMTAP	60	72	5
NMTAP	60	96	4
NMTAP	60	120	5
NMTAP	60	144	5
NMTAP	60	168	5
NMTAP	60	192	4
NMTAP	60	216	5
NMTAP	60	240	5
NMTAP	60	264	5
NMTAP	60	288	4
NMTTP	60	336	0	B	0	M1
NMTTP	60	336	0	E	0	M1
NMTTP	60	336	0	A	0	M1
NMTTP	60	336	1	B	0	M1
NMTTP	60	336	6	B	0	M1
NMTTP	60	336	7	B	0	M1
NMTTP	60	336	7	A	0	M1
NMTAP	61	0	2
NMTAP	61	0	4
NMTAP	61	48	5
NMTAP	61	72	5
NMTAP	61	96	4
NMTAP	61	120	5
NMTAP	61	144	5
NMTAP	61	168	5
NMTAP	61	192	4
NMTAP	61	216	5
NMTAP	61	240	5
NMTAP	61	264	5
NMTAP	61	288	4
NMTTP	61	336	0	B	0	M1
NMTTP	61	336	0	E	0	M1
NMTTP	61	336	0	A	0	M1
NMTTP	61	336	1	B	0	M1
NMTTP	61	336	6	B	0	M1
NMTTP	61	336	7	B	0	M1
NMTTP	61	336	7	A	0	M1
NMTAP	62	0	2
NMTAP	62	0	4
NMTAP	62	96	4
NMTAP	62	120	3
NMTAP	62	144	3
NMTAP	62	168	3
NMTAP	62	192	4
NMTAP	62	216	3
NMTAP	62	240	3
NMTAP	62	264	3
NMTAP	62	288	4
NMTTP	62	336	0	B	0	M1
NMTTP	62	336	0	E	0	M1
NMTTP	62	336	0	A	0	M1
NMTTP	62	336	1	B	0	M1
NMTTP	62	336	6	B	0	M1
NMTTP	62	336	7	B	0	M1
NMTTP	62	336	7	A	0	M1
NMTAP	63	0	2
NMTAP	63	0	4
NMTAP	63	48	3
NMSTR	63	96	4
NMSI_	63	96	4	96	48	7
NMTAP	63	96	5
NMTAP	63	144	2
NMTAP	63	192	0
NMTAP	63	192	4
NMTAP	63	240	1
NMTAP	63	288	2
NMTAP	63	288	4
NMTAP	63	336	5
NMTAP	64	0	4
NMTAP	64	0	6
NMTAP	64	48	5
NMTAP	64	72	5
NMTAP	64	96	4
NMTAP	64	120	5
NMTAP	64	144	5
NMTAP	64	168	5
NMTAP	64	192	4
NMTAP	64	216	5
NMTAP	64	240	5
NMTAP	64	264	5
NMTAP	64	288	4
NMTTP	64	336	0	B	0	M1
NMTTP	64	336	0	E	0	M1
NMTTP	64	336	0	A	0	M1
NMTTP	64	336	1	B	0	M1
NMTTP	64	336	6	B	0	M1
NMTTP	64	336	7	B	0	M1
NMTTP	64	336	7	A	0	M1
NMTAP	65	0	2
NMTAP	65	0	4
NMTAP	65	96	4
NMTAP	65	120	2
NMTAP	65	144	2
NMTAP	65	168	2
NMTAP	65	192	4
NMTAP	65	216	2
NMTAP	65	240	2
NMTAP	65	264	2
NMTAP	65	288	4
NMTTP	65	336	0	B	0	M1
NMTTP	65	336	0	E	0	M1
NMTTP	65	336	0	A	0	M1
NMTTP	65	336	1	B	0	M1
NMTTP	65	336	6	B	0	M1
NMTTP	65	336	7	B	0	M1
NMTTP	65	336	7	A	0	M1
NMTAP	66	0	2
NMTAP	66	0	4
NMTAP	66	48	3
NMTAP	66	96	4
NMTAP	66	144	5
NMTAP	66	192	2
NMTAP	66	192	4
NMTAP	66	240	1
NMSTR	66	288	0
NMSI_	66	288	0	96	48	5
NMSTR	66	288	4
NMSI_	66	288	4	96	48	7
BRSTR	67	0	0
NMSI_	67	0	0	96	48	3
BRSTR	67	0	4
NMSI_	67	0	4	96	48	1
BRSTR	67	96	0
NMSI_	67	96	0	96	48	5
BRSTR	67	96	4
NMSI_	67	96	4	96	48	7
BRTAP	67	192	0
BRTAP	67	192	4
NMSTR	67	288	0
NMSI_	67	288	0	96	48	2
NMTAP	67	288	4
NMSTR	68	0	0
NMSI_	68	0	0	96	48	6
NMTAP	68	0	4
NMSTR	68	96	0
NMSCR	68	96	0	96	48	2
NMTAP	68	96	4
NMTAP	68	144	3
NMSTR	68	192	0
NMSCL	68	192	0	96	48	6
NMTAP	68	192	4
NMSTR	68	288	0
NMSI_	68	288	0	96	48	2
NMTAP	68	288	4
NMTAP	68	336	3
NMTAP	69	0	0
NMTAP	69	0	4
NMTAP	69	96	1
NMTAP	69	96	4
NMTAP	69	144	0
NMTAP	69	144	3
NMTAP	69	168	1
NMTAP	69	192	2
NMTAP	69	192	4
NMTAP	69	288	4
NMSTR	69	288	7
NMSI_	69	288	7	96	48	5
NMTAP	70	0	4
NMSTR	70	0	7
NMSI_	70	0	7	96	48	1
NMTAP	70	96	4
NMSTR	70	96	7
NMSCL	70	96	7	96	48	5
NMTAP	70	144	3
NMTAP	70	192	4
NMSTR	70	192	7
NMSCR	70	192	7	96	48	1
NMTAP	70	288	4
NMSTR	70	288	7
NMSI_	70	288	7	96	48	5
NMTAP	70	336	3
NMTAP	71	0	4
NMTAP	71	0	7
NMTAP	71	96	2
NMTAP	71	96	6
NMTAP	71	144	3
NMTAP	71	144	5
NMTAP	71	168	6
NMTAP	71	192	4
NMTAP	71	192	7
NMSTR	71	288	0
NMSI_	71	288	0	96	48	3
NMTAP	71	288	4
NMSTR	72	0	0
NMSI_	72	0	0	96	48	5
NMTAP	72	0	4
NMSTR	72	96	0
NMSCR	72	96	0	96	48	3
NMTAP	72	96	4
NMTAP	72	144	3
NMSTR	72	192	0
NMSCL	72	192	0	96	48	5
NMTAP	72	192	4
NMSTR	72	288	0
NMSI_	72	288	0	96	48	2
NMTAP	72	288	4
NMTAP	72	336	3
NMTAP	73	0	4
CNSUL	73	48	2	0	96	5
NMTAP	73	96	4
NMTAP	73	144	3
CNSI_	73	144	5	0	48	7
NMTAP	73	192	4
NMTAP	73	288	4
NMSTR	73	288	7
NMSI_	73	288	7	96	48	5
NMTAP	74	0	4
NMTAP	74	0	7
NMSTR	74	96	1
NMSI_	74	96	1	96	48	3
NMTAP	74	96	4
NMTAP	74	192	1
NMTAP	74	192	4
NMSTR	74	288	2
BRSI_	74	288	2	96	96	6
NMTAP	74	288	4
NMTAP	75	0	4
NMTAP	75	96	4
CNSI_	75	96	6	0	48	1
CNSCL	75	144	1	0	96	7
NMTAP	75	192	4
BRTAP	75	288	0
BRTAP	75	288	4
NMTTP	76	0	1	E	0	M1
NMTAP	76	0	4
NMTTP	76	24	1	B	0	M1
NMTTP	76	48	2	B	0	M1
NMTTP	76	72	3	E	0	M1
NMTAP	76	96	4
NMTAP	76	192	4
NMTTP	76	192	7	E	0	M1
NMTTP	76	216	7	B	0	M1
NMTTP	76	240	0	B	0	M1
NMTTP	76	264	1	E	0	M1
NMTAP	76	288	4
NMTAP	77	0	4
NMTTP	77	0	5	E	0	M1
NMTTP	77	24	5	B	0	M1
NMTTP	77	48	6	B	0	M1
NMTTP	77	72	7	E	0	M1
NMTAP	77	96	4
NMTTP	77	192	3	E	0	M1
NMTAP	77	192	4
NMTTP	77	216	2	B	0	M1
NMTTP	77	240	1	B	0	M1
NMTTP	77	264	1	E	0	M1
NMTAP	77	288	4
NMTTP	78	0	0	E	0	M1
NMTAP	78	0	4
NMTTP	78	24	7	B	0	M1
NMTTP	78	48	6	B	0	M1
NMTTP	78	72	6	E	0	M1
NMTAP	78	96	4
NMTTP	78	192	2	E	0	M1
NMTAP	78	192	4
NMTTP	78	216	1	B	0	M1
NMTTP	78	240	0	B	0	M1
NMTTP	78	264	0	E	0	M1
NMTAP	78	288	4
NMTAP	79	0	4
NMTTP	79	0	4	E	0	M1
NMTTP	79	24	3	B	0	M1
NMTTP	79	48	2	B	0	M1
NMTTP	79	72	2	E	0	M1
NMTAP	79	96	4
NMTTP	79	192	0	E	0	M1
NMTAP	79	192	4
NMTTP	79	216	7	B	0	M1
NMTTP	79	240	6	B	0	M1
NMTTP	79	264	6	E	0	M1
NMTAP	79	288	4
NMSTR	80	0	2
NMSI_	80	0	2	96	48	7
NMTAP	80	0	4
NMTAP	80	96	2
NMTAP	80	96	4
NMTAP	80	192	4
NMSTR	80	192	5
NMSI_	80	192	5	96	48	0
NMTAP	80	288	4
NMTAP	80	288	5
NMSTR	81	0	1
NMSI_	81	0	1	96	48	7
NMTAP	81	0	4
NMSTR	81	96	1
NMSI_	81	96	1	96	48	3
NMTAP	81	96	4
NMSTR	81	192	1
NMSI_	81	192	1	96	48	5
NMTAP	81	192	4
NMTAP	81	288	1
NMTAP	81	288	4
NMTAP	82	0	4
NMHLD	82	0	6	96
NMTAP	82	96	4
NMHLD	82	192	3	96
NMTAP	82	192	4
NMSTR	82	288	4
NMSI_	82	288	4	96	48	2
NMSI_	82	288	4	96	48	6
NMSTR	83	0	4
NMSI_	83	0	4	96	48	0
NMSTR	83	96	4
NMSCL	83	96	4	96	48	1
NMSCR	83	96	4	96	48	7
NMSTR	83	192	4
NMSF_	83	192	4	96	48	0
BRTAP	83	288	4

T_REC_TAP	533
T_REC_BRK	22
T_REC_XTP	10
T_REC_BXX	2
T_REC_HLD	18
T_REC_XHO	0
T_REC_BHO	0
T_REC_BXH	0
T_REC_STR	77
T_REC_BST	6
T_REC_XST	0
T_REC_XBS	4
T_REC_TTP	102
T_REC_THO	0
T_REC_SLD	89
T_REC_BSL	1
T_REC_ALL	864
T_NUM_TAP	722
T_NUM_BRK	35
T_NUM_HLD	18
T_NUM_SLD	89
T_NUM_ALL	864
T_JUDGE_TAP	756
T_JUDGE_HLD	34
T_JUDGE_SLD	90
T_JUDGE_ALL	880
TTM_EACHPAIRS	180
TTM_SCR_TAP	361000
TTM_SCR_BRK	91000
TTM_SCR_HLD	18000
TTM_SCR_SLD	133500
TTM_SCR_ALL	603500
TTM_SCR_S	582000
TTM_SCR_SS	600000
TTM_RAT_ACV	10058

