VERSION	0.00.00	1.05.00
FES_MODE	0
BPM_DEF	135.000	135.000	135.000	135.000
MET_DEF	4	4
RESOLUTION	384
CLK_DEF	384
COMPATIBLE_CODE	MA2

BPM	0	0	135.000
MET	0	0	4	4

NMTAP	1	0	4
NMTAP	1	96	4
NMTAP	1	192	4
NMTAP	1	288	4
NMTAP	2	0	4
NMTAP	2	96	4
NMTAP	2	192	4
EXTAP	2	288	3
EXTAP	2	288	5
BXTAP	3	0	6
NMTAP	3	96	6
NMTAP	3	96	7
NMTAP	3	192	0
NMTAP	3	192	5
NMTAP	3	288	0
NMTAP	3	288	5
NMTAP	4	0	1
NMTAP	4	96	0
NMTAP	4	96	1
NMTAP	4	192	2
NMTAP	4	192	7
NMTAP	4	288	2
NMTAP	4	288	7
NMTAP	5	0	1
NMTAP	5	96	0
NMTAP	5	96	6
NMTAP	5	192	1
NMTAP	5	192	7
NMTAP	5	288	1
NMTAP	5	288	7
NMTAP	6	0	2
NMTAP	6	0	6
NMTAP	6	96	3
NMTAP	6	96	5
NMHLD	6	192	3	96
NMHLD	6	192	5	96
NMTAP	7	0	4
NMSTR	7	96	5
NMSI_	7	96	5	96	96	2
NMSTR	8	0	1
NMSLR	8	0	1	96	144	5
NMTAP	9	0	4
NMTAP	9	0	5
NMTAP	9	96	4
NMTAP	9	96	5
NMTAP	9	192	6
NMTAP	9	288	4
NMTAP	9	288	5
NMTAP	10	0	2
NMTAP	10	0	3
NMTAP	10	96	2
NMTAP	10	96	3
NMTAP	10	192	1
NMTAP	10	288	2
NMTAP	10	288	3
NMSTR	11	0	4
NMSCR	11	0	4	96	96	7
NMSTR	11	192	0
NMSI_	11	192	0	96	96	3
NMHLD	12	0	6	96
NMTAP	12	96	4
NMHLD	12	192	1	96
NMTAP	12	288	3
NMTTP	13	0	2	E	0	M1
NMTTP	13	96	3	B	0	M1
NMTTP	13	192	4	B	0	M1
NMTHO	13	288	6	288	E	0	M1
EXHLD	15	0	4	384
NMTAP	15	0	5
EXSTR	15	96	5
NMSI_	15	96	5	96	96	0
NMTAP	16	0	0
NMSTR	16	96	0
NMSI_	16	96	0	96	96	4
NMTAP	17	0	3
NMTAP	17	0	5
NMTAP	17	96	3
NMTAP	17	96	5
NMTAP	17	192	1
NMTAP	17	240	1
NMTAP	17	288	3
NMTAP	18	0	6
NMTAP	18	48	6
EXTAP	18	96	4
NMTAP	18	192	3
NMTAP	18	192	5
NMTAP	18	288	2
NMTAP	18	288	4
NMTAP	19	0	2
NMHLD	19	0	3	384
NMSTR	19	96	2
NMSI_	19	96	2	96	96	7
NMTAP	20	0	7
NMSTR	20	96	7
NMSI_	20	96	7	96	96	3
NMTAP	21	0	1
NMTAP	21	48	1
NMTAP	21	96	0
NMTAP	21	192	6
NMTAP	21	240	6
NMTAP	21	288	7
NMTAP	22	0	4
NMTAP	22	0	6
NMTAP	22	96	2
NMTAP	22	96	4
BRTAP	22	192	1
BRTAP	22	192	5
NMHLD	23	0	6	144
NMTAP	23	144	4
NMTAP	23	192	4
NMTAP	23	288	3
NMTAP	23	288	4
NMHLD	24	0	1	144
NMTAP	24	144	3
NMTAP	24	192	3
NMTAP	24	288	3
NMTAP	24	288	4
NMHLD	25	0	5	144
NMTAP	25	144	7
NMTAP	25	192	7
NMTAP	25	288	0
NMTAP	25	288	7
NMTAP	26	0	1
NMTAP	26	48	1
NMTAP	26	96	0
NMTAP	26	192	2
NMHLD	26	192	3	672
NMTAP	27	0	0
NMTAP	27	96	0
NMTAP	27	192	1
NMTAP	27	288	1
NMTAP	28	0	2
NMTAP	28	96	2
NMTAP	28	192	3
NMTAP	28	192	4
NMTAP	28	288	3
NMTAP	28	288	4
NMTAP	29	0	5
NMTAP	29	48	5
NMTAP	29	96	4
NMTAP	29	192	2
NMTAP	29	240	2
NMTAP	29	288	3
NMTAP	30	0	1
NMTAP	30	0	5
NMTAP	30	48	1
NMTAP	30	48	5
NMTAP	30	96	1
NMTAP	30	96	5
NMTAP	30	192	2
NMTAP	30	192	6
NMTAP	30	240	2
NMTAP	30	240	6
NMTAP	30	288	2
NMTAP	30	288	6
NMHLD	31	0	1	288
NMHLD	31	0	5	288
BRTAP	32	0	0
BRTAP	32	0	6
NMTAP	32	96	1
NMTAP	32	144	1
NMTAP	32	192	3
NMTAP	32	288	0
NMTAP	32	288	1
BXTAP	32	336	0
BXTAP	32	336	1
NMTAP	33	48	6
NMTAP	33	48	7
NMTAP	33	96	6
NMTAP	33	96	7
NMTAP	33	192	4
NMTAP	33	192	6
NMTAP	33	288	4
NMTAP	33	288	5
BXHLD	33	336	4	96
BXHLD	33	336	5	96
NMTAP	34	96	6
NMTAP	34	144	6
NMTAP	34	192	7
NMTAP	34	288	0
NMTAP	34	288	1
BXTAP	34	336	0
BXTAP	34	336	1
NMTAP	35	48	1
NMTAP	35	48	3
NMTAP	35	96	1
NMSTR	35	96	3
NMSI_	35	96	3	96	96	7
NMTAP	36	0	6
NMTAP	36	48	6
NMTAP	36	96	4
NMTAP	36	192	4
NMTAP	36	192	5
NMTAP	36	288	2
NMTAP	36	288	3
BXHLD	36	336	2	96
BXHLD	36	336	3	96
NMTAP	37	96	1
NMTAP	37	144	1
NMTAP	37	192	3
NMTAP	37	288	0
NMTAP	37	288	1
BXTAP	37	336	0
BXTAP	37	336	1
NMTAP	38	48	7
NMSTR	38	96	7
NMSLL	38	96	7	96	96	3
BRTAP	39	0	1
BRTAP	39	0	4
BRTAP	39	96	3
BRTAP	39	96	6
BRTAP	39	192	0
BRTAP	39	192	1
BRTAP	39	288	6
BRTAP	39	288	7
NMSTR	40	0	6
NMSI_	40	0	6	96	48	3
NMSTR	40	0	7
NMSI_	40	0	7	96	48	3
NMSTR	40	192	0
NMSI_	40	192	0	96	48	4
NMSTR	40	192	1
NMSI_	40	192	1	96	48	4
NMSTR	41	0	6
NMSI_	41	0	6	96	48	3
NMSTR	41	0	7
NMSI_	41	0	7	96	48	3
NMTAP	41	192	0
NMTAP	41	192	1
NMTAP	41	288	2
NMTAP	41	336	2
NMTAP	42	0	3
NMTAP	42	96	6
NMTAP	42	144	6
NMTAP	42	192	4
NMTAP	42	288	1
NMTAP	42	336	1
NMTAP	43	0	3
NMHLD	43	96	5	96
NMTAP	43	192	4
NMTAP	43	288	2
NMTAP	43	288	3
NMSTR	44	0	0
NMSI_	44	0	0	96	48	4
NMSTR	44	0	1
NMSI_	44	0	1	96	48	4
NMSTR	44	192	6
NMSI_	44	192	6	96	48	3
NMSTR	44	192	7
NMSI_	44	192	7	96	48	3
NMSTR	45	0	0
NMSI_	45	0	0	96	48	4
NMSTR	45	0	1
NMSI_	45	0	1	96	48	4
NMTAP	45	192	6
NMTAP	45	192	7
NMTAP	45	288	5
NMTAP	45	336	5
NMTAP	46	0	4
NMTAP	46	96	2
NMTAP	46	144	2
NMTAP	46	192	3
NMHLD	46	288	1	96
NMHLD	46	288	4	96
NMTTP	47	96	1	B	0	M1
NMTTP	47	96	2	B	0	M1
NMTTP	47	96	3	B	0	M1
NMTTP	47	192	0	C	0	M1
NMTHO	47	288	4	96	B	0	M1
NMTHO	47	288	5	96	B	0	M1
NMTHO	47	288	6	96	B	0	M1
NMTAP	48	192	0
NMTAP	48	192	7
NMTAP	48	288	0
NMTAP	48	288	7
NMHLD	49	0	1	96
NMHLD	49	96	2	96
NMHLD	49	192	3	96
NMTAP	49	288	4
NMHLD	50	0	4	96
NMHLD	50	96	5	96
NMHLD	50	192	6	96
NMSTR	50	288	7
NMSI_	50	288	7	96	96	2
CNSI_	51	96	2	0	96	6
CNSI_	51	192	6	0	96	3
BXHLD	52	0	2	768
NMTAP	52	144	4
NMTAP	52	192	4
NMSTR	52	288	3
NMSCL	52	288	3	96	192	5
NMHLD	54	0	5	1536
NMTAP	54	144	3
NMTAP	54	192	3
NMSTR	54	288	4
NMSI_	54	288	4	96	96	6
CNSI_	55	96	6	0	96	2
CNSI_	55	192	2	0	96	0
NMTTP	56	0	0	E	0	M1
NMTTP	56	192	7	E	0	M1
NMTTP	57	0	6	E	0	M1
NMTTP	57	192	4	B	0	M1
NMTTP	57	192	5	E	0	M1
NMTAP	58	0	3
NMTAP	58	96	3
NMTAP	58	192	2
NMTAP	58	192	4
NMTAP	58	288	2
NMTAP	58	288	4
NMTAP	59	0	1
NMTAP	59	48	1
NMTAP	59	96	0
NMTAP	59	96	1
NMTAP	59	192	6
NMTAP	59	240	6
NMTAP	59	288	6
NMTAP	59	288	7
BRTAP	60	0	0
BRTAP	60	0	5
NMTAP	60	96	1
NMTAP	60	96	3
NMTAP	60	192	4
NMTAP	60	192	6
NMTAP	60	288	3
NMTAP	60	288	5
BRTAP	60	336	3
BRTAP	60	336	5
NMTAP	61	48	6
NMHLD	61	96	6	96
NMTAP	61	192	7
NMTAP	61	288	0
NMTAP	61	288	4
BXHLD	61	336	0	96
BXHLD	61	336	4	96
NMSTR	62	96	1
NMSI_	62	96	1	96	96	5
EXTAP	62	288	7
BXTAP	62	336	7
NMTAP	63	48	4
NMTAP	63	48	6
NMSTR	63	96	4
NMSI_	63	96	4	96	96	0
NMSTR	63	96	6
NMSI_	63	96	6	96	96	3
NMTAP	64	0	1
NMTAP	64	48	1
NMTAP	64	96	0
NMTAP	64	192	1
NMTAP	64	192	3
NMTAP	64	288	3
NMTAP	64	288	5
BXHLD	64	336	3	96
BXHLD	64	336	5	96
NMTAP	65	96	4
NMTAP	65	96	6
NMTAP	65	192	6
NMTAP	65	192	7
NMTAP	65	288	4
NMTAP	65	288	5
BRTAP	65	336	4
BRTAP	65	336	5
NMTAP	66	48	2
NMTAP	66	48	3
NMTAP	66	96	2
NMSTR	66	96	3
NMSLR	66	96	3	96	96	7
BRTAP	67	0	4
BRTAP	67	0	6
BRTAP	67	96	1
BRTAP	67	96	3
BRTAP	67	192	0
BRTAP	67	192	5
BRTAP	67	288	2
BRTAP	67	288	7
NMSTR	68	0	0
NMSI_	68	0	0	96	48	5
NMSTR	68	0	1
NMSI_	68	0	1	96	48	4
NMSTR	68	192	6
NMSI_	68	192	6	96	48	3
NMSTR	68	192	7
NMSI_	68	192	7	96	48	2
NMSTR	69	0	0
NMSI_	69	0	0	96	48	5
NMSTR	69	0	1
NMSI_	69	0	1	96	48	4
BXTAP	69	192	6
BXTAP	69	192	7
NMTAP	69	288	5
NMTAP	69	336	5
NMTAP	70	0	4
NMTAP	70	96	1
NMTAP	70	144	1
NMTAP	70	192	3
NMTAP	70	288	6
NMTAP	70	336	6
NMTAP	71	0	4
NMHLD	71	96	2	96
NMTAP	71	192	3
NMTAP	71	288	4
NMTAP	71	288	5
NMSTR	72	0	6
NMSI_	72	0	6	96	48	3
NMSTR	72	0	7
NMSI_	72	0	7	96	48	2
NMSTR	72	192	0
NMSI_	72	192	0	96	48	5
NMSTR	72	192	1
NMSI_	72	192	1	96	48	4
NMSTR	73	0	6
NMSI_	73	0	6	96	48	3
NMSTR	73	0	7
NMSI_	73	0	7	96	48	2
BXTAP	73	192	0
BXTAP	73	192	1
NMTAP	73	288	2
NMTAP	73	288	3
NMTAP	74	0	5
NMTAP	74	48	5
NMTAP	74	96	4
NMTAP	74	192	4
NMTAP	74	192	5
NMTAP	74	240	4
NMTAP	74	240	5
NMHLD	74	288	3	96
NMHLD	74	288	6	96
NMTTP	75	96	4	B	0	M1
NMTTP	75	96	5	B	0	M1
NMTTP	75	96	6	B	0	M1
NMTTP	75	192	0	C	0	M1
NMTHO	75	288	1	96	B	0	M1
NMTHO	75	288	2	96	B	0	M1
NMTHO	75	288	3	96	B	0	M1
NMTAP	76	96	0
NMTAP	76	192	0
NMSTR	76	288	2
NMSCL	76	288	2	96	96	7
NMSTR	76	288	3
NMSUL	76	288	3	96	96	6
NMTAP	77	192	6
NMTAP	77	192	7
NMTAP	77	288	6
NMTAP	77	288	7
NMTAP	78	0	5
NMTAP	78	96	4
NMTAP	78	96	6
NMTAP	78	192	2
NMTAP	78	288	1
NMTAP	78	288	3
NMTAP	79	0	5
NMSTR	79	96	6
NMSLL	79	96	6	96	96	2
BRTAP	80	0	0
BRTAP	80	0	1
NMTAP	80	96	2
NMTAP	80	96	3
NMTAP	80	192	4
NMTAP	80	192	5
NMSTR	80	288	6
NMSCL	80	288	6	96	96	3
NMSTR	80	288	7
NMSUL	80	288	7	96	96	2
NMTAP	81	192	0
NMTAP	81	192	1
NMTAP	81	288	0
NMTAP	81	288	1
NMTAP	82	0	6
NMTAP	82	48	6
NMTAP	82	96	0
NMTAP	82	144	0
NMTAP	82	192	7
NMTAP	82	240	7
NMTAP	82	288	1
NMTAP	83	0	3
NMTAP	83	0	5
EXTAP	83	96	1
EXTAP	83	96	7
NMSTR	83	192	2
BRSCL	83	192	2	96	48	7
NMSTR	83	192	6
BRSCL	83	192	6	96	48	3

T_REC_TAP	277
T_REC_BRK	28
T_REC_XTP	6
T_REC_BXX	12
T_REC_HLD	25
T_REC_XHO	1
T_REC_BHO	0
T_REC_BXH	9
T_REC_STR	47
T_REC_BST	0
T_REC_XST	1
T_REC_XBS	0
T_REC_TTP	16
T_REC_THO	7
T_REC_SLD	46
T_REC_BSL	2
T_REC_ALL	477
T_NUM_TAP	347
T_NUM_BRK	51
T_NUM_HLD	33
T_NUM_SLD	46
T_NUM_ALL	477
T_JUDGE_TAP	387
T_JUDGE_HLD	167
T_JUDGE_SLD	48
T_JUDGE_ALL	602
TTM_EACHPAIRS	127
TTM_SCR_TAP	173500
TTM_SCR_BRK	132600
TTM_SCR_HLD	33000
TTM_SCR_SLD	69000
TTM_SCR_ALL	408100
TTM_SCR_S	390950
TTM_SCR_SS	403000
TTM_RAT_ACV	10126

