VERSION	0.00.00	1.05.00
FES_MODE	0
BPM_DEF	135.000	135.000	135.000	135.000
MET_DEF	4	4
RESOLUTION	384
CLK_DEF	384
COMPATIBLE_CODE	MA2

BPM	0	0	135.000
MET	0	0	4	4

NMTAP	3	0	6
NMTAP	3	96	6
NMTAP	3	192	6
NMTAP	4	0	7
NMTAP	4	96	7
NMTAP	4	192	7
NMTAP	5	0	0
NMTAP	5	96	0
NMTAP	5	192	0
NMTAP	6	0	1
NMTAP	6	96	1
NMTAP	6	192	0
NMTAP	6	192	1
NMTAP	7	0	7
NMTAP	7	96	7
NMTAP	7	192	6
NMTAP	8	0	5
NMTAP	8	96	5
NMTAP	8	192	4
NMTAP	9	0	3
NMTAP	9	96	3
NMTAP	9	192	2
NMTAP	10	0	1
NMTAP	10	96	1
NMTAP	10	192	0
NMTAP	10	192	7
NMTAP	11	0	0
NMTAP	11	96	0
NMTAP	11	192	1
NMTAP	12	0	2
NMTAP	12	96	2
NMTAP	12	192	3
NMTAP	13	0	4
NMTAP	13	96	4
NMTAP	13	192	5
NMTAP	14	0	6
NMTAP	14	96	6
NMTAP	14	192	0
NMTAP	14	192	7
NMTAP	15	0	6
NMTAP	15	96	6
NMTAP	15	192	6
NMTAP	15	192	7
NMTAP	16	0	5
NMTAP	16	96	5
NMTAP	16	192	4
NMTAP	16	192	5
NMTAP	17	0	3
NMTAP	17	96	3
NMTAP	17	192	2
NMTAP	17	192	3
NMTAP	18	0	0
NMTAP	18	0	1
NMTAP	18	96	0
NMTAP	18	96	1
NMTAP	18	192	0
NMTAP	18	192	1
NMTAP	19	0	1
NMTAP	19	96	1
NMTAP	19	192	0
NMTAP	19	192	1
NMTAP	20	0	2
NMTAP	20	96	2
NMTAP	20	192	2
NMTAP	20	192	3
NMTAP	21	0	4
NMTAP	21	96	4
NMTAP	21	192	4
NMTAP	21	192	5
NMTAP	22	0	6
NMTAP	22	0	7
NMTAP	22	96	6
NMTAP	22	96	7
NMTAP	22	192	6
NMTAP	22	192	7
NMHLD	23	0	5	192
NMHLD	23	192	4	192
NMHLD	24	0	3	192
NMTAP	24	192	2
NMHLD	25	0	2	192
NMHLD	25	192	3	192
NMHLD	26	0	4	192
NMTAP	26	192	5
NMHLD	27	0	6	192
NMHLD	27	192	5	192
NMHLD	28	0	4	192
NMTAP	28	192	3
NMHLD	29	0	1	192
NMHLD	29	192	2	192
NMHLD	30	0	3	192
NMTAP	30	192	4
NMTAP	31	0	3
NMTAP	31	0	4
NMTAP	31	192	3
NMTAP	31	192	4
NMTAP	32	0	2
NMTAP	32	96	2
NMTAP	32	192	1
NMTAP	32	288	1
NMTAP	33	0	0
NMTAP	33	96	0
NMTAP	33	192	6
NMTAP	33	192	7
NMTAP	34	0	5
NMTAP	34	96	5
NMTAP	34	192	6
NMTAP	34	288	6
NMTAP	35	0	7
NMTAP	35	96	7
NMTAP	35	192	0
NMTAP	35	192	1
NMTAP	36	0	1
NMTAP	36	96	1
NMTAP	36	192	2
NMTAP	36	288	2
NMTAP	37	0	3
NMTAP	37	96	3
NMTAP	37	192	4
NMTAP	37	192	5
NMTAP	38	0	6
NMTAP	38	96	6
NMTAP	38	192	5
NMTAP	38	288	5
NMTAP	39	0	4
NMTAP	39	96	4
BXTAP	39	192	2
BXTAP	39	192	3
NMTAP	40	0	2
NMTAP	40	96	2
NMTAP	40	192	1
NMTAP	40	288	1
NMTAP	41	0	0
NMTAP	41	96	0
NMTAP	41	192	6
NMTAP	41	192	7
NMTAP	41	288	6
NMTAP	41	288	7
NMTAP	42	0	5
NMTAP	42	96	5
NMTAP	42	192	6
NMTAP	42	288	6
NMTAP	43	0	7
NMTAP	43	96	7
NMTAP	43	192	0
NMTAP	43	192	1
NMTAP	44	0	1
NMTAP	44	96	1
NMTAP	44	192	2
NMTAP	44	288	2
NMTAP	45	0	3
NMTAP	45	96	3
NMTAP	45	192	4
NMTAP	45	192	5
NMTAP	45	288	4
NMTAP	45	288	5
NMTAP	46	0	6
NMTAP	46	96	6
NMTAP	46	192	5
NMTAP	46	288	5
NMTAP	47	0	4
NMTAP	47	96	4
BXTAP	47	192	2
BXTAP	47	192	3
NMTTP	48	0	1	B	0	L1
NMTTP	48	96	2	B	0	L1
NMTTP	48	192	3	B	0	L1
NMTTP	49	0	6	B	0	L1
NMTTP	49	96	5	B	0	L1
NMTTP	49	192	4	B	0	L1
NMTTP	50	0	1	B	0	L1
NMTTP	50	96	2	B	0	L1
NMTTP	50	192	3	B	0	L1
NMTTP	50	288	4	B	0	L1
NMTTP	51	0	5	B	0	L1
NMTTP	51	96	6	B	0	L1
NMTTP	51	192	0	C	0	L1
NMSTR	52	0	7
NMSI_	52	0	7	96	192	3
NMSTR	53	0	1
NMSI_	53	0	1	96	192	4
NMSTR	54	0	6
NMSI_	54	0	6	96	192	3
NMTAP	55	0	2
NMTAP	55	192	2
NMTAP	55	192	3
NMSTR	56	0	1
NMSI_	56	0	1	96	192	5
NMSTR	57	0	6
NMSI_	57	0	6	96	192	2
NMSTR	58	0	1
NMSUR	58	0	1	96	480	4
NMTAP	60	0	5
NMTAP	60	96	5
NMTAP	60	192	6
NMTAP	60	192	7
NMTAP	60	288	6
NMTAP	60	288	7
NMTAP	61	0	0
NMTAP	61	96	0
NMTAP	61	192	0
NMTAP	61	192	1
NMTAP	62	0	2
NMTAP	62	96	2
NMTAP	62	192	0
NMTAP	62	192	1
NMTAP	62	288	0
NMTAP	62	288	1
NMTAP	63	0	7
NMTAP	63	96	7
NMTAP	63	192	6
NMTAP	63	192	7
NMTAP	64	0	6
NMTAP	64	96	6
NMTAP	64	192	4
NMTAP	64	192	5
NMTAP	64	288	4
NMTAP	64	288	5
NMTAP	65	0	3
NMTAP	65	96	3
NMTAP	65	192	2
NMTAP	65	192	3
NMTAP	66	0	1
NMTAP	66	96	1
NMTAP	66	192	2
NMTAP	66	192	3
NMTAP	66	288	2
NMTAP	66	288	3
NMTAP	67	0	4
NMTAP	67	96	4
BRTAP	67	192	4
BRTAP	67	192	5
NMTAP	68	0	5
NMTAP	68	96	5
NMTAP	68	192	6
NMTAP	68	192	7
NMTAP	68	288	6
NMTAP	68	288	7
NMTAP	69	0	0
NMTAP	69	96	0
NMTAP	69	192	0
NMTAP	69	192	1
NMTAP	69	288	0
NMTAP	69	288	1
NMTAP	70	0	2
NMTAP	70	96	2
NMTAP	70	192	0
NMTAP	70	192	1
NMTAP	70	288	0
NMTAP	70	288	1
NMTAP	71	0	7
NMTAP	71	96	7
NMTAP	71	192	6
NMTAP	71	192	7
NMTAP	72	0	6
NMTAP	72	96	6
NMTAP	72	192	4
NMTAP	72	192	5
NMTAP	72	288	4
NMTAP	72	288	5
NMTAP	73	0	3
NMTAP	73	96	3
NMTAP	73	192	2
NMTAP	73	192	3
NMTAP	73	288	2
NMTAP	73	288	3
NMTAP	74	0	1
NMTAP	74	96	1
NMTAP	74	192	2
NMTAP	74	192	3
NMTAP	74	288	2
NMTAP	74	288	3
NMTAP	75	0	4
NMTAP	75	96	4
BRTAP	75	192	4
BRTAP	75	192	5
NMTAP	76	0	6
NMTAP	76	96	6
NMTAP	76	192	6
NMTAP	76	288	6
NMTAP	76	288	7
NMTAP	77	0	5
NMTAP	77	96	5
NMTAP	77	192	5
NMTAP	77	288	4
NMTAP	77	288	5
NMTAP	78	0	3
NMTAP	78	96	3
NMTAP	78	192	3
NMTAP	78	288	2
NMTAP	78	288	3
NMTAP	79	0	1
NMTAP	79	96	1
NMTAP	79	192	0
NMTAP	79	192	7
NMTAP	80	0	1
NMTAP	80	96	1
NMTAP	80	192	1
NMTAP	80	288	0
NMTAP	80	288	1
NMTAP	81	0	2
NMTAP	81	96	2
NMTAP	81	192	2
NMTAP	81	288	2
NMTAP	81	288	3
NMTAP	82	0	4
NMTAP	82	96	4
NMTAP	82	192	4
NMTAP	82	288	4
NMTAP	82	288	5
NMTAP	83	0	6
NMTAP	83	96	6
NMTAP	83	192	0
NMTAP	83	192	7
BXTAP	83	288	0
BXTAP	83	288	7

T_REC_TAP	268
T_REC_BRK	4
T_REC_XTP	0
T_REC_BXX	6
T_REC_HLD	12
T_REC_XHO	0
T_REC_BHO	0
T_REC_BXH	0
T_REC_STR	6
T_REC_BST	0
T_REC_XST	0
T_REC_XBS	0
T_REC_TTP	13
T_REC_THO	0
T_REC_SLD	6
T_REC_BSL	0
T_REC_ALL	315
T_NUM_TAP	287
T_NUM_BRK	10
T_NUM_HLD	12
T_NUM_SLD	6
T_NUM_ALL	315
T_JUDGE_TAP	297
T_JUDGE_HLD	48
T_JUDGE_SLD	6
T_JUDGE_ALL	351
TTM_EACHPAIRS	63
TTM_SCR_TAP	143500
TTM_SCR_BRK	26000
TTM_SCR_HLD	12000
TTM_SCR_SLD	9000
TTM_SCR_ALL	190500
TTM_SCR_S	183850
TTM_SCR_SS	189500
TTM_RAT_ACV	10052

