VERSION	0.00.00	1.05.00
FES_MODE	0
BPM_DEF	135.000	135.000	135.000	135.000
MET_DEF	4	4
RESOLUTION	384
CLK_DEF	384
COMPATIBLE_CODE	MA2

BPM	0	0	135.000
MET	0	0	4	4

NMTAP	3	0	0
NMTAP	4	0	0
NMTAP	5	0	7
NMTAP	6	0	0
NMTAP	6	0	7
NMTAP	7	0	0
NMTAP	7	192	0
NMTAP	8	0	1
NMTAP	9	0	2
NMTAP	9	192	2
NMTAP	10	0	3
NMTAP	11	0	4
NMTAP	11	192	4
NMTAP	12	0	5
NMTAP	13	0	6
NMTAP	13	192	6
EXTAP	14	0	0
EXTAP	14	0	7
NMTAP	15	0	7
NMTAP	15	192	7
NMTAP	16	0	6
NMTAP	16	192	6
NMTAP	17	0	5
NMTAP	17	192	5
NMTAP	18	0	3
NMTAP	18	0	4
NMTAP	19	0	3
NMTAP	19	192	3
NMTAP	20	0	2
NMTAP	20	192	2
NMTAP	21	0	1
NMTAP	21	192	1
NMTAP	22	0	0
NMTAP	22	0	7
NMHLD	23	0	0	384
NMHLD	23	0	1	384
NMHLD	25	0	2	384
NMHLD	25	0	3	384
NMHLD	27	0	4	384
NMHLD	27	0	5	384
NMHLD	29	0	6	384
NMHLD	29	0	7	384
EXTAP	31	0	0
EXTAP	31	0	7
BXTAP	32	0	7
NMTAP	32	96	7
NMTAP	32	192	7
NMTAP	33	0	6
NMTAP	33	192	6
NMTAP	34	0	5
NMTAP	34	96	5
NMTAP	34	192	5
NMTAP	35	0	3
NMTAP	35	0	4
NMTAP	36	0	3
NMTAP	36	96	3
NMTAP	36	192	3
NMTAP	37	0	2
NMTAP	37	192	2
NMTAP	38	0	1
NMTAP	38	96	1
NMTAP	38	192	1
NMTAP	39	0	0
NMTAP	39	0	7
BRTAP	40	0	0
NMTAP	40	96	0
NMTAP	40	192	0
NMTAP	41	0	1
NMTAP	41	192	1
NMTAP	42	0	2
NMTAP	42	96	2
NMTAP	42	192	2
NMTAP	43	0	3
NMTAP	43	0	4
NMTAP	43	192	3
NMTAP	43	192	4
NMTAP	44	0	4
NMTAP	44	96	4
NMTAP	44	192	4
NMTAP	45	0	5
NMTAP	45	192	5
NMTAP	46	0	6
NMTAP	46	96	6
NMTAP	46	192	6
NMTAP	47	0	0
NMTAP	47	0	7
NMTAP	48	0	1
NMTAP	48	192	1
NMTAP	49	0	0
NMTAP	49	0	1
NMTAP	50	0	6
NMTAP	50	192	6
NMTAP	51	0	6
NMTAP	51	0	7
NMSTR	52	0	7
NMSI_	52	0	7	96	288	3
NMSTR	54	0	0
NMSI_	54	0	0	96	288	4
NMSTR	56	0	6
NMSI_	56	0	6	96	288	2
NMSTR	58	0	1
NMSI_	58	0	1	96	288	5
BXTAP	60	0	7
NMTAP	60	96	7
NMTAP	60	192	7
NMTAP	61	0	6
NMTAP	61	96	6
NMTAP	61	192	6
NMTAP	62	0	5
NMTAP	62	96	5
NMTAP	62	192	5
NMTAP	63	0	3
NMTAP	63	0	4
NMTAP	63	192	3
NMTAP	63	192	4
NMTAP	64	0	3
NMTAP	64	96	3
NMTAP	64	192	3
NMTAP	65	0	2
NMTAP	65	96	2
NMTAP	65	192	2
NMTAP	66	0	1
NMTAP	66	96	1
NMTAP	66	192	1
NMTAP	67	0	0
NMTAP	67	0	7
NMTAP	67	192	0
NMTAP	67	192	7
BRTAP	68	0	0
NMTAP	68	96	0
NMTAP	68	192	0
NMTAP	69	0	1
NMTAP	69	96	1
NMTAP	69	192	1
NMTAP	70	0	2
NMTAP	70	96	2
NMTAP	70	192	2
NMTAP	71	0	2
NMTAP	71	0	3
NMTAP	71	192	2
NMTAP	71	192	3
NMTAP	72	0	4
NMTAP	72	96	4
NMTAP	72	192	4
NMTAP	73	0	5
NMTAP	73	96	5
NMTAP	73	192	5
NMTAP	74	0	6
NMTAP	74	96	6
NMTAP	74	192	6
BRTAP	75	0	6
BRTAP	75	0	7
NMTTP	76	0	7	E	0	L1
NMTTP	77	0	6	E	0	L1
NMTTP	78	0	5	E	0	L1
NMTTP	79	0	4	E	0	L1
NMTTP	80	0	3	E	0	L1
NMTTP	81	0	2	E	0	L1
NMTTP	82	0	1	E	0	L1
NMTHO	83	0	0	288	C	1	L1

T_REC_TAP	126
T_REC_BRK	4
T_REC_XTP	4
T_REC_BXX	2
T_REC_HLD	8
T_REC_XHO	0
T_REC_BHO	0
T_REC_BXH	0
T_REC_STR	4
T_REC_BST	0
T_REC_XST	0
T_REC_XBS	0
T_REC_TTP	7
T_REC_THO	1
T_REC_SLD	4
T_REC_BSL	0
T_REC_ALL	160
T_NUM_TAP	141
T_NUM_BRK	6
T_NUM_HLD	9
T_NUM_SLD	4
T_NUM_ALL	160
T_JUDGE_TAP	147
T_JUDGE_HLD	70
T_JUDGE_SLD	4
T_JUDGE_ALL	221
TTM_EACHPAIRS	23
TTM_SCR_TAP	70500
TTM_SCR_BRK	15600
TTM_SCR_HLD	9000
TTM_SCR_SLD	6000
TTM_SCR_ALL	101100
TTM_SCR_S	97500
TTM_SCR_SS	100500
TTM_RAT_ACV	10059

