VERSION	0.00.00	1.05.00
FES_MODE	0
BPM_DEF	143.000	143.000	143.000	143.000
MET_DEF	4	4
RESOLUTION	384
CLK_DEF	384
COMPATIBLE_CODE	MA2

BPM	0	0	143.000
MET	0	0	4	4

NMTAP	1	0	4
NMTAP	1	96	4
NMTAP	1	192	4
EXTAP	1	240	3
EXTAP	1	240	5
NMTAP	1	288	4
EXTAP	1	336	3
EXTAP	1	336	5
NMTAP	2	0	2
NMHLD	2	0	4	96
NMTTP	2	96	2	E	0	M1
NMTTP	2	192	0	C	0	M1
NMTTP	2	192	1	E	0	M1
NMTAP	2	288	7
NMTAP	2	336	7
NMTTP	3	0	0	B	0	M1
NMTTP	3	96	0	E	0	M1
NMTTP	3	192	0	A	0	M1
NMTTP	3	192	6	B	0	M1
NMTAP	3	288	4
NMTAP	3	336	4
NMTAP	4	0	2
NMHLD	4	0	4	96
NMTTP	4	96	2	E	0	M1
NMTTP	4	192	0	C	0	M1
NMTTP	4	192	1	E	0	M1
NMTAP	4	288	7
NMTAP	4	336	7
NMTTP	5	0	0	B	0	M1
NMTTP	5	96	0	E	0	M1
NMTTP	5	192	0	A	0	M1
NMTTP	5	192	6	B	0	M1
NMTAP	5	288	4
NMTAP	5	336	4
NMTAP	6	0	2
NMHLD	6	0	4	96
NMTTP	6	96	2	E	0	M1
NMTTP	6	192	0	C	0	M1
NMTTP	6	192	1	E	0	M1
NMTAP	6	288	7
NMTAP	6	336	7
NMTTP	7	0	0	B	0	M1
NMTTP	7	96	0	E	0	M1
NMTTP	7	192	0	A	0	M1
NMTTP	7	192	6	B	0	M1
NMTAP	7	288	4
NMTAP	7	336	4
NMTAP	8	0	2
NMHLD	8	0	4	96
NMTTP	8	96	2	E	0	M1
NMTTP	8	192	0	C	0	M1
NMTTP	8	192	1	E	0	M1
NMTAP	8	288	7
NMTAP	8	336	7
NMTTP	9	0	0	B	0	M1
NMTAP	9	0	7
NMTTP	9	96	0	E	0	M1
NMSTR	9	192	0
BRSI_	9	192	0	96	48	4
BXTAP	9	288	0
NMTAP	10	0	7
NMTAP	10	96	4
NMTAP	10	96	6
NMTAP	10	144	5
NMTAP	10	192	4
NMTAP	10	240	5
NMTAP	10	288	4
NMTAP	10	288	6
NMTAP	10	336	7
NMHLD	11	0	0	192
NMTAP	11	0	1
NMTAP	11	96	2
EXTAP	11	144	2
EXTAP	11	168	3
EXHLD	11	192	4	96
BXTAP	11	288	7
NMTAP	12	0	6
NMTAP	12	48	6
NMTAP	12	96	4
NMTAP	12	144	5
NMHLD	12	192	6	96
NMTAP	12	288	4
NMTAP	12	336	5
NMTAP	13	0	3
NMSTR	13	0	6
NMSCL	13	0	6	96	96	3
NMTAP	13	96	2
EXTAP	13	144	2
EXTAP	13	168	1
EXTAP	13	192	0
EXTAP	13	288	4
EXTAP	13	288	7
NMHLD	14	0	5	96
NMTAP	14	96	4
NMTAP	14	144	5
NMHLD	14	192	6	96
NMTAP	14	288	5
NMTAP	14	336	4
NMTAP	15	0	3
NMSTR	15	0	6
NMSCL	15	0	6	96	96	3
NMTAP	15	96	2
EXTAP	15	144	2
EXTAP	15	168	1
EXHLD	15	192	0	96
NMHLD	15	288	2	96
NMHLD	16	0	4	96
NMTAP	16	96	5
NMSTR	16	192	3
NMSI_	16	192	3	96	48	0
NMTAP	16	192	6
NMTAP	16	288	5
CNSCR	16	336	0	0	24	1
NMTAP	16	336	5
CNSI_	16	360	1	0	96	6
NMHLD	17	0	4	144
EXTAP	17	144	7
EXTAP	17	168	0
BXTAP	17	192	1
BXTAP	17	192	3
NMTAP	17	288	3
NMTAP	17	288	4
NMTAP	18	0	4
NMHLD	18	0	5	288
NMTHO	18	96	7	96	E	0	M1
NMHLD	18	288	0	384
NMTAP	19	0	3
NMTHO	19	96	2	96	E	0	M1
NMSTR	19	288	2
NMSUR	19	288	2	96	96	6
NMTAP	20	0	0
NMSTR	20	96	0
BRSUR	20	96	0	96	96	4
NMTAP	20	192	6
NMHLD	20	288	7	192
NMTTP	21	0	7	B	0	M1
NMHLD	21	96	1	192
NMTTP	21	192	1	B	0	M1
NMTAP	21	288	0
NMHLD	22	0	2	672
NMTAP	22	0	7
NMTAP	22	96	7
NMTTP	22	192	1	B	0	M1
NMTTP	22	192	1	E	0	M1
NMTTP	22	192	1	D	0	M1
NMTTP	22	288	3	B	0	M1
NMTTP	22	288	3	E	0	M1
NMTTP	22	288	3	D	0	M1
NMTHO	23	0	0	192	E	0	M1
NMTHO	23	0	0	192	A	0	M1
NMHLD	23	288	7	288
EXTAP	24	0	3
EXTAP	24	96	4
NMTAP	24	192	5
NMSTR	24	288	5
NMSV_	24	288	5	96	48	3
NMSTR	24	288	6
NMSV_	24	288	6	96	48	3
NMTAP	25	144	3
NMTAP	25	192	3
NMTAP	25	240	2
NMTAP	25	240	4
NMSTR	25	288	1
NMSI_	25	288	1	96	48	6
NMSTR	25	288	5
NMSI_	25	288	5	96	48	2
BRTAP	26	0	1
BRTAP	26	0	5
NMTAP	26	96	0
NMTAP	26	96	4
NMTAP	26	144	1
NMTAP	26	144	5
NMTAP	26	192	2
NMSTR	26	192	6
NMSCL	26	192	6	96	48	3
NMTAP	26	240	7
NMSTR	26	288	1
NMSCL	26	288	1	96	48	7
NMTAP	26	336	2
BXTAP	27	0	4
EXSTR	27	96	6
NMSI_	27	96	6	96	48	4
EXSTR	27	96	7
NMSI_	27	96	7	96	48	3
NMTAP	27	192	6
NMTAP	27	192	7
EXSTR	27	288	2
BRSCL	27	288	2	96	48	0
EXSTR	27	288	3
BRSI_	27	288	3	96	48	6
NMTAP	28	0	2
NMTAP	28	0	3
BRTAP	28	96	7
NMTAP	28	192	0
NMTAP	28	240	1
NMSTR	28	288	2
NMSCL	28	288	2	96	96	6
NMTAP	28	288	4
NMTAP	28	336	5
BRSTR	29	0	6
NMSCR	29	0	6	96	96	2
NMSTR	29	96	2
NMSLR	29	96	2	96	96	6
NMTTP	29	192	0	C	0	M1
NMSTR	29	288	7
NMSI_	29	288	7	96	48	2
NMSI_	29	288	7	96	48	3
BRTAP	30	0	7
NMTAP	30	96	1
NMTAP	30	144	1
NMTAP	30	192	0
NMTAP	30	192	2
NMTAP	30	240	7
NMTAP	30	288	4
NMTAP	30	288	6
NMTAP	30	336	5
NMSTR	31	0	3
NMSV_	31	0	3	96	48	0
NMSTR	31	0	4
NMSCR	31	0	4	96	48	7
NMTAP	31	96	3
NMTAP	31	96	4
EXSTR	31	192	0
NMSV_	31	192	0	96	48	5
EXSTR	31	192	1
NMSCR	31	192	1	96	48	4
NMTAP	31	288	0
NMTAP	31	288	1
NMSTR	32	0	6
BRSI_	32	0	6	96	48	2
NMTAP	32	0	7
NMSTR	32	96	1
NMSV_	32	96	1	96	48	4
BRTAP	32	96	6
NMTAP	32	192	1
NMSTR	32	192	6
NMSCR	32	192	6	96	48	1
NMSTR	32	288	3
NMSF_	32	288	3	96	48	7
NMTAP	32	288	6
BRTAP	33	0	3
NMTTP	33	96	1	A	0	M1
NMTTP	33	96	2	E	0	M1
NMTTP	33	96	2	D	0	M1
NMTTP	33	96	5	B	0	M1
NMTTP	33	96	5	E	1	M1
NMTTP	33	96	5	A	0	M1
NMTAP	33	192	0
NMTAP	33	192	6
NMTAP	33	288	1
NMTAP	33	312	7
NMTAP	33	336	1
NMTAP	33	360	7
BRSTR	34	0	1
NMSCR	34	0	1	96	48	3
NMTAP	34	96	0
NMTAP	34	144	7
NMTAP	34	192	6
NMTAP	34	216	4
NMTAP	34	240	5
NMTAP	34	288	3
NMTAP	34	288	4
NMHLD	34	336	2	96
NMTAP	34	336	3
NMTAP	35	48	3
NMTAP	35	96	3
NMTAP	35	120	2
NMSTR	35	168	1
NMSCL	35	168	1	96	48	6
NMTAP	35	168	4
NMTAP	35	240	5
NMTAP	35	288	5
NMTAP	35	336	5
NMTAP	36	0	6
NMTAP	36	24	7
NMTAP	36	48	6
NMTAP	36	96	1
NMTAP	36	120	0
NMTAP	36	168	2
NMTAP	36	168	7
NMTAP	36	240	4
NMTAP	36	240	5
NMTAP	36	288	3
NMTAP	36	288	4
NMHLD	36	336	2	96
NMTAP	36	336	3
NMTTP	37	48	2	E	0	M1
NMTTP	37	72	1	E	0	M1
NMTTP	37	96	0	E	0	M1
NMTTP	37	120	7	E	0	M1
NMTTP	37	144	6	E	0	M1
NMTTP	37	168	5	E	0	M1
BXTAP	37	192	0
NMTTP	37	192	4	E	0	M1
BXTAP	37	240	2
BXSTR	37	288	4
NMSI_	37	288	4	96	48	0
BRTAP	38	0	4
NMTAP	38	0	5
EXTAP	38	96	0
EXSTR	38	96	3
NMSCR	38	96	3	96	48	6
NMTAP	38	192	0
NMTAP	38	216	1
NMTAP	38	240	2
EXTAP	38	288	7
NMTAP	38	336	7
NMTAP	39	0	0
NMTAP	39	0	6
NMTAP	39	48	5
NMTAP	39	48	7
NMTAP	39	96	0
NMTAP	39	96	6
NMHLD	39	144	1	96
NMTAP	39	144	7
NMTTP	39	240	1	E	0	M1
NMTTP	39	288	0	C	0	M1
NMTHO	39	336	5	96	E	0	M1
EXTAP	40	48	7
NMTAP	40	96	7
NMTAP	40	144	0
NMTAP	40	144	6
NMTAP	40	192	5
NMTAP	40	240	3
NMTAP	40	240	4
NMTAP	40	288	2
NMTAP	40	336	0
NMSTR	40	336	1
NMSCR	40	336	1	96	48	4
NMSUR	40	336	1	96	48	5
NMTAP	41	48	1
NMTAP	41	144	6
NMTAP	41	144	7
NMTAP	41	240	0
NMTAP	41	240	1
NMTAP	41	288	0
EXTAP	41	288	1
EXTAP	41	304	2
EXTAP	41	320	3
EXTAP	41	336	4
BRTAP	42	0	7
NMTTP	42	48	0	B	0	M1
NMTTP	42	96	7	E	0	M1
NMTAP	42	144	4
NMTAP	42	192	5
NMTTP	42	240	2	B	0	M1
NMTTP	42	288	4	E	0	M1
EXTAP	42	336	4
NMTAP	43	0	1
EXTAP	43	0	5
NMTTP	43	48	2	E	0	M1
NMTTP	43	64	2	B	0	M1
NMTTP	43	80	4	B	0	M1
NMTTP	43	96	5	E	0	M1
NMTAP	43	144	1
NMSTR	43	192	1
NMSCL	43	192	1	96	96	6
NMTAP	43	288	4
NMTAP	43	336	4
EXTAP	44	0	5
NMTTP	44	48	4	E	0	M1
NMTTP	44	96	3	E	0	M1
EXTAP	44	144	4
EXTAP	44	192	5
NMTTP	44	240	4	E	0	M1
NMTTP	44	288	2	B	0	M1
NMTHO	44	336	0	240	C	0	M1
NMTTP	44	336	1	E	0	M1
NMTAP	45	48	0
NMTAP	45	96	0
NMTAP	45	144	0
NMSTR	45	192	0
NMSLR	45	192	0	96	96	4
NMTAP	45	288	7
NMTAP	45	336	7
NMTAP	46	0	7
NMTTP	46	48	4	E	0	M1
NMTTP	46	96	6	E	0	M1
NMTAP	46	144	4
NMTAP	46	192	5
NMTTP	46	240	2	E	0	M1
NMTTP	46	288	3	E	0	M1
NMTAP	46	336	4
NMHLD	47	0	1	48
NMHLD	47	0	5	48
NMTTP	47	96	5	E	0	M1
NMTTP	47	112	4	B	0	M1
NMTTP	47	128	2	B	0	M1
NMTTP	47	144	2	E	0	M1
EXSTR	47	192	0
NMSCR	47	192	0	96	96	3
EXTAP	47	192	5
NMTTP	47	288	3	B	0	M1
NMTTP	47	336	0	C	0	M1
NMTAP	48	0	7
NMTAP	48	48	7
NMTAP	48	96	1
NMTAP	48	144	2
NMTAP	48	192	1
NMTAP	48	192	3
NMSTR	48	240	0
NMSI_	48	240	0	96	48	2
NMSTR	48	240	4
NMSI_	48	240	4	96	48	6
NMTAP	48	288	3
NMTAP	48	288	7
BRSTR	48	336	0
BRSXR	48	336	0	96	240	3
BRSTR	48	336	4
NMSXR	48	336	4	96	240	3
NMHLD	50	0	5	576
NMHLD	51	0	3	960
NMSTR	51	294	4
NMSV_	51	294	4	96	186	5
NMHLD	53	0	5	960
NMSTR	53	294	4
NMSV_	53	294	4	96	186	3
NMHLD	55	0	3	960
NMTTP	55	288	5	A	0	M1
NMTTP	55	288	6	D	0	M1
NMTHO	56	0	4	192	A	0	M1
NMTHO	56	0	5	192	D	0	M1
NMHLD	57	0	5	864
NMTTP	57	288	4	A	0	M1
NMTTP	57	288	4	D	0	M1
NMTHO	58	0	3	192	A	0	M1
NMTHO	58	0	3	192	D	0	M1
NMHLD	59	0	3	480
NMHLD	59	192	4	96
NMHLD	60	0	5	480
NMHLD	60	192	4	96
NMHLD	61	0	3	480
NMTHO	61	192	4	96	D	0	M1
NMHLD	62	0	5	480
NMTHO	62	192	4	96	D	0	M1
NMHLD	63	0	3	480
NMHLD	63	192	6	96
NMHLD	64	0	5	576
NMHLD	64	192	2	768
NMTAP	65	288	4
NMHLD	66	0	5	528
NMTAP	66	288	3
NMHLD	67	0	3	192
NMTAP	68	0	3
NMTAP	68	24	4
NMTAP	68	48	3
NMTAP	68	96	5
NMTAP	68	144	3
NMTAP	68	168	4
NMTAP	68	192	3
NMTAP	68	240	5
BXTAP	68	288	2
BXHLD	68	288	6	192
NMTAP	69	0	1
NMTAP	69	48	2
NMTAP	69	96	3
NMTAP	69	144	4
NMTAP	69	192	5
NMTAP	69	240	6
NMTAP	69	240	7
NMTAP	69	288	6
NMSTR	69	288	7
BRSCL	69	288	7	96	48	4
BRSCR	69	288	7	96	48	1
BRSTR	70	0	7
NMSI_	70	0	7	96	48	3
EXTAP	70	96	2
EXTAP	70	144	2
EXTAP	70	192	1
EXTAP	70	192	3
NMTAP	70	240	0
NMSTR	70	288	7
NMSCR	70	288	7	96	48	2
NMTAP	70	336	6
NMSTR	71	0	5
NMSI_	71	0	5	96	48	0
NMTAP	71	0	7
NMSTR	71	96	3
NMSI_	71	96	3	96	48	7
NMTAP	71	96	5
NMTAP	71	192	3
NMSTR	71	192	6
BRSI_	71	192	6	96	48	4
NMSTR	71	288	0
BRSI_	71	288	0	96	48	2
NMTAP	71	288	6
NMTAP	72	0	0
EXSTR	72	0	3
BRSI_	72	0	3	96	48	6
BRSI_	72	0	3	96	48	7
BRTAP	72	96	3
NMTAP	72	192	0
NMTAP	72	192	1
NMTAP	72	240	2
NMSTR	72	288	3
NMSCL	72	288	3	96	96	7
NMTAP	72	336	5
NMSTR	73	0	7
NMSCL	73	0	7	96	96	3
NMSTR	73	96	3
NMSCL	73	96	3	96	96	7
NMTAP	73	192	7
NMSTR	73	288	5
BRSI_	73	288	5	96	48	1
BRSI_	73	288	5	96	48	3
BRTAP	74	0	5
NMTAP	74	96	0
NMTAP	74	144	0
NMSTR	74	192	6
NMSI_	74	192	6	96	48	4
NMTAP	74	240	7
NMSTR	74	288	0
NMSI_	74	288	0	96	48	4
NMTAP	74	336	1
EXTAP	75	0	7
EXSTR	75	96	0
NMSCL	75	96	0	96	48	5
EXSTR	75	96	4
NMSCL	75	96	4	96	48	1
NMTAP	75	192	0
NMTAP	75	192	4
EXSTR	75	288	0
BRSI_	75	288	0	96	48	4
EXTAP	75	288	4
NMTAP	76	0	0
EXTAP	76	0	6
NMTAP	76	48	6
NMHLD	76	96	6	72
NMTAP	76	168	4
NMTAP	76	192	5
NMTAP	76	240	4
NMTAP	76	240	6
NMTAP	76	288	7
NMTAP	76	336	1
NMTAP	77	0	2
NMSTR	77	0	3
NMSUR	77	0	3	96	96	1
NMSTR	77	96	1
BRSCL	77	96	1	96	96	3
NMTTP	77	192	2	E	1	M1
NMSTR	77	288	0
NMSF_	77	288	0	96	48	4
BRTAP	78	0	0
NMSTR	78	96	7
NMSCR	78	96	7	96	72	3
NMTAP	78	144	6
NMTAP	78	192	5
NMTAP	78	192	7
NMTAP	78	240	6
NMSTR	78	288	0
BRSLL	78	288	0	96	72	4
NMTAP	78	336	1
NMTAP	79	0	0
NMTAP	79	0	2
NMSTR	79	96	2
NMSI_	79	96	2	96	48	0
NMSI_	79	96	2	96	48	7
NMTAP	79	192	2
NMSTR	79	288	4
BRSCL	79	288	4	96	48	2
NMSTR	79	288	5
BRSCR	79	288	5	96	48	7
NMTAP	80	0	4
NMTAP	80	0	5
NMTTP	80	96	0	B	0	M1
NMTTP	80	96	0	A	0	M1
NMTTP	80	96	1	B	1	M1
NMTTP	80	96	1	E	0	M1
NMTTP	80	96	1	A	0	M1
NMTTP	80	96	1	D	0	M1
NMTTP	80	96	2	B	0	M1
NMTTP	80	96	2	E	0	M1
NMTTP	80	96	2	A	0	M1
NMTTP	80	96	2	D	0	M1
NMTTP	80	96	3	B	0	M1
NMTTP	80	96	3	E	0	M1
NMTAP	80	192	6
NMTAP	80	192	7
NMTAP	80	240	6
NMTAP	80	240	7
NMTAP	80	288	4
NMTAP	80	288	5
NMTAP	80	336	2
NMTAP	80	336	3
NMSTR	81	0	0
NMSI_	81	0	0	96	48	3
NMSTR	81	0	1
NMSI_	81	0	1	96	48	3
NMSTR	81	96	0
BRSCL	81	96	0	96	96	3
NMSTR	81	96	1
BRSUL	81	96	1	96	96	2
NMTTP	81	192	0	A	0	M1
NMTTP	81	192	1	A	0	M1
NMTTP	81	192	1	D	1	M1
NMSTR	82	0	0
NMSI_	82	0	0	96	48	5
NMTAP	82	0	1
NMTAP	82	96	0
EXTAP	82	96	7
EXTAP	82	144	7
NMTAP	82	192	4
NMSTR	82	192	6
NMSI_	82	192	6	96	48	3
NMTAP	82	240	3
NMTAP	82	288	2
NMTAP	82	288	6
NMTAP	82	336	1
NMTAP	83	0	0
EXSTR	83	0	3
NMSI_	83	0	3	96	48	7
NMSTR	83	96	1
NMSI_	83	96	1	96	48	5
NMTAP	83	96	3
NMTAP	83	192	1
NMSTR	83	192	6
BRSI_	83	192	6	96	48	0
NMSTR	83	288	4
BRSI_	83	288	4	96	48	2
NMTAP	83	288	6
NMSTR	84	0	4
NMSF_	84	0	4	96	48	0
NMTAP	84	0	5
BRTAP	84	96	4
NMTAP	84	192	2
NMTAP	84	192	6
NMTAP	84	240	3
NMSTR	84	288	2
NMSI_	84	288	2	96	48	7
NMSTR	84	288	5
NMSI_	84	288	5	96	48	3
NMTAP	84	336	6
BRTAP	85	0	2
BRTAP	85	0	5
NMTAP	85	96	0
NMTAP	85	96	4
NMTAP	85	144	1
NMTAP	85	160	3
NMTAP	85	176	1
NMTAP	85	192	3
NMTAP	85	240	2
NMTAP	85	240	4
NMSTR	85	288	4
NMSI_	85	288	4	96	48	0
NMSTR	85	288	6
BRSI_	85	288	6	96	48	2
NMTTP	86	0	4	A	0	M1
NMTTP	86	0	5	A	1	M1
NMTTP	86	0	5	D	0	M1
NMTTP	86	0	6	A	0	M1
NMTTP	86	0	6	D	0	M1

T_REC_TAP	265
T_REC_BRK	14
T_REC_XTP	39
T_REC_BXX	8
T_REC_HLD	40
T_REC_XHO	2
T_REC_BHO	0
T_REC_BXH	1
T_REC_STR	63
T_REC_BST	5
T_REC_XST	13
T_REC_XBS	1
T_REC_TTP	98
T_REC_THO	12
T_REC_SLD	64
T_REC_BSL	24
T_REC_ALL	649
T_NUM_TAP	478
T_NUM_BRK	53
T_NUM_HLD	54
T_NUM_SLD	64
T_NUM_ALL	649
T_JUDGE_TAP	506
T_JUDGE_HLD	313
T_JUDGE_SLD	88
T_JUDGE_ALL	907
TTM_EACHPAIRS	107
TTM_SCR_TAP	239000
TTM_SCR_BRK	137800
TTM_SCR_HLD	54000
TTM_SCR_SLD	96000
TTM_SCR_ALL	526800
TTM_SCR_S	505900
TTM_SCR_SS	521500
TTM_RAT_ACV	10101

