VERSION	0.00.00	1.05.00
FES_MODE	0
BPM_DEF	143.000	143.000	143.000	143.000
MET_DEF	4	4
RESOLUTION	384
CLK_DEF	384
COMPATIBLE_CODE	MA2

BPM	0	0	143.000
MET	0	0	4	4

EXTAP	1	240	2
EXTAP	1	240	4
EXTAP	1	288	2
EXTAP	1	288	4
NMTAP	2	0	5
NMTAP	2	96	5
NMTAP	2	192	4
NMTAP	2	192	6
NMTAP	3	0	5
NMTAP	3	96	5
NMTAP	3	192	4
NMTAP	3	192	6
NMTAP	4	0	2
NMTAP	4	96	2
NMTAP	4	192	1
NMTAP	4	192	3
NMTAP	5	0	2
NMTAP	5	96	2
NMTAP	5	192	1
NMTAP	5	192	3
NMTAP	6	0	5
NMTAP	6	96	5
NMTAP	6	192	4
NMTAP	6	192	6
NMTAP	7	0	5
NMTAP	7	96	5
NMTAP	7	192	4
NMTAP	7	192	6
NMTAP	8	0	2
NMTAP	8	96	2
NMTAP	8	192	1
NMTAP	8	192	3
NMTAP	9	0	3
NMTAP	9	96	3
NMTAP	9	192	2
NMTAP	9	192	4
NMHLD	10	0	6	96
NMTAP	10	96	4
NMHLD	10	192	2	96
NMTAP	10	288	4
NMHLD	11	0	6	96
NMTAP	11	96	4
NMTTP	11	192	3	E	0	M1
NMHLD	12	0	5	96
NMTAP	12	96	4
NMHLD	12	192	3	96
NMTAP	12	288	4
NMHLD	13	0	5	96
NMTAP	13	96	4
NMTTP	13	192	4	E	0	M1
NMHLD	14	0	6	96
NMTAP	14	96	4
NMHLD	14	192	2	96
NMTAP	14	288	4
NMHLD	15	0	6	96
NMTAP	15	96	4
NMTTP	15	192	3	E	0	M1
NMHLD	16	0	5	96
NMTAP	16	96	4
NMHLD	16	192	3	96
NMTAP	16	288	4
NMTAP	17	0	5
NMTAP	17	96	3
NMTAP	17	96	5
NMTTP	17	192	3	E	0	M1
NMTTP	17	192	4	B	0	M1
NMTAP	18	0	6
NMTAP	18	0	7
NMHLD	18	96	6	96
NMHLD	18	96	7	96
NMTAP	18	288	1
NMTAP	19	0	2
NMHLD	19	96	2	96
NMTAP	19	192	3
NMTAP	19	288	4
NMTAP	19	288	5
NMTAP	20	0	6
NMTAP	20	0	7
NMTAP	20	96	1
NMTAP	20	192	1
NMTAP	20	288	6
NMTAP	20	288	7
NMTAP	21	0	4
NMTAP	21	0	5
NMTAP	21	96	3
NMTAP	21	192	3
NMTAP	21	288	5
NMTAP	22	0	4
NMTAP	22	0	5
NMTAP	22	96	6
NMTAP	22	192	6
NMTAP	22	192	7
NMTAP	22	288	5
NMTAP	23	0	4
NMTAP	23	0	5
NMTAP	23	96	6
NMHLD	23	192	6	96
NMHLD	23	192	7	96
NMTAP	24	0	1
NMTAP	24	0	7
NMTAP	24	96	1
NMTAP	24	96	7
NMTAP	24	192	3
NMTAP	24	192	5
NMTAP	24	288	3
NMTAP	24	288	5
BRTAP	25	0	2
BRTAP	25	0	6
EXTAP	25	144	4
EXTAP	25	192	4
NMTAP	25	288	3
NMTAP	25	288	5
NMTAP	26	0	1
NMTAP	26	0	7
NMTAP	26	96	4
NMTAP	26	192	6
NMTAP	26	192	7
NMTAP	26	288	3
NMTAP	27	0	2
NMTAP	27	0	6
NMSTR	27	96	7
NMSCL	27	96	7	96	96	4
NMSTR	27	288	3
NMSI_	27	288	3	96	48	1
NMHLD	28	96	6	96
NMHLD	28	192	4	96
NMHLD	28	288	3	96
NMHLD	29	0	1	96
NMTAP	29	96	7
NMTAP	29	192	2
NMTAP	29	192	6
BRTAP	29	288	2
BRTAP	29	288	6
NMTAP	30	0	1
NMTAP	30	0	7
NMTAP	30	96	4
NMTAP	30	192	6
NMTAP	30	192	7
NMTAP	30	288	3
NMTAP	31	0	2
NMTAP	31	0	6
NMSTR	31	96	7
NMSCL	31	96	7	96	96	4
NMSTR	31	288	3
NMSI_	31	288	3	96	48	1
NMHLD	32	96	6	96
NMHLD	32	192	4	96
NMHLD	32	288	3	96
NMHLD	33	0	1	96
BRTAP	33	96	7
NMSTR	33	192	5
NMSI_	33	192	5	96	96	2
NMHLD	34	0	1	96
NMTAP	34	96	3
NMTAP	34	144	3
NMTAP	34	192	2
NMTAP	34	288	5
NMTAP	34	336	5
NMTAP	35	0	4
NMSTR	35	96	6
NMSUR	35	96	6	96	96	3
NMSTR	35	96	7
NMSCR	35	96	7	96	96	2
NMHLD	36	0	2	96
NMTAP	36	96	3
NMTAP	36	192	5
NMTAP	36	288	6
NMHLD	36	336	6	96
NMHLD	37	48	4	96
NMTAP	37	144	3
NMTAP	37	240	2
NMTAP	37	240	3
NMTAP	37	288	2
NMTAP	37	288	3
NMHLD	38	0	1	96
NMHLD	38	96	3	96
NMHLD	38	192	5	96
NMTAP	38	288	7
NMTAP	39	0	6
NMTAP	39	0	7
NMTAP	39	96	4
NMTAP	39	96	5
NMTAP	39	192	2
NMTAP	39	192	3
NMHLD	39	288	1	96
NMHLD	40	0	3	96
NMHLD	40	96	4	96
NMHLD	40	192	6	96
NMTAP	40	288	7
NMTAP	40	336	7
NMTAP	41	48	4
NMTAP	41	48	5
NMTAP	41	144	2
NMTAP	41	144	3
NMTAP	41	240	4
NMTAP	41	240	5
NMTAP	41	336	6
NMTAP	42	0	6
EXTAP	42	48	4
EXTAP	42	96	5
NMTAP	42	144	1
NMTAP	42	192	1
EXTAP	42	240	3
EXTAP	42	288	2
NMTAP	42	336	6
NMTAP	43	0	6
NMTAP	43	96	4
NMTAP	43	96	5
NMTAP	43	192	2
NMTAP	43	192	3
NMTAP	43	288	1
NMTAP	43	336	1
NMTAP	44	0	3
EXTAP	44	48	3
EXTAP	44	96	2
NMTAP	44	144	6
NMTAP	44	192	6
EXTAP	44	240	4
EXTAP	44	288	5
NMHLD	44	336	1	96
NMTAP	45	48	7
NMTAP	45	96	7
NMTAP	45	192	6
NMTAP	45	192	7
NMTAP	45	288	5
NMTAP	45	336	5
NMTAP	46	0	4
EXTAP	46	48	4
EXTAP	46	96	6
NMTAP	46	144	2
NMTAP	46	192	2
EXTAP	46	240	3
EXTAP	46	288	1
NMTAP	46	336	6
NMTAP	47	0	6
NMTAP	47	96	6
NMTAP	47	96	7
NMTAP	47	192	4
NMTAP	47	192	5
NMTAP	47	288	1
NMTAP	47	336	1
NMTAP	48	0	7
NMTAP	48	48	7
NMTAP	48	96	2
NMTAP	48	96	6
NMTAP	48	192	1
NMTAP	48	192	5
NMTAP	48	288	2
NMTAP	48	288	6
NMSTR	48	336	2
NMSCR	48	336	2	96	192	5
NMSTR	48	336	6
NMSCR	48	336	6	96	192	1
NMHLD	51	0	4	288
NMHLD	51	0	5	288
NMHLD	52	0	3	192
NMHLD	52	0	5	192
NMHLD	53	0	2	288
NMTAP	53	288	3
NMHLD	54	0	2	192
NMHLD	54	0	4	192
NMHLD	55	0	4	288
NMHLD	55	0	6	288
NMHLD	56	0	3	192
NMHLD	56	0	5	192
NMHLD	57	0	2	288
NMTAP	57	288	3
NMHLD	58	0	2	192
NMHLD	58	0	4	192
NMHLD	59	0	6	192
NMTAP	59	192	4
NMHLD	60	0	2	192
NMTAP	60	192	3
NMTAP	61	0	5
NMHLD	61	96	6	96
NMTAP	61	192	4
NMTAP	62	0	3
NMHLD	62	96	2	96
NMTAP	62	192	3
NMHLD	63	0	4	144
NMHLD	63	0	6	144
NMTAP	63	192	4
NMTAP	63	192	6
NMHLD	64	0	1	144
NMHLD	64	0	3	144
NMTAP	64	192	2
NMTAP	64	192	3
NMHLD	65	0	4	192
NMHLD	65	0	5	192
NMSTR	65	288	7
NMSCL	65	288	7	96	96	4
NMSTR	66	192	2
NMSUR	66	192	2	96	288	4
NMHLD	68	0	3	96
NMHLD	68	0	5	96
NMHLD	68	144	2	96
NMHLD	68	144	4	96
NMTAP	68	288	2
NMTAP	68	288	4
NMTAP	69	0	5
NMTAP	69	48	5
NMTAP	69	96	3
NMTAP	69	144	3
NMTAP	69	192	4
BRTAP	69	288	1
BRTAP	69	288	5
NMTAP	70	0	6
NMTAP	70	0	7
NMTAP	70	96	4
NMTAP	70	96	5
NMTAP	70	192	2
NMTAP	70	192	3
NMHLD	70	288	1	96
NMTAP	71	0	7
NMSTR	71	96	7
NMSCL	71	96	7	96	96	4
NMSTR	71	288	3
NMSCL	71	288	3	96	48	1
NMTAP	72	96	7
NMTAP	72	192	4
NMTAP	72	192	6
NMTAP	72	288	3
NMTAP	72	288	4
NMHLD	73	0	1	96
NMHLD	73	96	3	96
NMHLD	73	192	4	96
NMTAP	73	288	6
NMTAP	74	0	6
NMTAP	74	0	7
NMTAP	74	96	2
NMTAP	74	96	3
NMTAP	74	192	1
NMTAP	74	288	4
NMTAP	74	288	5
NMTAP	75	0	6
NMSTR	75	96	7
NMSCL	75	96	7	96	96	4
NMSTR	75	288	3
NMSCL	75	288	3	96	48	1
NMTAP	76	96	7
NMHLD	76	192	4	96
NMHLD	76	192	6	96
NMTAP	77	0	2
NMTAP	77	0	3
NMTAP	77	96	1
BRTAP	77	192	1
BRTAP	77	192	7
BRTAP	77	288	1
BRTAP	77	288	7
NMTAP	78	0	6
NMTAP	78	0	7
NMTAP	78	96	2
NMTAP	78	96	3
NMTAP	78	192	1
NMTAP	78	288	2
NMTAP	78	288	3
NMSTR	79	0	4
NMSCR	79	0	4	96	96	7
NMSTR	79	192	3
NMSCL	79	192	3	96	48	1
NMTAP	80	0	7
NMTAP	80	96	6
NMTAP	80	96	7
NMTAP	80	192	4
NMTAP	80	192	5
NMSTR	80	288	3
NMSCR	80	288	3	96	240	2
NMTAP	82	0	2
NMTAP	82	0	3
NMTAP	82	96	1
NMTAP	82	192	4
NMTAP	82	192	5
NMTAP	82	288	7
NMTAP	83	0	2
NMTAP	83	0	3
NMSTR	83	96	4
NMSI_	83	96	4	96	96	7
NMSTR	83	288	3
NMSI_	83	288	3	96	48	1
NMHLD	84	96	7	96
NMHLD	84	192	1	96
NMHLD	84	288	3	96
NMTAP	85	0	5
EXSTR	85	96	6
NMSCL	85	96	6	96	96	3
EXSTR	85	96	7
NMSCR	85	96	7	96	96	2
BRTAP	86	0	1
BRTAP	86	0	5

T_REC_TAP	236
T_REC_BRK	13
T_REC_XTP	18
T_REC_BXX	0
T_REC_HLD	73
T_REC_XHO	0
T_REC_BHO	0
T_REC_BXH	0
T_REC_STR	20
T_REC_BST	0
T_REC_XST	2
T_REC_XBS	0
T_REC_TTP	5
T_REC_THO	0
T_REC_SLD	22
T_REC_BSL	0
T_REC_ALL	389
T_NUM_TAP	281
T_NUM_BRK	13
T_NUM_HLD	73
T_NUM_SLD	22
T_NUM_ALL	389
T_JUDGE_TAP	294
T_JUDGE_HLD	198
T_JUDGE_SLD	22
T_JUDGE_ALL	514
TTM_EACHPAIRS	90
TTM_SCR_TAP	140500
TTM_SCR_BRK	33800
TTM_SCR_HLD	73000
TTM_SCR_SLD	33000
TTM_SCR_ALL	280300
TTM_SCR_S	270650
TTM_SCR_SS	279000
TTM_RAT_ACV	10046

