VERSION	0.00.00	1.05.00
FES_MODE	0
BPM_DEF	143.000	143.000	143.000	143.000
MET_DEF	4	4
RESOLUTION	384
CLK_DEF	384
COMPATIBLE_CODE	MA2

BPM	0	0	143.000
MET	0	0	4	4

EXTAP	2	0	7
NMTAP	2	192	7
NMTAP	3	0	6
NMTAP	4	0	5
NMTAP	4	192	5
NMTAP	5	0	3
NMTAP	5	0	4
NMTAP	6	0	3
NMTAP	6	192	3
NMTAP	7	0	2
NMTAP	8	0	1
NMTAP	8	192	1
NMTAP	9	0	0
NMTAP	9	0	7
NMTAP	10	0	0
NMTAP	10	192	0
NMTAP	11	0	1
NMTAP	11	192	1
NMTAP	12	0	2
NMTAP	12	192	2
NMTAP	13	0	3
NMTAP	13	0	4
NMTAP	14	0	4
NMTAP	14	192	4
NMTAP	15	0	5
NMTAP	15	192	5
NMTAP	16	0	6
NMTAP	16	192	6
NMTAP	17	0	0
NMTAP	17	0	7
NMHLD	18	0	6	384
NMHLD	18	0	7	384
NMHLD	20	0	4	384
NMHLD	20	0	5	384
NMHLD	22	0	2	384
NMHLD	22	0	3	384
NMHLD	24	0	0	384
NMHLD	24	0	1	384
BXTAP	26	0	0
NMTAP	26	96	0
NMTAP	26	192	0
NMTAP	27	0	1
NMTAP	27	192	1
NMTAP	28	0	2
NMTAP	28	96	2
NMTAP	28	192	2
NMTAP	29	0	3
NMTAP	29	0	4
NMTAP	29	192	3
NMTAP	29	192	4
NMTAP	30	0	4
NMTAP	30	96	4
NMTAP	30	192	4
NMTAP	31	0	5
NMTAP	31	192	5
NMTAP	32	0	6
NMTAP	32	96	6
NMTAP	32	192	6
NMTAP	33	0	0
NMTAP	33	0	7
NMTTP	34	0	0	E	0	L1
NMTTP	35	0	7	E	0	L1
NMTTP	36	0	6	E	0	L1
NMTTP	37	0	5	E	0	L1
NMTTP	38	0	4	E	0	L1
NMTTP	39	0	3	E	0	L1
NMTTP	40	0	2	E	0	L1
NMTTP	41	0	0	C	1	L1
EXTAP	42	0	0
EXTAP	42	0	1
EXTAP	42	192	0
EXTAP	42	192	1
EXTAP	43	0	0
EXTAP	43	0	1
NMTAP	44	0	2
NMTAP	44	0	3
NMTAP	44	192	2
NMTAP	44	192	3
NMTAP	45	0	2
NMTAP	45	0	3
NMTAP	46	0	4
NMTAP	46	0	5
NMTAP	46	192	4
NMTAP	46	192	5
NMTAP	47	0	4
NMTAP	47	0	5
NMTAP	48	0	6
NMTAP	48	0	7
NMTAP	48	192	6
NMTAP	48	192	7
EXHLD	49	0	6	384
EXHLD	49	0	7	384
NMSTR	51	0	6
NMSI_	51	0	6	96	288	2
NMSTR	53	0	1
NMSI_	53	0	1	96	288	5
NMSTR	55	0	7
NMSI_	55	0	7	96	288	3
NMSTR	57	0	0
NMSI_	57	0	0	96	288	4
NMHLD	59	0	6	192
NMHLD	59	0	7	192
NMTAP	60	0	6
NMTAP	60	0	7
NMHLD	61	0	4	192
NMHLD	61	0	5	192
NMTAP	62	0	4
NMTAP	62	0	5
NMHLD	63	0	2	192
NMHLD	63	0	3	192
NMTAP	64	0	2
NMTAP	64	0	3
NMHLD	65	0	0	192
NMHLD	65	0	1	192
NMTAP	66	0	0
NMTAP	66	0	1
EXTAP	67	0	0
EXTAP	67	0	7
NMTAP	68	0	0
NMTAP	68	192	0
NMTAP	69	0	7
NMTAP	69	192	7
BRTAP	70	0	0
NMTAP	70	96	0
NMTAP	70	192	0
NMTAP	71	0	1
NMTAP	71	96	1
NMTAP	71	192	1
NMTAP	72	0	2
NMTAP	72	96	2
NMTAP	72	192	2
NMTAP	73	0	3
NMTAP	73	0	4
NMTAP	73	192	3
NMTAP	73	192	4
NMTAP	74	0	4
NMTAP	74	96	4
NMTAP	74	192	4
NMTAP	75	0	5
NMTAP	75	96	5
NMTAP	75	192	5
NMTAP	76	0	6
NMTAP	76	96	6
NMTAP	76	192	6
NMTAP	77	0	0
NMTAP	77	0	7
EXTAP	77	192	0
EXTAP	77	192	7
NMTAP	78	0	7
NMTAP	78	96	7
NMTAP	78	192	7
NMTAP	79	0	6
NMTAP	79	96	6
NMTAP	79	192	6
NMTAP	80	0	5
NMTAP	80	96	5
NMTAP	80	192	5
NMTAP	81	0	4
NMTAP	81	96	4
NMTAP	81	192	3
NMTAP	81	192	4
NMTAP	82	0	3
NMTAP	82	96	3
NMTAP	82	192	3
NMTAP	83	0	2
NMTAP	83	96	2
NMTAP	83	192	2
NMTAP	84	0	1
NMTAP	84	96	1
NMTAP	84	192	1
NMTAP	85	0	0
NMTAP	85	96	0
NMTAP	85	192	0
BRTAP	86	0	0
BRTAP	86	0	7

T_REC_TAP	126
T_REC_BRK	3
T_REC_XTP	11
T_REC_BXX	1
T_REC_HLD	16
T_REC_XHO	2
T_REC_BHO	0
T_REC_BXH	0
T_REC_STR	4
T_REC_BST	0
T_REC_XST	0
T_REC_XBS	0
T_REC_TTP	8
T_REC_THO	0
T_REC_SLD	4
T_REC_BSL	0
T_REC_ALL	175
T_NUM_TAP	149
T_NUM_BRK	4
T_NUM_HLD	18
T_NUM_SLD	4
T_NUM_ALL	175
T_JUDGE_TAP	153
T_JUDGE_HLD	112
T_JUDGE_SLD	4
T_JUDGE_ALL	269
TTM_EACHPAIRS	38
TTM_SCR_TAP	74500
TTM_SCR_BRK	10400
TTM_SCR_HLD	18000
TTM_SCR_SLD	6000
TTM_SCR_ALL	108900
TTM_SCR_S	105250
TTM_SCR_SS	108500
TTM_RAT_ACV	10036

