VERSION	0.00.00	1.05.00
FES_MODE	0
BPM_DEF	201.000	201.000	201.000	201.000
MET_DEF	4	4
RESOLUTION	384
CLK_DEF	384
COMPATIBLE_CODE	MA2

BPM	0	0	201.000
MET	0	0	4	4

BRTAP	1	0	0
NMTTP	2	0	3	E	0	M1
NMTTP	2	96	3	E	0	M1
NMTAP	2	192	4
NMTAP	2	240	4
NMTAP	2	288	4
EXTAP	2	336	4
NMTAP	3	0	5
NMTAP	3	24	3
NMTAP	3	48	5
NMTAP	3	72	3
NMTAP	3	96	5
NMTAP	3	120	3
NMTAP	3	144	5
NMTAP	3	168	3
NMTAP	3	192	5
NMTAP	3	216	3
NMTAP	3	240	5
NMTAP	3	264	3
NMTTP	3	288	6	B	0	M1
NMTTP	3	288	7	B	0	M1
NMTTP	3	288	7	E	1	M1
EXSTR	4	0	2
NMSCL	4	0	2	96	48	7
NMSTR	4	96	4
NMSV_	4	96	4	96	48	1
NMSTR	4	192	3
NMSV_	4	192	3	96	48	6
NMSTR	4	288	5
NMSCR	4	288	5	96	48	0
NMSTR	5	0	2
NMSCL	5	0	2	96	48	7
NMSTR	5	96	4
NMSV_	5	96	4	96	48	1
NMSTR	5	192	3
NMSV_	5	192	3	96	48	6
NMSTR	5	288	5
NMSCR	5	288	5	96	48	0
NMSTR	6	0	2
NMSCL	6	0	2	96	48	7
NMSTR	6	96	4
NMSV_	6	96	4	96	48	1
NMSTR	6	192	3
NMSV_	6	192	3	96	48	6
NMTAP	6	288	5
NMTAP	7	0	1
NMTAP	7	48	1
NMTAP	7	96	2
NMTAP	7	96	4
NMTAP	7	192	6
NMTAP	7	240	6
NMTAP	7	288	3
EXSTR	7	288	5
NMSCR	7	288	5	96	48	0
EXSTR	8	0	2
NMSCL	8	0	2	96	48	7
NMSTR	8	96	4
NMSV_	8	96	4	96	48	1
NMSTR	8	192	3
NMSV_	8	192	3	96	48	6
NMSTR	8	288	5
NMSCR	8	288	5	96	48	0
NMSTR	9	0	2
NMSCL	9	0	2	96	48	7
NMSTR	9	96	4
NMSV_	9	96	4	96	48	1
NMSTR	9	192	3
NMSV_	9	192	3	96	48	6
NMSTR	9	288	5
NMSCR	9	288	5	96	48	0
NMSTR	10	0	2
NMSCL	10	0	2	96	48	7
NMTAP	10	96	4
NMTAP	10	192	1
EXSTR	10	288	7
NMSI_	10	288	7	96	48	3
EXSTR	10	336	0
NMSI_	10	336	0	96	48	2
EXSTR	11	0	7
NMSI_	11	0	7	96	48	5
EXSTR	11	48	0
NMSI_	11	48	0	96	48	4
EXSTR	11	96	7
NMSI_	11	96	7	96	48	3
EXTAP	11	144	0
EXTAP	11	192	7
BXTAP	11	288	1
BXTAP	11	288	5
EXTAP	12	0	2
EXSTR	12	48	2
NMSXR	12	48	2	96	288	5
NMTAP	12	144	5
NMTAP	12	192	5
NMTAP	12	288	6
NMTAP	12	336	6
NMTAP	13	48	7
NMHLD	13	96	7	96
NMTAP	13	192	4
NMTAP	13	240	3
NMTAP	13	288	3
NMTTP	14	0	2	A	0	M1
NMTTP	14	96	2	B	0	M1
NMTTP	14	96	3	E	0	M1
NMTTP	14	192	5	B	0	M1
NMTTP	14	192	5	E	0	M1
NMTTP	14	192	6	B	0	M1
NMTAP	14	288	7
NMSTR	14	336	0
NMSI_	14	336	0	96	48	4
EXTAP	15	48	0
EXTAP	15	144	3
EXTAP	15	144	5
EXTAP	15	192	3
EXTAP	15	192	5
EXTAP	15	288	2
EXTAP	15	288	6
NMSTR	16	0	5
NMSI_	16	0	5	96	48	1
NMTAP	16	96	3
NMTAP	16	192	2
NMSTR	16	240	2
NMSI_	16	240	2	96	48	6
NMSTR	16	336	5
NMSCR	16	336	5	96	48	0
NMTAP	17	48	3
NMHLD	17	144	2	96
NMTAP	17	240	4
NMTAP	17	288	4
NMTAP	18	0	6
NMTAP	18	32	4
NMTAP	18	64	5
NMTAP	18	96	1
NMTAP	18	128	3
NMTAP	18	160	2
NMTAP	18	192	5
NMTAP	18	224	4
NMTAP	18	256	6
NMTAP	18	288	2
NMSTR	18	336	2
NMSXL	18	336	2	96	240	5
NMTAP	19	48	7
NMTAP	19	96	7
NMTAP	19	192	0
NMTAP	19	288	7
NMSTR	20	0	6
NMSLL	20	0	6	96	96	2
NMTAP	20	96	7
NMTAP	20	144	0
NMSTR	20	192	1
NMSLR	20	192	1	96	96	5
NMTAP	20	288	6
NMSTR	20	336	7
NMSXR	20	336	7	96	192	3
NMTAP	21	48	3
NMTAP	21	144	1
NMTAP	21	240	0
NMSTR	21	288	0
NMSI_	21	288	0	96	96	4
NMSTR	22	0	4
NMSCR	22	0	4	96	96	7
NMSTR	22	96	7
NMSI_	22	96	7	96	96	3
NMSTR	22	192	3
NMSCL	22	192	3	96	96	0
NMSTR	22	288	0
NMSF_	22	288	0	96	96	4
EXTAP	23	144	2
EXTAP	23	144	6
EXTAP	23	192	2
EXTAP	23	192	6
NMSTR	23	288	1
NMSV_	23	288	1	96	96	7
NMSTR	23	288	5
NMSV_	23	288	5	96	96	7
NMTAP	24	192	0
NMTAP	24	192	6
NMTAP	24	240	0
NMTAP	24	240	6
NMSTR	24	336	1
NMSLR	24	336	1	96	72	5
NMSTR	24	336	7
NMSLL	24	336	7	96	72	3
CNSI_	25	120	3	0	24	1
CNSI_	25	120	5	0	24	7
NMTAP	25	240	1
NMTAP	25	240	7
NMTAP	25	288	1
NMTAP	25	288	7
NMTAP	26	0	0
NMTAP	26	0	6
NMTAP	26	96	2
NMTAP	26	96	3
NMTAP	26	192	4
NMTAP	26	192	5
NMSTR	26	240	4
NMSI_	26	240	4	96	48	1
NMSTR	26	240	5
NMSI_	26	240	5	96	48	7
NMTTP	26	336	3	B	0	M1
NMTTP	26	336	3	E	0	M1
NMTTP	26	336	4	B	1	M1
NMTTP	26	336	5	B	0	M1
NMTTP	26	336	6	E	0	M1
EXTAP	27	48	0
NMTAP	27	144	1
NMTAP	27	144	7
NMTAP	27	192	1
NMTAP	27	192	7
NMSTR	27	288	3
NMSLL	27	288	3	96	144	7
NMTAP	27	288	5
NMTTP	28	0	5	E	1	M1
CNSCL	28	144	7	0	48	6
CNSXL	28	192	6	0	384	2
EXHLD	28	336	4	240
NMTAP	29	288	1
NMTAP	29	288	3
NMTAP	30	0	0
NMTAP	30	0	1
NMTAP	30	96	6
NMTAP	30	96	7
NMTAP	30	192	4
NMTAP	30	192	6
NMSTR	30	240	4
NMSI_	30	240	4	96	48	2
NMSTR	30	240	6
NMSI_	30	240	6	96	48	4
NMTAP	31	48	0
NMTAP	31	96	0
NMTAP	31	192	7
NMTAP	31	240	2
NMTAP	31	240	6
NMTAP	31	288	2
NMSTR	31	288	6
NMSCL	31	288	6	96	48	5
NMHLD	32	0	7	288
CNSI_	32	48	5	0	96	1
CNSCR	32	144	1	0	48	3
NMTAP	32	288	5
NMHLD	32	336	5	96
NMHLD	33	48	3	96
NMHLD	33	144	1	96
NMTAP	33	240	0
NMSTR	33	288	0
NMSV_	33	288	0	96	96	3
NMSV_	33	288	0	96	96	5
NMTAP	34	192	2
NMTAP	34	192	6
NMTAP	34	288	1
NMHLD	34	336	1	96
NMTAP	35	48	3
NMHLD	35	96	3	96
NMHLD	35	192	5	96
NMSTR	35	288	7
NMSI_	35	288	7	96	48	3
NMTTP	36	0	2	E	0	M1
NMTTP	36	0	2	A	0	M1
NMTTP	36	0	2	D	1	M1
NMTAP	36	0	7
NMTAP	36	192	4
NMTAP	36	288	4
NMTTP	36	336	1	A	0	M1
NMTTP	36	336	2	E	0	M1
NMTTP	36	336	2	D	0	M1
NMTTP	36	360	0	B	0	M1
NMTTP	36	360	0	E	0	M1
NMTTP	36	360	0	A	0	M1
NMTTP	37	0	5	B	0	M1
NMTTP	37	0	5	E	1	M1
NMTTP	37	0	5	A	0	M1
NMTTP	37	0	6	E	0	M1
NMTTP	37	0	6	D	0	M1
NMTAP	37	192	3
NMTAP	37	288	3
NMTTP	38	0	0	A	1	M1
NMTTP	38	0	1	E	0	M1
NMTTP	38	0	1	D	0	M1
NMTAP	38	192	3
NMTAP	38	288	3
NMTTP	38	336	0	A	0	M1
NMTTP	38	336	1	E	0	M1
NMTTP	38	336	1	D	0	M1
NMTTP	38	360	0	C	0	M1
NMTTP	38	360	6	B	0	M1
NMTTP	38	360	7	B	0	M1
NMTTP	39	0	4	A	1	M1
NMTTP	39	0	5	E	0	M1
NMTTP	39	0	5	A	0	M1
NMTTP	39	0	5	D	0	M1
NMTAP	39	192	3
NMTAP	39	288	3
NMTTP	40	0	2	B	0	M1
NMTTP	40	0	2	E	0	M1
NMTTP	40	0	2	A	1	M1
NMTTP	40	0	2	D	0	M1
NMTTP	40	0	3	E	0	M1
NMTTP	40	0	3	D	0	M1
NMTAP	40	96	4
NMTTP	40	192	1	B	0	M1
NMTTP	40	192	1	E	0	M1
NMTTP	40	192	1	A	1	M1
NMTTP	40	192	1	D	0	M1
NMTTP	40	192	2	E	0	M1
NMTTP	40	192	2	D	0	M1
NMTAP	40	288	7
NMTTP	41	0	6	B	0	M1
NMTTP	41	0	6	E	0	M1
NMTTP	41	0	6	A	1	M1
NMTTP	41	0	6	D	0	M1
NMTTP	41	0	7	E	0	M1
NMTTP	41	0	7	D	0	M1
NMTAP	41	96	3
NMTTP	41	192	5	B	0	M1
NMTTP	41	192	5	E	0	M1
NMTTP	41	192	5	A	1	M1
NMTTP	41	192	5	D	0	M1
NMTTP	41	192	6	E	0	M1
NMTTP	41	192	6	D	0	M1
EXHLD	41	288	1	96
BXTAP	42	0	3
NMTAP	42	24	2
NMTAP	42	48	3
NMTAP	42	72	2
NMTAP	42	96	3
NMTAP	42	120	2
NMTAP	42	144	3
NMTAP	42	168	2
NMTAP	42	192	4
NMTAP	42	216	3
NMTAP	42	240	4
NMTAP	42	264	3
NMSTR	42	288	4
BRSV_	42	288	4	96	48	3
BRTAP	43	0	2
NMSTR	43	192	1
BRSI_	43	192	1	96	48	6
BRSTR	43	288	1
NMSCR	43	288	1	96	96	5
NMSTR	44	0	5
NMSCR	44	0	5	96	96	1
NMSTR	44	96	1
NMSCR	44	96	1	96	96	5
NMSTR	44	192	5
NMSCR	44	192	5	96	96	1
NMTAP	44	288	1
NMTAP	45	0	5
BRTAP	45	96	3
BRTAP	45	96	7
BRTAP	45	192	1
BRTAP	45	192	5
NMTAP	45	240	2
NMTAP	45	288	4
NMTAP	45	336	5
NMSTR	46	0	6
NMSI_	46	0	6	96	48	3
NMTAP	46	48	6
NMSTR	46	96	2
NMSI_	46	96	2	96	48	7
NMTAP	46	144	2
NMTAP	46	192	4
NMSTR	46	240	5
NMSI_	46	240	5	96	48	2
NMTAP	46	288	5
NMHLD	46	336	1	96
NMSTR	47	48	4
NMSCR	47	48	4	96	96	0
NMTAP	47	96	4
NMTAP	47	144	3
NMSTR	47	192	3
NMSF_	47	192	3	96	48	7
BXSTR	48	0	1
NMSI_	48	0	1	96	48	3
BXSTR	48	0	5
NMSI_	48	0	5	96	48	7
NMSTR	48	96	1
NMSV_	48	96	1	96	48	4
NMSTR	48	96	5
NMSV_	48	96	5	96	48	0
NMTAP	48	192	1
NMTAP	48	192	5
NMTAP	48	288	2
NMTAP	48	288	6
NMSTR	48	336	2
NMSCL	48	336	2	96	48	7
NMSTR	48	336	6
NMSCL	48	336	6	96	48	3
NMTAP	49	48	2
NMTAP	49	48	6
BRTAP	49	144	1
BRTAP	49	144	5
BRTAP	49	192	1
BRTAP	49	192	5
NMTAP	49	240	2
NMTAP	49	288	3
NMTAP	49	336	4
NMTAP	50	0	5
NMSTR	50	48	4
NMSI_	50	48	4	96	48	2
NMSTR	50	96	5
NMSI_	50	96	5	96	48	7
NMSTR	50	144	4
NMSI_	50	144	4	96	48	1
NMSTR	50	192	5
NMSI_	50	192	5	96	48	0
NMTAP	50	240	4
NMTAP	50	288	5
EXTAP	50	336	4
BRTAP	51	0	7
BRTAP	51	48	7
BRTAP	51	96	2
BRTAP	51	96	6
BRTAP	51	144	2
BRTAP	51	144	6
BRTAP	51	192	1
BRTAP	51	192	5
BRTAP	51	240	1
BRTAP	51	240	5
EXSTR	51	288	6
NMSI_	51	288	6	96	48	4
NMSTR	52	0	0
NMSXL	52	0	0	96	96	2
NMTAP	52	48	0
EXTAP	52	96	5
EXTAP	52	144	5
NMTAP	52	192	4
NMHLD	52	288	1	72
NMHLD	52	360	3	72
NMHLD	53	48	2	72
NMHLD	53	120	6	72
NMHLD	53	192	4	72
NMHLD	53	264	7	72
NMTAP	53	336	5
NMHLD	54	48	3	48
NMHLD	54	48	6	48
NMTAP	54	144	5
NMTAP	54	168	4
NMTAP	54	192	5
NMTAP	54	216	4
NMTAP	54	240	6
NMSTR	54	264	7
NMSV_	54	264	7	96	48	1
NMSXR	54	264	7	96	48	5
EXTAP	55	96	2
EXSTR	55	96	4
NMSCL	55	96	4	96	24	3
CNSI_	55	216	3	0	72	6
CNSXL	55	288	6	0	72	0
CNSCL	55	360	0	0	24	7
CNSI_	56	0	7	0	96	2
NMHLD	56	96	1	96
NMHLD	56	288	3	48
NMHLD	56	288	5	48
NMTAP	57	0	2
NMTAP	57	24	4
NMTAP	57	48	2
NMTAP	57	72	4
NMTAP	57	96	2
NMTAP	57	120	4
NMHLD	57	144	2	48
NMTAP	57	192	6
NMTAP	57	216	4
NMTAP	57	240	6
NMTAP	57	264	4
NMTAP	57	288	6
NMTAP	57	312	4
NMTAP	57	336	5
NMHLD	58	0	1	72
NMHLD	58	72	3	72
NMHLD	58	144	5	72
NMHLD	58	216	7	72
NMTAP	58	288	0
NMTAP	58	336	0
EXTAP	59	0	1
NMTAP	59	24	2
NMTAP	59	48	3
NMTAP	59	72	4
EXTAP	59	96	7
NMTAP	59	120	6
NMTAP	59	144	5
NMTAP	59	168	4
EXTAP	59	192	1
NMTAP	59	216	2
NMTAP	59	240	3
NMTAP	59	264	4
EXTAP	59	288	7
NMTAP	59	312	6
NMTAP	59	336	5
NMTAP	59	360	4
NMSTR	60	0	1
NMSI_	60	0	1	96	48	5
NMSI_	60	0	1	96	48	6
NMTAP	60	192	0
NMSTR	60	192	1
NMSI_	60	192	1	96	48	5
NMSI_	60	192	1	96	48	6
NMSTR	61	0	1
NMSI_	61	0	1	96	48	5
NMSI_	61	0	1	96	48	6
NMTAP	61	0	2
EXTAP	61	192	3
EXTAP	61	192	7
EXTAP	61	288	3
EXTAP	61	288	7
NMSTR	62	0	2
NMSI_	62	0	2	96	96	5
NMSTR	62	96	5
NMSUL	62	96	5	96	96	1
NMSTR	62	192	1
NMSV_	62	192	1	96	96	6
NMSTR	62	288	6
NMSCL	62	288	6	96	192	0
NMTAP	63	0	7
NMTAP	63	96	7
NMTAP	63	192	5
NMTAP	63	288	5
NMSTR	64	0	1
NMSI_	64	0	1	96	48	4
NMSI_	64	0	1	96	48	6
NMTAP	64	192	0
NMSTR	64	192	1
NMSI_	64	192	1	96	48	6
NMSV_	64	192	1	96	48	4
NMSTR	65	0	1
NMSV_	65	0	1	96	48	4
NMSV_	65	0	1	96	48	6
NMTAP	65	0	2
EXTAP	65	192	3
EXTAP	65	192	7
EXTAP	65	288	2
EXTAP	65	288	6
NMSTR	66	0	7
NMSI_	66	0	7	96	96	4
NMSTR	66	96	4
NMSI_	66	96	4	96	96	0
NMSTR	66	192	0
NMSI_	66	192	0	96	96	3
NMSTR	66	288	3
NMSI_	66	288	3	96	96	7
NMTAP	67	0	7
NMTAP	67	96	0
NMTAP	67	192	0
NMTAP	67	216	7
NMTAP	67	240	0
NMTAP	67	264	7
NMTAP	67	288	0
NMSTR	68	0	6
NMSLL	68	0	6	96	48	2
NMSTR	68	0	7
NMSV_	68	0	7	96	48	2
NMSTR	68	192	6
NMSV_	68	192	6	96	48	3
NMSTR	68	192	7
NMSLR	68	192	7	96	48	3
NMSTR	69	0	6
NMSLL	69	0	6	96	48	2
NMSTR	69	0	7
NMSLL	69	0	7	96	48	2
EXTAP	69	192	0
EXTAP	69	192	1
EXTAP	69	288	6
EXTAP	69	288	7
NMSTR	70	0	5
NMSI_	70	0	5	96	96	1
NMSTR	70	96	1
NMSI_	70	96	1	96	96	4
NMSTR	70	192	4
NMSI_	70	192	4	96	96	0
NMSTR	70	288	0
NMSI_	70	288	0	96	96	5
NMSTR	71	0	5
NMSCR	71	0	5	96	192	3
NMTAP	71	96	4
NMTAP	71	192	4
NMTAP	71	288	4
NMSTR	72	0	0
NMSV_	72	0	0	96	48	2
NMSTR	72	0	6
BRSCL	72	0	6	96	48	4
NMSTR	72	192	1
BRSI_	72	192	1	96	48	3
NMSTR	72	192	7
NMSV_	72	192	7	96	48	5
NMSTR	73	0	0
NMSV_	73	0	0	96	48	2
NMSTR	73	0	6
BRSI_	73	0	6	96	48	4
NMTAP	73	192	1
NMTAP	73	192	7
NMTAP	73	288	1
NMTAP	73	288	7
NMSTR	74	0	0
NMSCR	74	0	0	96	96	3
NMSTR	74	96	3
NMSI_	74	96	3	96	96	7
NMSTR	74	192	7
NMSCL	74	192	7	96	96	4
NMSTR	74	288	4
NMSI_	74	288	4	96	96	0
NMSTR	75	0	0
NMSCR	75	0	0	96	96	3
NMTAP	75	96	3
NMTAP	75	192	4
NMHLD	75	288	4	384
NMSTR	75	288	5
BRSI_	75	288	5	96	48	0
BRTAP	76	0	5
NMSTR	76	288	0
NMSCL	76	288	0	96	288	5
CNSV_	77	288	5	0	192	2
NMSTR	77	336	3
NMSLR	77	336	3	96	288	7
NMSTR	78	288	2
NMSI_	78	288	2	96	288	7
CNSI_	78	336	7	0	144	4
CNSCR	79	288	7	0	96	0
NMSTR	79	336	5
NMSCR	79	336	5	96	48	6
CNSI_	80	0	0	0	96	4
CNSI_	80	96	6	0	192	1
NMSTR	80	288	0
NMSI_	80	288	0	96	96	3
CNSUR	80	288	1	0	192	7
CNSV_	81	96	3	0	192	2
CNSI_	81	288	2	0	288	7
NMSTR	81	288	4
NMSI_	81	288	4	96	192	0
NMSTR	82	288	1
NMSCR	82	288	1	96	96	2
NMSTR	82	288	5
NMSCR	82	288	5	96	96	6
CNSI_	83	96	2	0	288	5
CNSI_	83	96	6	0	288	1
EXTAP	84	288	0
EXTAP	84	288	7
NMTAP	85	0	2
NMTTP	85	0	6	E	0	M1
NMTAP	85	96	1
NMTTP	85	96	5	E	0	M1
NMHLD	85	192	0	96
NMTTP	85	192	3	B	0	M1
NMTAP	85	288	5
NMTTP	86	0	2	E	0	M1
NMTAP	86	0	5
NMTTP	86	96	3	E	0	M1
NMTAP	86	96	6
NMTTP	86	192	4	B	0	M1
NMHLD	86	192	7	96
NMTAP	86	288	2
NMTAP	87	0	2
NMTTP	87	0	6	D	0	M1
NMTAP	87	96	1
NMTTP	87	96	5	D	0	M1
NMTAP	87	192	0
NMTTP	87	192	3	A	0	M1
NMTTP	87	288	2	A	0	M1
NMTAP	87	288	7
NMTTP	88	0	3	B	0	M1
NMTAP	88	0	7
NMTAP	88	96	0
NMTTP	88	96	4	B	0	M1
NMHLD	88	192	1	96
NMTTP	88	192	6	E	0	M1
NMTAP	88	288	6
NMTTP	89	0	3	E	0	M1
NMHLD	89	0	7	96
NMTAP	89	96	2
NMHLD	89	192	0	96
NMTTP	89	192	5	E	0	M1
NMTAP	89	288	5
NMTTP	90	0	2	E	0	M1
NMTAP	90	0	5
NMTTP	90	96	3	E	0	M1
NMTAP	90	96	6
NMTTP	90	192	4	B	0	M1
NMHLD	90	192	7	96
NMTAP	90	288	3
EXTAP	91	0	2
NMTAP	91	24	6
NMTAP	91	48	2
NMTAP	91	72	6
NMTAP	91	96	2
NMTAP	91	120	6
NMTAP	91	144	2
NMTAP	91	168	6
NMTAP	91	192	3
NMTAP	91	216	7
NMTAP	91	240	3
NMTAP	91	264	7
NMTAP	91	288	4
NMTAP	91	312	0
NMTAP	91	336	4
NMTAP	91	360	0
BRTAP	92	0	5
BRTAP	92	48	6
BRTAP	92	96	7
BRTAP	92	144	0
BRTAP	92	192	1
BRTAP	92	240	2
BRSTR	92	288	3
NMSI_	92	288	3	96	48	7
NMSTR	93	0	3
NMSI_	93	0	3	96	48	1
NMSI_	93	0	3	96	48	5
NMSTR	93	96	3
NMSF_	93	96	3	96	48	7
BRTAP	93	192	3
NMTAP	93	288	1
NMSTR	93	288	5
NMSI_	93	288	5	96	48	1
NMSTR	93	336	1
NMSI_	93	336	1	96	48	4
NMTAP	93	336	5
NMTAP	94	48	0
NMTAP	94	96	0
NMTAP	94	144	1
NMTAP	94	192	2
NMTAP	94	192	5
NMTAP	94	240	4
NMSTR	94	288	3
NMSI_	94	288	3	96	48	6
NMTAP	94	336	2
NMSTR	95	0	3
NMSI_	95	0	3	96	48	0
NMSTR	95	96	3
NMSI_	95	96	3	96	48	7
NMSTR	95	192	3
NMSXR	95	192	3	96	240	0
NMTAP	95	288	5
NMTAP	95	336	5
NMTAP	96	48	6
NMTAP	96	96	5
NMTAP	96	144	4
NMSTR	96	192	3
NMSI_	96	192	3	96	48	0
NMTAP	96	288	3
NMSTR	96	288	7
NMSI_	96	288	7	96	48	4
NMSI_	96	288	7	96	48	5
NMSTR	97	0	7
NMSI_	97	0	7	96	48	1
NMSI_	97	0	7	96	48	2
NMTAP	97	96	7
NMTAP	97	192	4
NMSTR	97	240	4
NMSI_	97	240	4	96	48	7
NMSTR	97	336	0
NMSI_	97	336	0	96	48	2
NMSI_	97	336	0	96	48	3
NMTAP	97	336	4
NMTAP	98	48	0
NMTAP	98	144	1
NMTAP	98	144	4
NMTAP	98	192	1
NMTAP	98	192	4
NMTAP	98	240	2
NMSTR	98	288	3
NMSCL	98	288	3	96	96	7
NMSTR	99	0	7
NMSCL	99	0	7	96	96	3
NMSTR	99	96	3
NMSCL	99	96	3	96	96	7
NMTAP	99	192	7
NMTAP	99	288	3
NMTAP	100	0	5
NMTAP	100	48	5
BRTAP	100	96	3
BRTAP	100	108	2
BRTAP	100	120	1
BRTAP	100	132	0
BRTAP	100	144	7
BRTAP	100	156	6
BRTAP	100	168	5
BRTAP	100	180	4
BRTAP	100	192	3
BRTAP	100	204	2
BRTAP	100	216	1
BRTAP	100	228	0
BRTAP	100	240	7
BRTAP	100	252	6
BRTAP	100	264	5
BRTAP	100	276	4
BRTAP	100	288	3
NMSTR	101	0	1
NMSI_	101	0	1	96	48	3
NMSTR	101	48	0
NMSI_	101	48	0	96	48	6
NMSTR	101	96	1
NMSI_	101	96	1	96	48	5
NMSTR	101	144	0
NMSI_	101	144	0	96	48	4
NMTAP	101	192	1
NMTAP	101	240	0
NMSTR	101	336	6
NMSI_	101	336	6	96	48	4
NMSTR	102	0	7
NMSI_	102	0	7	96	48	1
NMSTR	102	48	6
NMSI_	102	48	6	96	48	2
NMSTR	102	96	7
NMSI_	102	96	7	96	48	3
NMTAP	102	144	6
NMTAP	102	192	7
NMSTR	102	288	1
NMSLL	102	288	1	96	96	5
NMTAP	102	288	4
NMSTR	103	0	5
NMSLR	103	0	5	96	96	1
NMTAP	103	96	3
NMTAP	103	192	4
NMTAP	103	288	6
NMSTR	103	336	6
NMSSL	103	336	6	96	96	2
NMTAP	104	48	2
NMTAP	104	96	1
NMTAP	104	144	0
NMTAP	104	192	0
BRTAP	104	288	2
BRTAP	104	288	6
NMSTR	105	0	1
NMSI_	105	0	1	96	48	4
NMSTR	105	48	7
NMSI_	105	48	7	96	48	3
NMSTR	105	96	1
NMSI_	105	96	1	96	48	5
NMSTR	105	144	7
NMSI_	105	144	7	96	48	2
NMSTR	105	192	1
NMSCR	105	192	1	96	48	4
NMTAP	105	240	7
NMTAP	105	288	1
NMSTR	105	336	6
NMSI_	105	336	6	96	48	3
NMSTR	106	0	0
NMSI_	106	0	0	96	48	4
NMSTR	106	48	6
NMSI_	106	48	6	96	48	2
NMSTR	106	96	0
NMSI_	106	96	0	96	48	5
NMSTR	106	144	6
NMSCL	106	144	6	96	48	3
NMTAP	106	192	0
NMTAP	106	240	6
EXTAP	106	288	0
NMTAP	107	0	0
NMTAP	107	24	6
NMTAP	107	48	0
NMTAP	107	72	6
NMTAP	107	96	0
NMTAP	107	120	6
NMTAP	107	144	0
NMTAP	107	168	6
NMTAP	107	192	1
NMTAP	107	216	5
NMTAP	107	240	1
NMTAP	107	264	5
NMTAP	107	288	2
NMTAP	107	312	4
NMTAP	107	336	2
NMTAP	107	360	4
BRTAP	108	0	3
NMTAP	108	24	5
BRTAP	108	48	3
NMTAP	108	72	5
BRTAP	108	96	2
NMTAP	108	120	6
BRTAP	108	144	2
NMTAP	108	168	6
BRTAP	108	192	1
NMTAP	108	216	7
BRTAP	108	240	1
NMTAP	108	264	7
BRSTR	108	288	0
NMSLL	108	288	0	96	240	4
NMSLR	108	288	0	96	240	4
NMTTP	110	0	2	A	0	M1
NMTTP	110	24	4	B	0	M1
NMTTP	110	48	1	A	0	M1
NMTTP	110	72	7	B	0	M1
NMTTP	110	96	3	E	0	M1
NMTTP	110	120	5	E	0	M1
NMTTP	110	144	1	E	0	M1
NMTTP	110	168	7	E	0	M1
NMTTP	110	192	3	B	0	M1
NMTTP	110	216	5	A	0	M1
NMTTP	110	240	0	B	0	M1
NMTTP	110	264	6	A	0	M1
NMTTP	110	288	0	C	1	M1
EXSTR	111	0	1
NMSI_	111	0	1	96	48	5
NMTAP	111	96	0
BRTAP	111	96	1
NMSTR	111	192	6
NMSI_	111	192	6	96	48	4
NMTAP	111	240	7
BRTAP	111	288	6
NMTAP	111	336	3
NMSTR	112	0	2
NMSI_	112	0	2	96	48	6
NMTAP	112	48	7
BRTAP	112	96	2
NMSTR	112	192	7
NMSI_	112	192	7	96	48	3
NMTAP	112	240	4
BRTAP	112	288	7
NMTAP	112	336	2
NMSTR	113	0	1
NMSI_	113	0	1	96	48	4
BRTAP	113	96	1
NMTAP	113	96	7
NMTAP	113	144	6
NMSTR	113	192	5
NMSI_	113	192	5	96	48	1
BRTAP	113	288	5
NMTAP	113	336	7
NMSTR	114	0	0
NMSI_	114	0	0	96	48	3
BRTAP	114	96	0
NMTAP	114	96	3
NMSTR	114	192	4
NMSI_	114	192	4	96	48	0
NMTAP	114	240	5
BRTAP	114	288	4
NMTAP	114	336	3
NMSTR	115	0	2
NMSI_	115	0	2	96	48	5
BRTAP	115	96	2
NMSTR	115	192	6
NMSI_	115	192	6	96	48	0
NMTAP	115	240	7
BRTAP	115	288	6
NMTAP	115	336	4
NMSTR	116	0	3
NMSI_	116	0	3	96	48	7
NMTAP	116	48	7
BRTAP	116	96	3
NMSTR	116	192	5
NMSI_	116	192	5	96	48	2
NMTAP	116	240	4
BRTAP	116	288	5
NMTAP	116	336	1
NMSTR	117	0	0
NMSI_	117	0	0	96	48	4
BRTAP	117	96	0
NMTAP	117	96	5
NMSTR	117	192	7
NMSI_	117	192	7	96	48	3
NMTAP	117	240	6
BRTAP	117	288	7
BRTAP	118	0	0
BRTAP	118	0	2
BRTAP	118	48	0
BRTAP	118	48	2
BRTAP	118	96	1
BRTAP	118	96	7
BRTAP	118	144	1
BRTAP	118	144	7
BRTAP	118	192	0
BRTAP	118	192	6
BRTAP	118	240	0
BRTAP	118	240	6
BRSTR	118	288	5
NMSI_	118	288	5	96	48	2
BRTAP	118	288	7
BXTAP	119	0	5
NMSTR	119	0	6
NMSI_	119	0	6	96	48	1
NMSTR	119	96	5
NMSI_	119	96	5	96	48	3
BXTAP	119	96	6
BXTAP	119	192	5
NMSTR	119	192	6
NMSI_	119	192	6	96	48	0
NMSTR	119	288	5
NMSI_	119	288	5	96	48	2
BXTAP	119	288	6
BXTAP	120	0	5
NMSTR	120	0	6
NMSI_	120	0	6	96	48	1
NMSTR	120	96	5
NMSI_	120	96	5	96	48	3
BXTAP	120	96	6
BXTAP	120	192	5
NMSTR	120	192	6
NMSI_	120	192	6	96	48	0
BRTAP	120	288	6
NMSTR	121	0	4
NMSI_	121	0	4	96	48	1
NMSTR	121	0	5
NMSI_	121	0	5	96	48	0
BRTAP	121	96	4
BRTAP	121	96	5
NMSTR	121	192	6
NMSI_	121	192	6	96	48	3
NMSTR	121	192	7
NMSI_	121	192	7	96	48	2
BRTAP	121	288	6
BRTAP	121	288	7
NMSTR	122	0	4
NMSI_	122	0	4	96	48	1
NMSTR	122	0	5
NMSI_	122	0	5	96	48	0
BRTAP	122	96	4
BRTAP	122	96	5
BRTAP	122	192	7
BRTAP	122	240	6
BRSTR	122	288	5
NMSI_	122	288	5	96	48	2
BXTAP	123	0	5
NMSTR	123	0	6
NMSI_	123	0	6	96	48	1
NMSTR	123	96	5
NMSI_	123	96	5	96	48	3
BXTAP	123	96	6
BXTAP	123	192	5
NMSTR	123	192	6
NMSI_	123	192	6	96	48	0
NMSTR	123	288	5
NMSI_	123	288	5	96	48	2
BXTAP	123	288	6
BXTAP	124	0	5
NMSTR	124	0	6
NMSI_	124	0	6	96	48	1
NMSTR	124	96	5
NMSI_	124	96	5	96	48	3
BXTAP	124	96	6
BXTAP	124	192	5
NMSTR	124	192	6
NMSI_	124	192	6	96	48	0
BRTAP	124	288	6
NMSTR	125	0	4
BRSI_	125	0	4	96	48	0
NMSTR	125	0	5
BRSI_	125	0	5	96	48	1
BRTAP	125	96	4
BRTAP	125	96	5
NMSTR	125	192	6
BRSI_	125	192	6	96	48	2
NMSTR	125	192	7
BRSI_	125	192	7	96	48	3
BRTAP	125	288	6
BRTAP	125	288	7
BRTAP	126	0	1
BRTAP	126	0	4
NMTAP	126	48	2
NMTAP	126	72	3
NMTAP	126	96	1
NMTAP	126	144	0
NMTAP	126	144	7
BRSTR	126	192	5
BRSF_	126	192	5	96	48	1
NMTAP	126	240	4
NMTAP	126	240	6

T_REC_TAP	328
T_REC_BRK	96
T_REC_XTP	40
T_REC_BXX	17
T_REC_HLD	33
T_REC_XHO	2
T_REC_BHO	0
T_REC_BXH	0
T_REC_STR	182
T_REC_BST	6
T_REC_XST	12
T_REC_XBS	2
T_REC_TTP	99
T_REC_THO	0
T_REC_SLD	204
T_REC_BSL	11
T_REC_ALL	1032
T_NUM_TAP	661
T_NUM_BRK	132
T_NUM_HLD	35
T_NUM_SLD	204
T_NUM_ALL	1032
T_JUDGE_TAP	782
T_JUDGE_HLD	78
T_JUDGE_SLD	215
T_JUDGE_ALL	1075
TTM_EACHPAIRS	114
TTM_SCR_TAP	330500
TTM_SCR_BRK	343200
TTM_SCR_HLD	35000
TTM_SCR_SLD	306000
TTM_SCR_ALL	1014700
TTM_SCR_S	971500
TTM_SCR_SS	1001500
TTM_RAT_ACV	10131

