VERSION	0.00.00	1.05.00
FES_MODE	0
BPM_DEF	201.000	201.000	201.000	201.000
MET_DEF	4	4
RESOLUTION	384
CLK_DEF	384
COMPATIBLE_CODE	MA2

BPM	0	0	201.000
MET	0	0	4	4

BXHLD	1	0	3	384
NMTAP	2	0	4
NMTAP	2	96	4
NMTAP	2	192	3
NMTAP	2	288	3
NMHLD	3	0	2	96
NMHLD	3	0	4	96
NMTAP	3	192	1
NMTAP	3	192	3
NMTAP	3	288	1
NMTAP	3	288	3
NMTTP	4	0	0	C	0	M1
NMTTP	4	0	6	B	1	M1
NMTAP	4	192	0
NMTAP	4	288	0
NMTAP	5	0	7
NMTAP	5	96	6
NMTAP	5	96	7
NMTAP	5	192	1
NMTAP	5	288	0
NMTAP	5	288	1
NMTAP	6	0	7
NMTAP	6	96	0
NMTAP	6	96	6
NMTAP	6	192	1
NMTAP	6	288	0
NMTAP	6	288	2
NMTAP	7	0	1
NMTAP	7	0	7
NMTAP	7	96	1
NMTAP	7	96	7
NMTAP	7	192	2
NMTAP	7	192	6
NMTAP	8	0	1
NMTAP	8	96	0
NMTAP	8	96	1
NMTAP	8	192	6
NMTAP	8	288	6
NMTAP	8	288	7
NMTAP	9	0	0
NMTAP	9	96	1
NMTAP	9	96	7
NMTAP	9	192	0
NMTAP	9	192	2
NMTAP	9	288	0
NMTAP	9	288	2
NMSTR	10	0	7
NMSCL	10	0	7	96	96	4
NMSTR	10	192	3
NMSCL	10	192	3	96	96	0
NMTAP	11	0	7
NMTAP	11	48	7
NMTAP	11	96	0
BRTAP	11	192	1
BRTAP	11	192	6
NMHLD	12	0	2	1056
NMTAP	12	192	4
NMTAP	12	288	4
NMTAP	13	0	3
NMTAP	13	96	3
NMTAP	13	192	4
NMTAP	13	288	4
EXTAP	14	0	3
EXTAP	14	96	3
NMTAP	14	192	1
NMSTR	14	288	1
NMSI_	14	288	1	96	144	4
NMTAP	15	288	3
NMTAP	15	288	5
NMHLD	16	0	6	576
NMTAP	16	192	4
NMTAP	16	288	4
NMTAP	17	0	5
NMTAP	17	96	5
NMTAP	17	192	7
NMTAP	17	288	0
NMTAP	17	288	7
NMTAP	18	0	0
NMTAP	18	0	1
NMTAP	18	96	0
NMTAP	18	96	7
NMHLD	18	192	6	96
BXTAP	18	288	7
BXTAP	18	336	7
NMTAP	19	48	5
NMTAP	19	96	5
EXTAP	19	192	4
EXTAP	19	192	6
EXTAP	19	288	4
EXTAP	19	288	6
NMSTR	20	0	3
NMSCL	20	0	3	96	96	0
NMTAP	20	192	7
NMTAP	20	288	7
NMSTR	21	0	6
NMSCL	21	0	6	96	96	3
NMTAP	21	192	2
NMTAP	21	288	2
NMHLD	22	0	1	96
NMHLD	22	0	3	96
NMTAP	22	192	2
NMTAP	22	192	4
NMTAP	22	288	1
NMTAP	22	288	3
NMHLD	23	0	0	96
NMHLD	23	0	4	96
NMTAP	23	192	1
NMTAP	23	240	1
NMTAP	23	288	3
NMSTR	24	0	2
NMSCR	24	0	2	96	96	5
NMTAP	24	192	6
NMTAP	24	288	6
EXSTR	25	0	5
NMSCL	25	0	5	96	96	2
NMTAP	25	192	1
NMTAP	25	288	1
NMHLD	26	0	2	96
NMHLD	26	0	3	96
NMTAP	26	192	3
NMSTR	26	192	4
NMSI_	26	192	4	96	144	1
NMSI_	26	192	4	96	144	7
BXTAP	27	192	2
BXTAP	27	192	6
NMTHO	28	0	2	192	B	0	M1
NMTHO	28	0	3	192	B	0	M1
NMTHO	28	0	3	192	E	0	M1
NMTHO	29	0	4	192	B	0	M1
NMTHO	29	0	5	192	B	0	M1
NMTHO	29	0	5	192	E	0	M1
NMTHO	30	0	1	192	B	0	M1
NMTHO	30	0	1	192	E	0	M1
NMTHO	30	0	2	192	E	0	M1
NMTHO	31	0	6	192	B	0	M1
NMTHO	31	0	7	192	B	0	M1
NMTHO	31	0	7	192	E	0	M1
NMTTP	32	0	0	E	0	M1
NMTTP	32	96	1	E	0	M1
NMTTP	32	192	2	E	0	M1
NMTTP	32	288	0	C	0	M1
NMTTP	33	0	7	E	0	M1
NMTTP	33	96	6	E	0	M1
NMTTP	33	192	5	E	0	M1
NMTTP	33	288	0	C	0	M1
EXTAP	34	0	0
EXHLD	34	0	1	336
NMTAP	34	336	7
NMTAP	35	48	0
NMTAP	35	48	6
NMSTR	35	96	0
NMSI_	35	96	0	96	96	4
NMTAP	35	96	6
BXHLD	36	0	5	288
NMTAP	36	192	4
NMTAP	36	288	3
BXHLD	37	0	2	288
NMTAP	37	192	3
NMTAP	37	288	4
BXHLD	38	0	6	192
NMTAP	38	192	4
NMTAP	38	288	3
BXHLD	39	0	1	192
NMTAP	39	192	0
NMTAP	39	288	7
NMHLD	40	0	4	96
NMHLD	40	0	6	96
NMHLD	40	192	4	96
NMHLD	40	192	5	96
NMHLD	41	0	2	96
NMHLD	41	0	3	96
NMHLD	41	192	1	96
NMHLD	41	192	3	96
NMTAP	42	0	2
NMTAP	42	48	2
NMTAP	42	96	5
NMTAP	42	144	5
NMTAP	42	192	3
NMTAP	42	240	3
NMTAP	42	288	4
EXTAP	43	0	2
EXTAP	43	0	5
NMTAP	43	288	0
NMTAP	43	288	7
BRTAP	44	0	0
BRTAP	44	0	1
NMTAP	44	96	0
NMTAP	44	96	1
NMTAP	44	192	2
NMTAP	44	192	7
NMTAP	44	240	2
NMTAP	44	240	7
NMTAP	44	336	4
NMTAP	44	336	5
NMTAP	45	48	6
NMTAP	45	48	7
NMTAP	45	144	0
NMTAP	45	144	5
NMTAP	45	192	0
NMTAP	45	192	5
EXTAP	45	288	1
EXTAP	45	288	4
NMTAP	46	0	2
NMTAP	46	0	3
NMTAP	46	96	5
NMTAP	46	144	5
NMTAP	46	192	4
NMTAP	46	288	6
NMTAP	46	288	7
NMTAP	46	336	6
NMTAP	46	336	7
NMTAP	47	48	0
NMTAP	47	48	5
BRTAP	47	144	2
BRTAP	47	144	3
EXTAP	47	240	3
EXTAP	47	240	4
EXTAP	47	288	3
EXTAP	47	288	4
BRTAP	48	0	4
BRTAP	48	0	5
NMTAP	48	96	6
NMTAP	48	96	7
NMTAP	48	192	0
NMTAP	48	192	5
NMTAP	48	240	0
NMTAP	48	240	5
NMTAP	48	336	2
NMTAP	48	336	3
NMTAP	49	48	0
NMTAP	49	48	1
NMTAP	49	144	2
NMTAP	49	144	7
BXTAP	49	192	2
BXTAP	49	192	7
NMTAP	49	288	3
NMTAP	49	288	6
NMSTR	50	0	4
NMSI_	50	0	4	96	96	1
NMSTR	50	0	5
NMSI_	50	0	5	96	96	0
EXTAP	50	288	2
EXTAP	50	288	7
EXTAP	50	336	2
EXTAP	50	336	7
EXTAP	51	48	0
EXTAP	51	48	5
EXTAP	51	96	0
EXTAP	51	96	5
BXTAP	51	192	1
BXTAP	51	192	6
NMHLD	52	0	1	96
NMHLD	52	0	7	96
EXHLD	52	192	0	96
NMHLD	52	192	6	96
NMHLD	53	0	0	96
EXHLD	53	0	1	96
BXHLD	53	192	6	96
EXHLD	53	192	7	96
NMHLD	54	0	0	96
BXHLD	54	0	6	96
BXHLD	54	192	2	96
BXHLD	54	192	4	96
NMTHO	55	0	2	192	E	0	M1
NMTHO	55	0	4	192	E	0	M1
NMHLD	56	0	1	192
NMHLD	56	192	3	192
NMHLD	57	0	4	192
NMHLD	57	192	6	192
NMTAP	58	0	7
NMTAP	58	96	6
NMTAP	58	96	7
NMTAP	58	192	0
NMTAP	58	288	0
NMTAP	58	288	1
NMTAP	59	0	7
NMTAP	59	48	7
NMTAP	59	96	7
BRTAP	59	192	0
BRTAP	59	192	6
NMSTR	60	0	1
NMSCR	60	0	1	96	96	4
NMSTR	60	192	0
NMSV_	60	192	0	96	96	5
NMSTR	61	0	1
NMSI_	61	0	1	96	96	4
NMTAP	61	192	7
NMTAP	61	288	6
NMHLD	62	0	5	96
NMTAP	62	96	4
NMHLD	62	192	6	96
NMTAP	62	288	7
NMTAP	63	0	5
NMTAP	63	48	5
NMTAP	63	96	4
BRTAP	63	192	3
BRTAP	63	192	6
NMSTR	64	0	6
NMSCL	64	0	6	96	96	3
NMSTR	64	192	7
NMSV_	64	192	7	96	96	2
NMSTR	65	0	6
NMSI_	65	0	6	96	96	3
NMTAP	65	192	0
NMTAP	65	288	1
NMHLD	66	0	2	96
NMTAP	66	96	3
NMHLD	66	192	1	96
NMTAP	66	288	0
NMTAP	67	0	2
NMTAP	67	48	2
NMTAP	67	96	3
BRTAP	67	192	1
BRTAP	67	192	4
NMSTR	68	0	1
NMSCL	68	0	1	96	96	6
NMSTR	68	192	5
NMSCL	68	192	5	96	96	2
NMSTR	69	0	1
NMSI_	69	0	1	96	96	5
NMTAP	69	192	7
NMTAP	69	288	7
NMHLD	70	0	6	96
NMHLD	70	96	5	96
NMHLD	70	192	4	96
NMHLD	70	288	5	96
NMHLD	71	0	6	96
NMTAP	71	96	5
NMTAP	71	192	4
NMTAP	71	192	7
NMSTR	72	0	6
NMSCR	72	0	6	96	96	1
NMSTR	72	192	2
NMSCR	72	192	2	96	96	5
NMSTR	73	0	6
NMSI_	73	0	6	96	96	2
NMTAP	73	192	0
NMTAP	73	288	0
NMHLD	74	0	1	96
NMHLD	74	96	2	96
NMHLD	74	192	3	96
NMHLD	74	288	2	96
NMHLD	75	0	1	96
NMTAP	75	96	2
NMTAP	75	192	0
NMTAP	75	192	3
NMHLD	76	0	2	96
NMHLD	76	0	4	96
BXHLD	76	192	1	1728
BXTAP	76	192	3
EXSTR	77	0	2
NMSI_	77	0	2	96	288	5
CNSI_	78	0	5	0	384	0
CNSI_	79	0	0	0	384	3
NMHLD	81	0	3	336
NMHLD	81	336	4	336
NMTHO	83	0	5	336	B	0	M1
NMTHO	83	0	6	336	B	0	M1
NMTHO	83	0	6	336	E	0	M1
NMTAP	84	288	0
NMTAP	84	288	7
NMHLD	85	0	6	96
NMHLD	85	0	7	96
NMHLD	85	192	6	96
NMHLD	85	192	7	96
NMTTP	86	0	6	B	0	M1
NMTTP	86	0	6	E	0	M1
NMTTP	86	96	3	B	0	M1
NMTTP	86	96	4	B	0	M1
NMTTP	86	96	4	E	0	M1
NMTTP	86	192	1	B	0	M1
NMTTP	86	192	2	E	0	M1
NMTAP	87	0	6
NMTAP	87	0	7
NMTAP	87	96	6
NMTAP	87	96	7
NMTAP	87	192	5
NMTAP	87	192	6
NMTAP	87	288	5
NMTAP	87	288	6
NMTAP	88	0	4
NMTAP	88	0	5
NMTAP	88	96	6
NMTAP	88	96	7
BRTAP	88	192	0
BRTAP	88	192	5
NMHLD	89	0	0	96
NMHLD	89	0	1	96
NMHLD	89	192	0	96
NMHLD	89	192	1	96
NMTTP	90	0	1	B	0	M1
NMTTP	90	0	2	E	0	M1
NMTTP	90	96	3	B	0	M1
NMTTP	90	96	4	B	0	M1
NMTTP	90	96	4	E	0	M1
NMTTP	90	192	6	B	0	M1
NMTTP	90	192	6	E	0	M1
NMTAP	91	0	0
NMTAP	91	0	1
NMTAP	91	96	0
NMTAP	91	96	1
NMTAP	91	192	6
NMTAP	91	192	7
NMTAP	91	288	6
NMTAP	91	288	7
NMTAP	92	0	5
NMTAP	92	48	5
NMTAP	92	96	3
NMTAP	92	144	3
NMTAP	92	192	4
EXTAP	92	288	2
EXTAP	92	288	3
BXSTR	93	0	0
NMSI_	93	0	0	96	48	5
BXSTR	93	0	1
NMSI_	93	0	1	96	48	4
NMTAP	93	192	3
NMTAP	93	192	6
NMTAP	93	240	3
NMTAP	93	240	6
BXSTR	93	336	6
NMSI_	93	336	6	96	48	3
BXSTR	93	336	7
NMSI_	93	336	7	96	48	2
NMTAP	94	144	1
NMTAP	94	144	4
NMTAP	94	192	1
NMTAP	94	192	4
NMTAP	94	288	0
NMTAP	94	288	3
NMTAP	95	0	1
NMTAP	95	0	2
NMTAP	95	96	0
NMTAP	95	96	7
NMTAP	95	192	5
NMTAP	95	192	6
NMTAP	95	288	4
NMTAP	95	336	4
NMTAP	96	48	3
NMTAP	96	48	5
BRTAP	96	144	2
BRTAP	96	144	4
NMTAP	96	240	1
NMTAP	96	240	3
NMTAP	96	288	1
NMTAP	96	288	3
NMHLD	97	0	2	96
NMTAP	97	96	0
NMTAP	97	192	3
NMTAP	97	192	7
NMTAP	97	240	3
NMTAP	97	240	7
NMHLD	97	336	5	96
NMTAP	98	48	7
NMTAP	98	144	0
NMTAP	98	144	4
NMTAP	98	192	0
NMTAP	98	192	4
NMHLD	98	288	2	96
NMHLD	99	0	0	96
NMHLD	99	96	7	96
NMTAP	99	192	5
EXTAP	99	288	3
EXTAP	99	288	4
EXSTR	99	336	3
NMSCL	99	336	3	96	96	0
EXSTR	99	336	4
NMSCR	99	336	4	96	96	7
NMTAP	100	240	0
NMTAP	100	240	7
BRTAP	100	288	0
BRTAP	100	288	7
NMSTR	101	0	0
NMSI_	101	0	0	96	48	4
NMSTR	101	0	1
NMSI_	101	0	1	96	48	5
NMSTR	101	192	6
NMSI_	101	192	6	96	48	2
NMSTR	101	192	7
NMSI_	101	192	7	96	48	3
NMSTR	102	0	0
NMSI_	102	0	0	96	48	4
NMSTR	102	0	1
NMSI_	102	0	1	96	48	5
NMSTR	102	192	6
NMSI_	102	192	6	96	48	2
NMSTR	102	192	7
NMSI_	102	192	7	96	48	3
NMTAP	103	0	0
NMTAP	103	0	1
NMTAP	103	96	2
NMTAP	103	96	3
NMHLD	103	192	5	96
NMTAP	103	288	4
NMTAP	103	336	4
NMTAP	104	48	3
NMSTR	104	48	6
NMSUL	104	48	6	96	96	2
BXTAP	104	288	0
NMTAP	105	0	0
NMTAP	105	0	1
NMTAP	105	96	4
NMTAP	105	96	6
NMTAP	105	192	6
NMTAP	105	192	7
NMTAP	105	288	1
NMTAP	105	288	3
NMTAP	106	0	0
NMTAP	106	0	1
NMTAP	106	96	4
NMTAP	106	96	6
NMTAP	106	192	6
NMTAP	106	192	7
NMTAP	106	288	1
NMTAP	106	288	3
NMTAP	107	0	2
NMTAP	107	48	2
NMTAP	107	96	4
NMTAP	107	144	4
NMTAP	107	192	1
NMTAP	107	240	1
NMTAP	107	288	0
NMTAP	107	288	3
BXTAP	107	336	0
BXSTR	107	336	3
BRSI_	107	336	3	96	144	7
NMTAP	109	0	0
NMHLD	109	0	6	384
NMTAP	110	0	3
NMTAP	110	48	3
NMTAP	110	96	4
NMTAP	110	144	4
NMTAP	110	192	2
BRTAP	110	288	1
BRTAP	110	288	5
NMHLD	111	0	2	96
NMTAP	111	96	0
NMHLD	111	192	5	96
NMTAP	111	288	7
NMHLD	112	0	2	96
NMTAP	112	96	0
NMTAP	112	192	6
NMTAP	112	240	6
NMTAP	112	288	4
NMTAP	113	0	5
NMTAP	113	0	7
NMTAP	113	96	0
NMTAP	113	96	6
NMTAP	113	192	1
NMTAP	113	192	7
NMTAP	113	288	0
NMTAP	113	288	6
NMTAP	113	336	0
NMTAP	113	336	6
NMTAP	114	48	2
NMTAP	114	48	4
NMTAP	114	144	1
NMTAP	114	144	5
NMTAP	114	192	1
NMTAP	114	192	5
NMTAP	114	288	2
NMTAP	114	288	6
NMHLD	115	0	5	96
NMTAP	115	96	7
NMHLD	115	192	2	96
NMTAP	115	288	0
NMHLD	116	0	5	96
NMTAP	116	96	7
NMTAP	116	192	1
NMTAP	116	240	1
NMTAP	116	288	3
NMTAP	117	0	2
NMTAP	117	0	4
NMTAP	117	96	3
NMTAP	117	96	5
NMTAP	117	192	4
NMTAP	117	192	5
EXSTR	117	288	4
BRSUR	117	288	4	96	192	3
EXSTR	117	288	5
BRSCR	117	288	5	96	192	2
NMHLD	119	0	1	96
NMHLD	119	96	3	96
NMHLD	119	192	5	96
NMHLD	119	288	7	96
NMHLD	120	0	5	96
NMHLD	120	96	3	96
NMHLD	120	192	1	96
NMTAP	120	288	0
NMTAP	121	0	5
NMTAP	121	0	7
NMTAP	121	96	5
NMTAP	121	96	7
NMTAP	121	192	0
NMTAP	121	192	2
NMTAP	121	288	5
NMTAP	121	288	7
NMTAP	122	0	5
NMTAP	122	0	6
NMTAP	122	96	0
NMTAP	122	96	7
NMTAP	122	192	1
NMTAP	122	192	2
NMTAP	122	288	3
NMTAP	122	288	4
NMHLD	123	0	6	96
NMHLD	123	96	4	96
NMHLD	123	192	2	96
NMHLD	123	288	0	96
NMHLD	124	0	2	96
NMHLD	124	96	4	96
NMHLD	124	192	6	96
NMTAP	124	288	7
NMTAP	125	0	0
NMTAP	125	0	6
NMTAP	125	48	0
NMTAP	125	48	6
NMTAP	125	96	0
NMTAP	125	96	6
NMTAP	125	192	1
NMTAP	125	192	7
NMTAP	125	240	1
NMTAP	125	240	7
NMTAP	125	288	1
NMTAP	125	288	7
NMTAP	126	0	6
NMTAP	126	48	6
NMTAP	126	96	4
NMTAP	126	144	4
NMSTR	126	192	2
BRSI_	126	192	2	96	48	7

T_REC_TAP	346
T_REC_BRK	22
T_REC_XTP	27
T_REC_BXX	11
T_REC_HLD	81
T_REC_XHO	4
T_REC_BHO	0
T_REC_BXH	10
T_REC_STR	32
T_REC_BST	0
T_REC_XST	6
T_REC_XBS	5
T_REC_TTP	24
T_REC_THO	17
T_REC_SLD	40
T_REC_BSL	4
T_REC_ALL	629
T_NUM_TAP	435
T_NUM_BRK	52
T_NUM_HLD	102
T_NUM_SLD	40
T_NUM_ALL	629
T_JUDGE_TAP	473
T_JUDGE_HLD	378
T_JUDGE_SLD	44
T_JUDGE_ALL	895
TTM_EACHPAIRS	169
TTM_SCR_TAP	217500
TTM_SCR_BRK	135200
TTM_SCR_HLD	102000
TTM_SCR_SLD	60000
TTM_SCR_ALL	514700
TTM_SCR_S	494250
TTM_SCR_SS	509500
TTM_RAT_ACV	10102

