VERSION	0.00.00	1.05.00
FES_MODE	0
BPM_DEF	201.000	201.000	201.000	201.000
MET_DEF	4	4
RESOLUTION	384
CLK_DEF	384
COMPATIBLE_CODE	MA2

BPM	0	0	201.000
MET	0	0	4	4

NMTAP	4	0	4
NMTAP	4	192	4
NMTAP	5	0	5
NMTAP	5	192	5
NMTAP	6	0	6
NMTAP	6	192	6
NMTAP	7	0	0
NMTAP	7	0	7
NMTAP	7	192	0
NMTAP	7	192	7
NMTAP	8	0	0
NMTAP	8	192	0
NMTAP	9	0	1
NMTAP	9	192	1
NMTAP	10	0	2
NMTAP	10	192	2
NMTAP	11	0	3
NMTAP	11	0	4
NMTAP	12	0	3
NMTAP	12	96	3
NMTAP	12	192	3
NMTAP	13	0	2
NMTAP	13	96	2
NMTAP	13	192	2
NMTAP	14	0	1
NMTAP	14	96	1
NMTAP	14	192	1
NMTAP	15	0	0
NMTAP	15	0	7
NMTAP	15	192	0
NMTAP	15	192	7
NMTAP	16	0	7
NMTAP	16	96	7
NMTAP	16	192	7
NMTAP	17	0	6
NMTAP	17	96	6
NMTAP	17	192	6
NMTAP	18	0	5
NMTAP	18	96	5
NMTAP	18	192	5
NMTAP	19	0	3
NMTAP	19	0	4
NMTAP	19	192	3
NMTAP	19	192	4
NMTAP	20	0	4
NMTAP	20	96	4
NMTAP	20	192	5
NMTAP	21	0	6
NMTAP	21	96	6
NMTAP	21	192	7
NMTAP	22	0	0
NMTAP	22	96	0
NMTAP	22	192	1
NMTAP	23	0	2
NMTAP	23	96	2
NMTAP	23	192	3
NMTAP	23	192	4
NMTAP	24	0	3
NMTAP	24	96	3
NMTAP	24	192	2
NMTAP	25	0	1
NMTAP	25	96	1
NMTAP	25	192	0
NMTAP	26	0	7
NMTAP	26	96	7
NMTAP	26	192	6
NMTAP	27	0	5
NMTAP	27	96	5
NMTAP	27	192	3
NMTAP	27	192	4
NMHLD	28	0	2	192
NMHLD	28	192	3	192
NMHLD	29	0	4	192
NMTAP	29	192	5
NMHLD	30	0	5	192
NMHLD	30	192	4	192
NMHLD	31	0	3	192
NMTAP	31	192	2
NMHLD	32	0	1	192
NMHLD	32	192	2	192
NMHLD	33	0	3	192
NMTAP	33	192	4
NMHLD	34	0	6	192
NMHLD	34	192	5	192
NMHLD	35	0	4	192
NMTAP	35	192	3
NMSTR	36	0	2
NMSI_	36	0	2	96	288	7
NMTAP	37	192	6
NMSTR	38	0	5
NMSI_	38	0	5	96	288	0
NMTAP	39	192	1
NMSTR	40	0	1
NMSI_	40	0	1	96	288	4
NMTAP	41	192	5
NMSTR	42	0	6
NMSI_	42	0	6	96	288	3
NMTAP	43	192	2
NMTAP	43	192	3
NMTAP	44	0	2
NMTAP	44	96	2
NMTAP	44	192	1
NMTAP	44	288	1
NMTAP	45	0	0
NMTAP	45	96	0
NMTAP	45	192	6
NMTAP	45	192	7
NMTAP	46	0	5
NMTAP	46	96	5
NMTAP	46	192	6
NMTAP	46	288	6
NMTAP	47	0	7
NMTAP	47	96	7
NMTAP	47	192	0
NMTAP	47	192	1
NMTAP	48	0	1
NMTAP	48	96	1
NMTAP	48	192	2
NMTAP	48	288	2
NMTAP	49	0	3
NMTAP	49	96	3
NMTAP	49	192	4
NMTAP	49	192	5
NMTAP	50	0	6
NMTAP	50	96	6
NMTAP	50	192	5
NMTAP	50	288	5
NMTAP	51	0	4
NMTAP	51	96	4
NMTAP	51	192	2
NMTAP	51	192	3
NMHLD	52	0	1	192
NMTAP	52	192	0
NMTAP	53	0	1
NMTAP	53	96	1
NMTAP	53	192	0
NMTAP	53	192	1
NMHLD	54	0	2	192
NMTAP	54	192	3
NMTAP	55	0	2
NMTAP	55	96	2
NMTAP	55	192	2
NMTAP	55	192	3
NMHLD	56	0	5	192
NMTAP	56	192	4
NMTAP	57	0	5
NMTAP	57	96	5
NMTAP	57	192	4
NMTAP	57	192	5
NMHLD	58	0	6	192
NMTAP	58	192	7
NMTAP	59	0	6
NMTAP	59	96	6
NMTAP	59	192	6
NMTAP	59	192	7
NMTAP	60	0	5
NMTAP	60	96	5
NMTAP	60	192	5
NMTAP	60	288	5
NMTAP	61	0	6
NMTAP	61	96	6
NMTAP	61	192	6
NMTAP	61	288	6
NMTAP	62	0	7
NMTAP	62	96	7
NMTAP	62	192	7
NMTAP	62	288	7
NMTAP	63	0	0
NMTAP	63	0	1
NMTAP	63	192	0
NMTAP	63	192	1
NMTAP	64	0	2
NMTAP	64	96	2
NMTAP	64	192	2
NMTAP	64	288	2
NMTAP	65	0	1
NMTAP	65	96	1
NMTAP	65	192	1
NMTAP	65	288	1
NMTAP	66	0	0
NMTAP	66	96	0
NMTAP	66	192	0
NMTAP	66	288	0
NMTAP	67	0	6
NMTAP	67	0	7
NMTAP	67	192	6
NMTAP	67	192	7
NMTAP	68	0	6
NMTAP	68	96	6
NMTAP	68	192	6
NMTAP	68	288	6
NMTAP	69	0	5
NMTAP	69	96	5
NMTAP	69	192	5
NMTAP	69	288	5
NMTAP	70	0	4
NMTAP	70	96	4
NMTAP	70	192	4
NMTAP	70	288	4
NMTAP	71	0	2
NMTAP	71	0	3
NMTAP	71	192	2
NMTAP	71	192	3
NMTAP	72	0	1
NMTAP	72	96	1
NMTAP	72	192	1
NMTAP	72	288	1
NMTAP	73	0	2
NMTAP	73	96	2
NMTAP	73	192	2
NMTAP	73	288	2
NMTAP	74	0	3
NMTAP	74	96	3
NMTAP	74	192	3
NMTAP	74	288	3
NMTAP	75	0	4
NMTAP	75	0	5
NMTAP	75	192	4
NMTAP	75	192	5
BRTAP	76	0	3
BRTAP	76	0	4
NMSTR	77	0	2
NMSXR	77	0	2	96	672	4
NMSTR	81	0	5
NMSXL	81	0	5	96	672	3
NMTTP	85	0	1	B	0	L1
NMTTP	85	192	2	B	0	L1
NMTTP	86	0	3	B	0	L1
NMTTP	87	0	6	B	0	L1
NMTTP	87	192	5	B	0	L1
NMTTP	88	0	4	B	0	L1
NMTTP	89	0	1	B	0	L1
NMTTP	89	192	2	B	0	L1
NMTTP	90	0	3	B	0	L1
NMTTP	90	192	4	B	0	L1
NMTTP	91	0	5	B	0	L1
NMTTP	91	192	6	B	0	L1
NMTTP	92	0	0	C	1	L1
EXTAP	93	0	0
EXTAP	93	96	0
EXTAP	93	192	0
EXTAP	93	192	7
EXTAP	93	288	0
EXTAP	93	288	7
EXTAP	94	0	6
EXTAP	94	96	6
EXTAP	94	192	6
EXTAP	94	192	7
NMTAP	95	0	5
NMTAP	95	96	5
NMTAP	95	192	6
NMTAP	95	192	7
NMTAP	95	288	6
NMTAP	95	288	7
NMTAP	96	0	0
NMTAP	96	96	0
NMTAP	96	192	0
NMTAP	96	192	1
NMTAP	97	0	1
NMTAP	97	96	1
NMTAP	97	192	2
NMTAP	97	192	3
NMTAP	97	288	2
NMTAP	97	288	3
NMTAP	98	0	4
NMTAP	98	96	4
NMTAP	98	192	4
NMTAP	98	192	5
NMTAP	99	0	6
NMTAP	99	96	6
NMTAP	99	192	4
NMTAP	99	192	5
NMTAP	99	288	4
NMTAP	99	288	5
NMTAP	100	0	3
NMTAP	100	96	3
NMTAP	100	192	2
NMTAP	100	192	3
NMTAP	101	0	2
NMTAP	101	96	2
NMTAP	101	192	0
NMTAP	101	192	1
NMTAP	101	288	0
NMTAP	101	288	1
NMTAP	102	0	7
NMTAP	102	96	7
NMTAP	102	192	6
NMTAP	102	192	7
NMTAP	102	288	6
NMTAP	102	288	7
NMTAP	103	0	5
NMTAP	103	96	5
NMTAP	103	192	6
NMTAP	103	192	7
NMTAP	103	288	6
NMTAP	103	288	7
NMTAP	104	0	0
NMTAP	104	96	0
NMTAP	104	192	0
NMTAP	104	192	1
NMTAP	105	0	1
NMTAP	105	96	1
NMTAP	105	192	2
NMTAP	105	192	3
NMTAP	105	288	2
NMTAP	105	288	3
NMTAP	106	0	4
NMTAP	106	96	4
NMTAP	106	192	4
NMTAP	106	192	5
NMTAP	106	288	4
NMTAP	106	288	5
NMTAP	107	0	6
NMTAP	107	96	6
NMTAP	107	192	4
NMTAP	107	192	5
NMTAP	107	288	4
NMTAP	107	288	5
NMTAP	108	0	3
NMTAP	108	96	3
NMTAP	108	192	2
NMTAP	108	192	3
NMSTR	109	0	3
NMSI_	109	0	3	96	288	0
NMSTR	109	0	4
NMSI_	109	0	4	96	288	7
NMTAP	111	0	0
NMTAP	111	96	0
NMTAP	111	192	1
NMTAP	111	288	1
NMTAP	112	0	2
NMTAP	112	96	2
NMTAP	112	192	3
NMTAP	112	288	3
NMTAP	113	0	4
NMTAP	113	96	4
NMTAP	113	192	5
NMTAP	113	288	5
NMTAP	114	0	6
NMTAP	114	96	6
NMTAP	114	192	0
NMTAP	114	192	7
NMTAP	115	0	7
NMTAP	115	96	7
NMTAP	115	192	6
NMTAP	115	288	6
NMTAP	116	0	5
NMTAP	116	96	5
NMTAP	116	192	4
NMTAP	116	288	4
NMTAP	117	0	3
NMTAP	117	96	3
NMTAP	117	192	2
NMTAP	117	288	2
NMTAP	118	0	1
NMTAP	118	96	1
NMTAP	118	192	0
NMTAP	118	192	7
NMTAP	119	0	0
NMTAP	119	96	1
NMTAP	119	192	2
NMTAP	119	288	3
NMTAP	120	0	4
NMTAP	120	96	5
NMTAP	120	192	6
NMTAP	120	192	7
NMTAP	121	0	7
NMTAP	121	96	6
NMTAP	121	192	5
NMTAP	121	288	4
NMTAP	122	0	3
NMTAP	122	96	2
NMTAP	122	192	0
NMTAP	122	192	1
NMTAP	123	0	7
NMTAP	123	96	0
NMTAP	123	192	1
NMTAP	123	288	2
NMTAP	124	0	3
NMTAP	124	96	4
NMTAP	124	192	5
NMTAP	124	288	6
NMTAP	125	0	7
NMTAP	125	96	0
NMTAP	125	192	1
NMTAP	125	288	2
NMTAP	126	0	3
NMTAP	126	0	4
NMTAP	126	96	3
NMTAP	126	96	4
NMTAP	126	192	2
NMTAP	126	192	5
BRTAP	126	288	2
BRTAP	126	288	5

T_REC_TAP	335
T_REC_BRK	4
T_REC_XTP	10
T_REC_BXX	0
T_REC_HLD	16
T_REC_XHO	0
T_REC_BHO	0
T_REC_BXH	0
T_REC_STR	8
T_REC_BST	0
T_REC_XST	0
T_REC_XBS	0
T_REC_TTP	13
T_REC_THO	0
T_REC_SLD	8
T_REC_BSL	0
T_REC_ALL	394
T_NUM_TAP	366
T_NUM_BRK	4
T_NUM_HLD	16
T_NUM_SLD	8
T_NUM_ALL	394
T_JUDGE_TAP	370
T_JUDGE_HLD	64
T_JUDGE_SLD	8
T_JUDGE_ALL	442
TTM_EACHPAIRS	62
TTM_SCR_TAP	183000
TTM_SCR_BRK	10400
TTM_SCR_HLD	16000
TTM_SCR_SLD	12000
TTM_SCR_ALL	221400
TTM_SCR_S	214400
TTM_SCR_SS	221000
TTM_RAT_ACV	10018

