VERSION	0.00.00	1.05.00
FES_MODE	0
BPM_DEF	201.000	201.000	201.000	201.000
MET_DEF	4	4
RESOLUTION	384
CLK_DEF	384
COMPATIBLE_CODE	MA2

BPM	0	0	201.000
MET	0	0	4	4

EXTAP	4	0	0
NMTAP	5	0	0
NMTAP	6	0	0
NMTAP	6	0	7
NMTAP	8	0	7
NMTAP	9	0	7
NMTAP	10	0	0
NMTAP	10	0	7
NMTAP	12	0	0
NMTAP	12	192	0
NMTAP	13	0	1
NMTAP	14	0	2
NMTAP	14	192	2
NMTAP	15	0	3
NMTAP	15	0	4
NMTAP	16	0	4
NMTAP	16	192	4
NMTAP	17	0	5
NMTAP	18	0	6
NMTAP	18	192	6
EXTAP	19	0	0
EXTAP	19	0	7
NMTAP	20	0	7
NMTAP	20	192	7
NMTAP	21	0	6
NMTAP	21	192	6
NMTAP	22	0	5
NMTAP	22	192	5
NMTAP	23	0	3
NMTAP	23	0	4
NMTAP	24	0	3
NMTAP	24	192	3
NMTAP	25	0	2
NMTAP	25	192	2
NMTAP	26	0	1
NMTAP	26	192	1
NMTAP	27	0	0
NMTAP	27	0	7
NMHLD	28	0	0	384
NMHLD	28	0	1	384
NMHLD	30	0	2	384
NMHLD	30	0	3	384
NMHLD	32	0	4	384
NMHLD	32	0	5	384
NMHLD	34	0	6	384
NMHLD	34	0	7	384
NMTAP	36	0	6
NMTAP	36	0	7
NMTAP	36	192	6
NMTAP	36	192	7
NMTAP	37	0	6
NMTAP	37	0	7
NMTAP	38	0	4
NMTAP	38	0	5
NMTAP	38	192	4
NMTAP	38	192	5
NMTAP	39	0	4
NMTAP	39	0	5
NMTAP	40	0	2
NMTAP	40	0	3
NMTAP	40	192	2
NMTAP	40	192	3
NMTAP	41	0	2
NMTAP	41	0	3
NMTAP	42	0	0
NMTAP	42	0	1
NMTAP	42	192	0
NMTAP	42	192	1
NMTAP	43	0	0
NMTAP	43	0	1
BXTAP	44	0	0
NMTAP	44	96	0
NMTAP	44	192	0
NMTAP	45	0	1
NMTAP	45	192	1
NMTAP	46	0	2
NMTAP	46	192	2
NMTAP	47	0	3
NMTAP	47	0	4
NMTAP	48	0	4
NMTAP	48	96	4
NMTAP	48	192	4
NMTAP	49	0	5
NMTAP	49	192	5
NMTAP	50	0	6
NMTAP	50	192	6
NMTAP	51	0	0
NMTAP	51	0	7
NMSTR	52	0	7
NMSI_	52	0	7	96	288	3
NMSTR	54	0	0
NMSI_	54	0	0	96	288	4
NMSTR	56	0	6
NMSI_	56	0	6	96	288	2
NMSTR	58	0	1
NMSI_	58	0	1	96	288	5
NMTAP	60	0	6
NMTAP	60	192	6
NMTAP	61	0	6
NMTAP	61	0	7
NMTAP	61	192	6
NMTAP	61	192	7
NMTAP	62	0	5
NMTAP	62	192	5
NMTAP	63	0	4
NMTAP	63	0	5
NMTAP	64	0	3
NMTAP	64	192	3
NMTAP	65	0	2
NMTAP	65	0	3
NMTAP	65	192	2
NMTAP	65	192	3
NMTAP	66	0	1
NMTAP	66	192	1
NMTAP	67	0	0
NMTAP	67	0	1
NMTAP	68	0	0
NMTAP	68	192	0
NMTAP	69	0	0
NMTAP	69	0	1
NMTAP	69	192	0
NMTAP	69	192	1
NMTAP	70	0	2
NMTAP	70	192	2
NMTAP	71	0	3
NMTAP	71	0	4
NMTAP	72	0	4
NMTAP	72	192	4
NMTAP	73	0	4
NMTAP	73	0	5
NMTAP	73	192	4
NMTAP	73	192	5
NMTAP	74	0	6
NMTAP	74	192	6
NMTAP	75	0	0
NMTAP	75	0	7
NMTAP	75	192	0
NMTAP	75	192	7
BXTAP	76	0	0
BXTAP	76	0	7
NMTTP	77	0	0	E	0	L1
NMTTP	78	0	0	B	0	L1
NMTTP	78	0	7	B	0	L1
NMTTP	79	0	1	B	0	L1
NMTTP	79	0	6	B	0	L1
NMTTP	80	0	2	B	0	L1
NMTTP	80	0	5	B	0	L1
NMTTP	81	0	3	B	0	L1
NMTTP	81	0	4	B	0	L1
NMTTP	82	0	2	B	0	L1
NMTTP	82	0	5	B	0	L1
NMTTP	83	0	0	C	1	L1
NMTAP	85	0	0
NMTAP	85	0	7
NMTAP	85	192	0
NMTAP	85	192	7
NMTAP	86	0	6
NMTAP	86	192	6
NMTAP	87	0	4
NMTAP	87	0	5
NMTAP	87	192	4
NMTAP	87	192	5
NMTAP	88	0	4
NMTAP	88	0	5
NMTAP	89	0	3
NMTAP	89	0	4
NMTAP	89	192	3
NMTAP	89	192	4
NMTAP	90	0	2
NMTAP	90	192	2
NMTAP	91	0	0
NMTAP	91	0	1
NMTAP	91	192	0
NMTAP	91	192	1
NMTAP	92	0	0
NMTAP	92	0	1
BXTAP	93	0	0
NMTAP	93	96	0
NMTAP	93	192	0
NMTAP	94	0	1
NMTAP	94	192	1
NMTAP	95	0	2
NMTAP	95	96	2
NMTAP	95	192	2
NMTAP	96	0	3
NMTAP	96	0	4
NMTAP	96	192	3
NMTAP	96	192	4
NMTAP	97	0	4
NMTAP	97	96	4
NMTAP	97	192	4
NMTAP	98	0	5
NMTAP	98	192	5
NMTAP	99	0	6
NMTAP	99	96	6
NMTAP	99	192	6
EXTAP	100	0	0
EXTAP	100	0	7
BRTAP	101	0	7
NMTAP	101	96	7
NMTAP	101	192	7
NMTAP	102	0	6
NMTAP	102	192	6
NMTAP	103	0	5
NMTAP	103	96	5
NMTAP	103	192	5
NMTAP	104	0	3
NMTAP	104	0	4
NMTAP	104	192	3
NMTAP	104	192	4
NMTAP	105	0	3
NMTAP	105	96	3
NMTAP	105	192	3
NMTAP	106	0	2
NMTAP	106	192	2
NMTAP	107	0	1
NMTAP	107	96	1
NMTAP	107	192	1
NMTAP	108	0	0
NMTAP	108	0	7
NMTAP	108	192	0
NMTAP	108	192	7
NMHLD	109	0	0	384
NMHLD	109	0	7	384
BRTAP	111	0	0
NMTAP	111	96	0
NMTAP	111	192	0
NMTAP	112	0	1
NMTAP	112	96	1
NMTAP	112	192	1
NMTAP	113	0	2
NMTAP	113	96	2
NMTAP	113	192	2
EXTAP	114	0	3
EXTAP	114	0	4
NMTAP	115	0	4
NMTAP	115	96	4
NMTAP	115	192	4
NMTAP	116	0	5
NMTAP	116	96	5
NMTAP	116	192	5
NMTAP	117	0	6
NMTAP	117	96	6
NMTAP	117	192	6
EXTAP	118	0	0
EXTAP	118	0	7
NMTAP	119	0	7
NMTAP	119	96	7
NMTAP	119	192	7
NMTAP	120	0	6
NMTAP	120	96	6
NMTAP	120	192	6
NMTAP	121	0	5
NMTAP	121	96	5
NMTAP	121	192	5
NMTAP	122	0	4
NMTAP	122	96	4
NMTAP	122	192	3
NMTAP	122	192	4
NMTAP	123	0	3
NMTAP	123	96	3
NMTAP	123	192	3
NMTAP	124	0	2
NMTAP	124	96	2
NMTAP	124	192	2
NMTAP	125	0	1
NMTAP	125	96	1
NMTAP	125	192	1
NMTAP	126	0	0
NMTAP	126	96	0
NMTAP	126	192	0
NMTAP	126	192	7
BRTAP	126	288	0
BRTAP	126	288	7

T_REC_TAP	227
T_REC_BRK	4
T_REC_XTP	9
T_REC_BXX	4
T_REC_HLD	10
T_REC_XHO	0
T_REC_BHO	0
T_REC_BXH	0
T_REC_STR	4
T_REC_BST	0
T_REC_XST	0
T_REC_XBS	0
T_REC_TTP	12
T_REC_THO	0
T_REC_SLD	4
T_REC_BSL	0
T_REC_ALL	274
T_NUM_TAP	252
T_NUM_BRK	8
T_NUM_HLD	10
T_NUM_SLD	4
T_NUM_ALL	274
T_JUDGE_TAP	260
T_JUDGE_HLD	80
T_JUDGE_SLD	4
T_JUDGE_ALL	344
TTM_EACHPAIRS	61
TTM_SCR_TAP	126000
TTM_SCR_BRK	20800
TTM_SCR_HLD	10000
TTM_SCR_SLD	6000
TTM_SCR_ALL	162800
TTM_SCR_S	157150
TTM_SCR_SS	162000
TTM_RAT_ACV	10049

