VERSION	0.00.00	1.05.00
FES_MODE	0
BPM_DEF	220.000	220.000	220.000	220.000
MET_DEF	4	4
RESOLUTION	384
CLK_DEF	384
COMPATIBLE_CODE	MA2

BPM	0	0	220.000
MET	0	0	4	4

NMSTR	3	192	4
NMSCR	3	192	4	96	864	1
NMTAP	3	288	3
NMHLD	4	0	2	192
NMTAP	4	288	1
NMTAP	5	0	1
NMTAP	5	144	3
NMHLD	5	288	2	480
CNSUL	6	0	1	0	384	3
NMSTR	7	192	3
NMSCL	7	192	3	96	864	6
NMTAP	7	288	4
NMHLD	8	0	5	192
NMTAP	8	288	6
NMTAP	9	0	6
NMTAP	9	144	4
NMHLD	9	288	5	480
CNSUR	10	0	6	0	384	4
NMSTR	11	192	6
NMSUL	11	192	6	96	672	1
NMTAP	11	288	7
NMHLD	12	0	0	192
NMTAP	12	288	7
NMTAP	13	0	7
NMTAP	13	144	0
NMSTR	13	288	2
NMSCR	13	288	2	96	384	5
NMTAP	15	192	7
NMTAP	15	288	6
NMTAP	16	0	5
NMTAP	16	96	4
NMTAP	16	192	3
NMSTR	16	288	2
NMSXR	16	288	2	96	1152	7
NMHLD	16	288	4	288
BRSTR	18	0	6
BRSXR	18	0	6	96	672	3
NMHLD	21	0	1	288
NMHLD	21	0	5	288
NMTAP	22	0	2
NMTAP	22	48	3
NMTAP	22	96	4
NMTAP	22	144	2
NMTAP	22	192	3
NMTAP	22	240	4
NMTAP	22	288	2
NMTAP	22	336	3
NMHLD	23	0	4	96
NMTAP	23	96	3
NMHLD	23	144	2	96
NMTAP	23	240	3
NMTAP	23	288	2
NMTAP	23	288	4
NMTAP	24	0	5
NMTAP	24	48	4
NMTAP	24	96	3
NMTAP	24	144	5
NMTAP	24	192	4
NMTAP	24	240	3
NMTAP	24	288	5
NMTAP	24	336	4
NMHLD	25	0	3	96
NMTAP	25	96	4
NMHLD	25	144	5	96
NMTAP	25	240	4
NMTAP	25	288	3
NMTAP	25	288	5
NMHLD	26	0	2	96
NMTAP	26	96	3
NMSTR	26	144	1
NMSI_	26	144	1	96	48	4
NMTAP	26	144	4
NMTAP	26	240	5
NMHLD	27	0	5	96
NMTAP	27	96	4
NMTAP	27	144	3
NMSTR	27	144	6
NMSI_	27	144	6	96	48	3
NMTAP	27	240	2
NMHLD	28	0	1	96
NMTAP	28	96	0
NMSTR	28	144	2
NMSI_	28	144	2	96	48	7
NMTAP	28	144	7
NMTAP	28	240	6
NMHLD	29	0	6	96
NMTAP	29	96	7
NMTAP	29	144	0
NMSTR	29	144	5
NMSI_	29	144	5	96	48	0
NMTAP	29	240	1
NMTAP	30	0	1
NMTAP	30	48	1
NMTAP	30	96	0
NMTAP	30	96	2
NMTAP	30	144	3
NMTAP	30	192	4
NMTAP	30	240	4
NMTAP	30	288	3
NMTAP	30	288	5
NMTAP	30	336	6
NMTAP	31	0	7
NMTAP	31	48	7
NMTAP	31	96	0
NMTAP	31	96	6
NMTAP	31	144	1
NMTAP	31	192	2
NMTAP	31	240	2
NMTAP	31	288	1
NMTAP	31	288	3
NMTAP	32	0	2
NMTAP	32	24	3
NMTAP	32	48	2
NMTAP	32	72	3
NMTAP	32	96	1
NMTAP	32	120	3
NMTAP	32	144	1
NMTAP	32	168	3
NMTTP	32	192	2	E	0	M1
NMTTP	32	204	3	E	0	M1
NMTTP	32	216	4	E	0	M1
NMTTP	32	228	5	E	0	M1
NMTTP	32	240	6	E	0	M1
NMTTP	32	252	7	E	0	M1
NMTTP	32	264	0	E	0	M1
NMTTP	32	276	1	E	0	M1
NMTTP	32	288	0	C	0	M1
NMTTP	33	0	6	A	0	M1
NMTTP	33	0	7	A	0	M1
NMTTP	33	0	7	D	0	M1
NMTTP	33	96	0	A	0	M1
NMTTP	33	96	1	A	0	M1
NMTTP	33	96	1	D	0	M1
NMTTP	33	192	3	B	0	M1
NMTTP	33	192	3	E	0	M1
NMTTP	33	192	3	D	0	M1
NMTTP	33	192	4	B	0	M1
NMTTP	33	192	5	E	0	M1
NMTTP	33	192	5	D	0	M1
BRTAP	33	288	0
BRTAP	33	288	7
NMSTR	34	0	1
NMSI_	34	0	1	96	48	4
NMTAP	34	72	0
NMTAP	34	96	1
NMTAP	34	144	7
NMSTR	34	192	6
NMSI_	34	192	6	96	48	3
NMTAP	34	264	7
NMTAP	34	288	6
NMTAP	34	336	0
NMTAP	35	0	1
NMTAP	35	0	2
NMTAP	35	48	1
NMTAP	35	96	1
NMTAP	35	96	7
NMTAP	35	144	1
NMTAP	35	192	1
NMTAP	35	192	3
NMTAP	35	240	1
NMTTP	35	288	0	E	0	M1
NMTAP	35	288	1
NMSTR	36	0	2
NMSI_	36	0	2	96	48	0
NMTAP	36	72	3
NMTAP	36	96	2
NMTAP	36	144	4
NMSTR	36	192	5
NMSI_	36	192	5	96	48	7
NMTAP	36	264	4
NMTAP	36	288	5
NMTAP	36	336	3
NMTAP	37	0	0
NMTAP	37	0	2
NMTAP	37	48	2
NMTAP	37	96	2
NMTAP	37	96	4
NMTAP	37	144	2
NMTAP	37	192	0
NMTAP	37	192	2
NMTAP	37	240	2
NMTTP	37	288	0	C	0	M1
NMTAP	37	288	2
NMTAP	38	0	6
NMTAP	38	24	7
NMTAP	38	48	6
NMTAP	38	72	7
NMTAP	38	96	6
NMTAP	38	192	4
NMTAP	38	192	5
NMTAP	38	240	3
NMTAP	38	240	6
NMTAP	38	288	2
NMTAP	38	288	7
NMTAP	39	0	1
NMTAP	39	24	0
NMTAP	39	48	1
NMTAP	39	72	0
NMTAP	39	96	2
NMTAP	39	192	3
NMTAP	39	192	7
NMTAP	39	240	6
NMTAP	39	288	4
NMTAP	39	288	5
NMTAP	39	336	3
NMHLD	40	0	2	96
NMTAP	40	96	3
NMSTR	40	144	1
NMSI_	40	144	1	96	48	3
NMSTR	40	144	4
NMSI_	40	144	4	96	48	0
NMTAP	40	240	1
NMTAP	40	240	4
NMTAP	40	336	2
NMTAP	40	336	7
NMTAP	41	48	4
NMTAP	41	48	6
NMTAP	41	96	4
NMTAP	41	96	6
NMTAP	41	192	2
NMTAP	41	216	3
NMTAP	41	240	2
NMTAP	41	288	1
NMTAP	41	288	4
NMSTR	42	0	2
NMSI_	42	0	2	96	48	5
NMTAP	42	96	5
NMTAP	42	144	6
NMSTR	42	192	7
NMSI_	42	192	7	96	48	3
NMTAP	42	288	2
NMTAP	42	336	1
NMSTR	43	0	0
NMSI_	43	0	0	96	48	3
NMSI_	43	0	0	96	48	5
NMTAP	43	96	0
NMSTR	43	192	4
NMSI_	43	192	4	96	48	1
NMSI_	43	192	4	96	48	7
NMTAP	43	288	4
NMSTR	44	0	0
NMSCR	44	0	0	96	96	4
NMSTR	44	96	4
NMSCR	44	96	4	96	96	0
NMSTR	44	192	0
NMSCR	44	192	0	96	96	4
NMSTR	44	288	4
NMSLL	44	288	4	96	144	7
NMTTP	45	0	0	C	1	M1
NMTAP	45	192	6
NMTAP	45	240	7
NMTAP	45	288	0
NMTAP	45	288	5
NMTAP	46	0	2
NMTAP	46	24	3
NMTAP	46	48	2
NMTAP	46	72	3
NMTAP	46	96	1
NMTAP	46	192	0
NMTAP	46	192	1
NMTAP	46	240	0
NMTAP	46	240	7
NMTAP	46	288	6
NMTAP	46	288	7
NMTAP	47	0	5
NMTAP	47	24	4
NMTAP	47	48	5
NMTAP	47	72	4
NMTAP	47	96	6
NMTAP	47	192	3
NMTAP	47	192	7
NMTAP	47	240	2
NMTAP	47	288	0
NMTAP	47	288	1
NMTAP	47	336	7
NMSTR	48	0	0
NMSI_	48	0	0	96	48	4
NMSTR	48	0	6
NMSI_	48	0	6	96	48	4
NMSTR	48	192	3
NMSI_	48	192	3	96	48	1
NMSI_	48	192	3	96	48	7
NMSTR	49	0	0
NMSUL	49	0	0	96	96	3
NMSTR	49	0	6
NMSUR	49	0	6	96	96	3
BRTAP	49	288	1
BRTAP	49	288	5
NMTAP	50	0	6
NMTAP	50	0	7
NMTAP	50	24	5
NMTAP	50	48	4
NMTAP	50	72	3
NMSTR	50	96	0
NMSI_	50	96	0	96	48	5
NMTAP	50	120	1
NMTAP	50	144	2
NMTAP	50	168	3
BRTAP	50	192	0
NMSTR	50	192	4
NMSV_	50	192	4	96	72	1
CNSI_	50	360	1	0	96	3
EXHLD	51	0	6	0
EXHLD	51	72	7	0
EXTAP	51	144	0
EXTAP	51	144	4
NMSTR	51	192	0
NMSCL	51	192	0	96	48	5
NMSTR	51	192	4
NMSCL	51	192	4	96	48	1
BXSTR	51	288	0
NMSUL	51	288	0	96	72	4
NMTAP	51	288	4
BXTAP	52	0	0
EXTAP	52	0	3
CNSI_	52	72	4	0	24	1
CNSI_	52	96	1	0	96	6
BRHLD	52	192	5	384
NMTTP	52	264	0	E	1	M1
NMTTP	52	336	1	E	1	M1
NMTTP	53	24	2	E	1	M1
NMTTP	53	96	3	E	1	M1
EXSTR	53	192	4
NMSI_	53	192	4	96	48	1
NMSTR	53	288	4
NMSI_	53	288	4	96	48	0
NMSTR	54	0	4
NMSI_	54	0	4	96	48	7
NMTAP	54	96	4
NMSTR	54	96	6
NMSUR	54	96	6	96	48	2
BRSTR	54	192	0
NMSLL	54	192	0	96	96	4
NMTTP	54	288	0	C	1	M1
CNSI_	55	0	4	0	48	2
CNSCL	55	48	2	0	48	1
NMTAP	55	96	0
NMTAP	55	144	0
BRHLD	55	192	1	96
BRHLD	55	192	7	96
NMTAP	56	0	4
NMHLD	56	0	6	96
NMTAP	56	48	3
NMTAP	56	96	2
NMTAP	56	144	1
NMHLD	56	192	0	96
NMTAP	56	192	6
NMTAP	56	240	5
NMTAP	56	288	4
NMTAP	56	336	3
NMHLD	57	0	1	48
NMHLD	57	0	2	48
NMHLD	57	72	0	48
NMHLD	57	72	7	48
NMTAP	57	144	5
NMTAP	57	144	6
NMSTR	57	192	5
NMSI_	57	192	5	96	48	0
NMSTR	57	192	6
NMSI_	57	192	6	96	48	3
NMTAP	57	288	5
NMTAP	57	288	6
EXTAP	58	0	1
EXHLD	58	0	4	1056
NMTTP	59	0	3	D	0	M1
NMTTP	59	96	4	D	0	M1
NMTTP	59	192	5	D	0	M1
NMTTP	60	0	5	E	0	M1
NMTTP	60	96	4	E	0	M1
NMTTP	60	192	3	E	0	M1
NMHLD	60	288	1	1056
NMTTP	61	0	5	E	0	M1
NMTTP	61	96	4	E	0	M1
NMTTP	61	192	3	E	0	M1
NMTTP	62	0	1	E	0	M1
NMTTP	62	96	0	E	0	M1
NMTTP	62	192	7	E	0	M1
NMTTP	63	0	5	E	0	M1
NMTTP	63	96	4	E	0	M1
NMTTP	63	192	3	E	0	M1
NMTAP	64	0	7
NMTAP	64	96	6
NMTAP	64	192	0
NMTAP	64	288	1
NMTAP	65	0	2
NMTAP	65	96	3
NMTAP	65	96	4
NMTAP	65	192	2
NMTAP	65	192	5
NMSTR	66	0	2
NMSCR	66	0	2	96	192	5
NMTAP	66	336	6
NMHLD	67	0	6	192
NMSTR	67	96	5
NMSCL	67	96	5	96	192	2
NMSTR	68	0	6
NMSLL	68	0	6	96	192	2
NMTAP	68	336	1
NMHLD	69	0	1	192
NMSTR	69	96	2
NMSLR	69	96	2	96	192	1
NMHLD	70	0	0	192
NMTAP	70	192	2
NMTAP	70	336	1
NMTAP	70	336	3
NMTAP	71	0	1
NMTAP	71	0	3
NMTAP	71	96	3
NMTAP	71	96	4
NMTAP	71	192	4
NMTAP	71	192	6
NMTAP	71	288	7
NMTAP	72	0	6
NMTAP	72	48	6
NMTAP	72	96	4
NMTAP	72	144	4
NMTAP	72	192	3
NMTAP	72	240	3
NMSTR	72	288	1
NMSI_	72	288	1	96	48	5
NMTAP	72	336	1
NMTAP	73	288	0
NMSTR	73	288	7
NMSI_	73	288	7	96	48	5
BRSTR	74	0	7
NMSI_	74	0	7	96	48	2
NMTAP	74	48	1
NMSTR	74	96	7
NMSCL	74	96	7	96	72	3
NMTAP	74	144	4
NMTAP	74	192	7
NMTAP	74	264	0
NMSTR	74	288	0
NMSI_	74	288	0	96	48	2
NMTAP	74	336	3
NMSTR	75	0	0
NMSI_	75	0	0	96	48	5
NMTAP	75	48	5
NMSTR	75	96	0
NMSCR	75	96	0	96	48	3
NMTAP	75	144	3
NMTAP	75	192	0
NMTAP	75	264	6
NMTAP	75	288	6
NMTAP	75	336	4
NMHLD	76	0	3	48
NMHLD	76	0	5	48
NMHLD	76	72	2	48
NMHLD	76	72	4	48
NMTAP	76	144	1
NMTAP	76	144	3
NMHLD	76	192	1	48
NMHLD	76	192	4	48
NMHLD	76	264	2	48
NMHLD	76	264	5	48
NMTAP	76	336	3
NMTAP	76	336	6
NMSTR	77	0	3
NMSSL	77	0	3	96	96	7
NMSTR	77	0	6
NMSSR	77	0	6	96	96	2
EXTAP	77	288	0
EXTAP	77	288	1
NMSTR	78	0	1
NMSI_	78	0	1	96	48	3
NMSTR	78	48	0
NMSI_	78	48	0	96	48	4
NMSTR	78	96	1
NMSCL	78	96	1	96	48	6
NMTAP	78	144	0
NMTAP	78	192	1
NMTAP	78	264	5
NMTAP	78	288	5
NMTAP	78	336	4
NMSTR	79	0	6
NMSI_	79	0	6	96	48	4
NMSTR	79	48	7
NMSI_	79	48	7	96	48	3
NMSTR	79	96	6
NMSCR	79	96	6	96	48	1
NMTAP	79	144	7
NMTAP	79	192	6
NMTAP	79	264	2
NMTAP	79	288	2
NMTAP	79	336	3
NMTAP	80	0	2
NMTAP	80	0	3
NMTAP	80	72	0
NMTAP	80	72	1
NMTAP	80	144	6
NMTAP	80	144	7
NMTAP	80	192	6
NMTAP	80	192	7
NMTAP	80	264	4
NMTAP	80	264	5
NMTAP	80	336	2
NMTAP	80	336	3
NMSTR	81	0	2
NMSV_	81	0	2	96	288	4
NMTAP	81	0	3
NMSTR	82	0	5
NMSLR	82	0	5	96	288	1
NMSTR	83	0	2
NMSI_	83	0	2	96	192	4
NMHLD	84	0	5	48
NMTAP	84	48	4
NMTAP	84	72	5
NMTAP	84	96	4
NMHLD	84	144	3	48
NMHLD	84	144	6	48
NMHLD	84	216	3	48
NMHLD	84	216	6	48
NMHLD	84	288	1	48
NMHLD	84	288	4	48
NMHLD	84	360	1	48
NMHLD	84	360	4	48
NMHLD	85	48	2	48
NMHLD	85	48	3	48
NMHLD	85	120	3	48
NMHLD	85	120	4	48
BRTAP	85	192	2
BRTAP	85	192	5
NMSTR	87	288	0
NMSCR	87	288	0	96	48	2
NMSTR	87	288	4
NMSCR	87	288	4	96	48	6
BRSTR	88	0	0
BRSI_	88	0	0	96	48	4
BRTAP	88	0	4
NMTAP	88	96	0
NMSTR	88	96	7
NMSI_	88	96	7	96	48	2
NMSTR	88	192	3
NMSI_	88	192	3	96	48	0
NMTAP	88	192	7
NMTAP	88	288	3
NMSTR	88	288	4
BRSI_	88	288	4	96	48	7
NMSTR	89	0	1
NMSF_	89	0	1	96	48	5
NMTAP	89	0	4
NMTAP	89	96	1
NMTAP	89	192	7
NMTAP	89	240	7
NMSTR	89	288	3
NMSI_	89	288	3	96	48	0
NMSTR	89	288	6
NMSI_	89	288	6	96	48	0
NMTAP	90	0	3
NMSTR	90	0	6
NMSI_	90	0	6	96	48	4
EXSTR	90	96	1
NMSI_	90	96	1	96	48	4
NMTAP	90	96	6
NMTAP	90	192	1
NMSTR	90	192	6
NMSI_	90	192	6	96	48	2
NMSTR	90	288	0
NMSI_	90	288	0	96	48	5
NMSCR	90	288	0	96	48	3
NMTAP	90	288	6
NMTAP	91	0	0
EXTAP	91	96	2
EXTAP	91	96	6
NMTAP	91	192	5
NMTAP	91	216	4
NMTAP	91	240	6
BRSTR	91	288	3
NMSI_	91	288	3	96	48	1
NMSTR	91	288	7
BRSI_	91	288	7	96	48	5
NMSTR	92	0	3
BRSI_	92	0	3	96	48	7
NMTAP	92	0	7
NMTAP	92	96	3
NMSTR	92	96	6
NMSUL	92	96	6	96	48	2
NMSTR	92	192	0
NMSI_	92	192	0	96	48	4
NMTAP	92	192	6
NMSTR	92	288	0
BRSI_	92	288	0	96	48	2
BRSI_	92	288	0	96	48	6
NMSTR	93	0	0
NMSSL	93	0	0	96	48	4
NMTAP	93	96	0
NMTAP	93	192	2
NMTAP	93	192	6
NMTAP	93	288	2
NMTAP	93	336	3
NMSTR	94	0	1
BRSI_	94	0	1	96	48	7
NMSTR	94	0	4
BRSI_	94	0	4	96	48	7
NMTAP	94	96	1
NMTAP	94	96	4
NMSTR	94	192	1
BRSI_	94	192	1	96	48	5
NMSTR	94	192	6
BRSI_	94	192	6	96	48	3
NMTAP	94	288	1
NMTAP	94	288	6
EXTAP	95	0	1
EXTAP	95	0	7
NMTAP	95	96	0
NMTAP	95	120	0
NMTAP	95	144	0
NMTAP	95	168	0
NMTAP	95	192	0
NMTAP	95	216	0
NMTAP	95	240	0
NMTAP	95	264	0
EXTAP	95	288	1
EXTAP	95	288	7
NMHLD	96	0	0	48
NMHLD	96	0	6	48
NMHLD	96	96	0	48
NMHLD	96	96	6	48
NMHLD	96	192	1	48
NMHLD	96	192	3	48
NMHLD	96	264	3	48
NMHLD	96	264	4	48
NMTAP	96	336	4
NMTAP	96	336	6
NMTAP	97	48	5
NMTAP	97	72	5
NMTAP	97	96	4
NMTAP	97	96	6
NMTAP	97	192	2
NMTAP	97	216	3
NMTAP	97	240	1
NMTAP	97	288	5
NMTAP	97	312	4
NMTAP	97	336	6
NMSTR	98	0	1
NMSI_	98	0	1	96	48	5
NMTAP	98	0	7
NMSTR	98	96	0
NMSI_	98	96	0	96	48	4
BRTAP	98	96	1
BRTAP	98	192	0
NMSTR	98	192	7
NMSI_	98	192	7	96	48	3
NMSTR	98	288	6
NMSI_	98	288	6	96	48	2
BRTAP	98	288	7
BRSTR	99	0	0
NMSI_	99	0	0	96	48	3
NMSCR	99	0	0	96	48	3
BRTAP	99	0	6
BRSTR	99	96	0
NMSI_	99	96	0	96	48	5
NMSCL	99	96	0	96	48	5
BRTAP	99	192	0
NMTAP	99	288	1
NMTAP	99	288	4
NMTAP	100	0	2
NMTAP	100	0	3
NMTAP	100	48	1
NMTAP	100	72	3
NMTAP	100	96	2
NMTAP	100	144	5
NMTAP	100	168	4
NMTAP	100	192	6
NMTAP	100	240	0
NMTAP	100	240	1
NMTAP	100	288	0
NMTAP	100	288	1
NMTAP	101	0	1
NMTAP	101	16	2
NMTAP	101	32	3
NMTAP	101	48	0
NMTAP	101	64	7
NMTAP	101	80	6
NMTAP	101	96	2
NMTAP	101	112	3
NMTAP	101	128	4
NMTAP	101	144	7
NMTAP	101	160	6
NMTAP	101	176	5
NMSTR	101	192	4
NMSF_	101	192	4	96	48	0
NMTAP	101	288	4
NMTAP	102	0	2
NMTAP	102	0	6
NMTAP	102	48	2
NMTAP	102	48	6
NMTAP	102	96	1
NMTAP	102	96	5
NMTAP	102	144	1
NMTAP	102	144	5
NMTAP	102	192	0
NMTAP	102	192	4
NMTAP	102	240	0
NMTAP	102	240	4
NMTAP	102	288	3
NMTAP	102	288	7
NMTTP	103	0	0	D	0	M1
NMTTP	103	12	1	D	0	M1
NMTTP	103	24	2	D	0	M1
NMTTP	103	36	3	D	0	M1
NMTTP	103	48	4	D	0	M1
NMTTP	103	60	5	D	0	M1
NMTTP	103	72	6	D	0	M1
NMTTP	103	84	7	D	0	M1
NMTTP	103	96	0	D	0	M1
NMTTP	103	108	1	D	0	M1
NMTTP	103	120	2	D	0	M1
NMTTP	103	132	3	D	0	M1
NMTTP	103	144	4	D	0	M1
NMTTP	103	156	5	D	0	M1
NMTTP	103	168	6	D	0	M1
NMTTP	103	180	7	D	0	M1
NMTTP	103	192	0	D	0	M1
NMTTP	103	204	1	D	0	M1
NMTTP	103	216	2	D	0	M1
NMTTP	103	228	3	D	0	M1
NMTTP	103	240	4	D	0	M1
NMTTP	103	252	5	D	0	M1
NMTTP	103	264	6	D	0	M1
NMTTP	103	276	7	D	0	M1
NMTTP	103	288	0	B	0	M1
NMTTP	103	288	1	B	0	M1
NMTTP	103	288	1	E	1	M1
NMSTR	104	0	3
NMSI_	104	0	3	96	48	0
NMSTR	104	0	7
NMSI_	104	0	7	96	48	4
BRTAP	104	96	3
BRTAP	104	96	7
NMHLD	104	192	1	48
NMHLD	104	192	5	48
NMTAP	104	288	1
NMTAP	104	288	5
NMSTR	105	0	2
NMSI_	105	0	2	96	48	7
NMTAP	105	48	2
NMSTR	105	96	6
NMSI_	105	96	6	96	48	3
NMTAP	105	144	6
NMSTR	105	192	1
NMSI_	105	192	1	96	48	4
NMTAP	105	240	1
NMTAP	105	288	0
NMSTR	106	0	3
NMSCL	106	0	3	96	48	0
NMSTR	106	0	7
NMSCL	106	0	7	96	48	4
NMTAP	106	96	3
NMTAP	106	96	7
NMSTR	106	192	1
NMSI_	106	192	1	96	48	6
NMSTR	106	192	5
NMSI_	106	192	5	96	48	2
NMTAP	106	288	1
NMTAP	106	288	5
NMSTR	107	0	7
NMSI_	107	0	7	96	48	2
NMTAP	107	48	7
NMSTR	107	96	3
NMSI_	107	96	3	96	48	6
NMTAP	107	144	3
NMSTR	107	192	0
NMSI_	107	192	0	96	48	4
NMTAP	107	240	0
BRTAP	107	288	7
NMSTR	108	0	6
NMSCR	108	0	6	96	192	4
NMTTP	108	96	0	E	0	M1
NMSTR	108	192	4
NMSLR	108	192	4	96	72	0
NMTTP	108	288	3	B	0	M1
CNSI_	108	360	0	0	120	2
NMSTR	109	0	2
BRSCR	109	0	2	96	192	0
NMTTP	109	96	3	E	0	M1
NMSTR	109	192	0
BRSLR	109	192	0	96	96	4
NMTTP	109	288	0	C	0	M1
NMTAP	110	0	6
NMTAP	110	48	6
NMTAP	110	96	5
NMTAP	110	96	7
NMTAP	110	144	0
NMTAP	110	192	1
NMTAP	110	192	3
NMTAP	110	240	2
NMTAP	110	288	3
NMTAP	110	288	4
NMTAP	110	336	5
NMHLD	111	0	6	24
NMHLD	111	48	6	24
NMHLD	111	96	5	24
NMHLD	111	96	7	24
NMHLD	111	144	5	24
NMHLD	111	144	7	24
NMHLD	111	192	0	24
NMHLD	111	192	4	24
NMHLD	111	240	0	24
NMHLD	111	240	4	24
NMHLD	111	288	1	24
NMHLD	111	288	3	24
NMHLD	111	336	1	24
NMHLD	111	336	3	24
NMSTR	112	0	2
NMSSL	112	0	2	96	480	6
NMHLD	114	0	5	48
NMHLD	114	0	7	48
NMHLD	114	72	2	48
NMHLD	114	72	4	48
NMTAP	114	144	0
NMTAP	114	144	1
NMHLD	114	192	0	48
NMHLD	114	192	1	48
NMHLD	114	264	3	48
NMHLD	114	264	5	48
NMTAP	114	336	0
NMTAP	114	336	6
BXTAP	115	0	0
EXTAP	115	0	6
NMTAP	115	16	1
NMTAP	115	32	2
NMTAP	115	48	3
NMTAP	115	64	4
NMTAP	115	80	5
NMTAP	115	96	6
NMTAP	115	112	7
NMTAP	115	128	0
BXTAP	115	144	1
EXTAP	115	144	5
NMTAP	115	160	2
NMTAP	115	176	3
NMTAP	115	192	4
NMTAP	115	208	5
NMTAP	115	224	6
NMTAP	115	240	7
NMTAP	115	256	0
NMTAP	115	272	1
BXTAP	115	288	2
BXTAP	115	288	4
NMTAP	115	304	3
NMTAP	115	304	5
NMTAP	115	320	4
NMTAP	115	320	6
NMHLD	115	336	5	240
NMHLD	115	336	7	416
NMTTP	117	0	0	D	0	M1
NMTTP	117	0	7	D	0	M1
NMTTP	117	4	0	A	0	M1
NMTTP	117	8	6	A	0	M1
NMTTP	117	12	1	D	0	M1
NMTTP	117	16	6	D	0	M1
NMTTP	117	20	1	A	0	M1
NMTTP	117	24	5	A	0	M1
NMTTP	117	28	2	D	0	M1
NMTTP	117	32	5	D	0	M1
NMTTP	117	36	2	A	0	M1
NMTTP	117	40	4	A	0	M1
NMTTP	117	44	3	D	0	M1
NMTTP	117	48	4	D	0	M1
NMTTP	117	56	3	A	1	M1

T_REC_TAP	411
T_REC_BRK	16
T_REC_XTP	14
T_REC_BXX	5
T_REC_HLD	82
T_REC_XHO	3
T_REC_BHO	3
T_REC_BXH	0
T_REC_STR	101
T_REC_BST	7
T_REC_XST	2
T_REC_XBS	1
T_REC_TTP	90
T_REC_THO	0
T_REC_SLD	105
T_REC_BSL	13
T_REC_ALL	853
T_NUM_TAP	618
T_NUM_BRK	45
T_NUM_HLD	85
T_NUM_SLD	105
T_NUM_ALL	853
T_JUDGE_TAP	647
T_JUDGE_HLD	213
T_JUDGE_SLD	118
T_JUDGE_ALL	978
TTM_EACHPAIRS	158
TTM_SCR_TAP	309000
TTM_SCR_BRK	117000
TTM_SCR_HLD	85000
TTM_SCR_SLD	157500
TTM_SCR_ALL	668500
TTM_SCR_S	644100
TTM_SCR_SS	664000
TTM_RAT_ACV	10067

