VERSION	0.00.00	1.05.00
FES_MODE	0
BPM_DEF	220.000	220.000	220.000	220.000
MET_DEF	4	4
RESOLUTION	384
CLK_DEF	384
COMPATIBLE_CODE	MA2

BPM	0	0	220.000
MET	0	0	4	4

NMTAP	3	192	4
NMTAP	3	288	3
BRHLD	4	0	2	384
NMTAP	4	288	3
NMHLD	5	0	3	384
NMTAP	5	288	4
NMSTR	6	0	4
NMSCL	6	0	4	96	288	7
NMTAP	7	192	6
NMTAP	7	288	6
NMHLD	8	0	5	384
NMTAP	8	288	4
NMHLD	9	0	4	384
NMTAP	9	288	3
NMSTR	10	0	3
NMSCR	10	0	3	96	288	0
NMTAP	11	192	0
NMTAP	11	288	0
NMHLD	12	0	1	384
NMTAP	12	288	3
NMHLD	13	0	3	384
NMTAP	13	288	4
NMSTR	14	0	4
NMSXR	14	0	4	96	384	6
NMTAP	15	192	7
NMTAP	15	288	7
NMHLD	16	0	6	384
NMTAP	16	288	4
NMHLD	17	0	4	384
NMTAP	17	288	3
BRSTR	18	0	3
NMSCL	18	0	3	96	672	5
CNSUL	20	0	5	0	384	4
NMHLD	22	0	6	288
NMTAP	22	96	4
NMTAP	22	192	4
NMTAP	22	288	4
NMHLD	23	0	3	96
NMHLD	23	0	5	96
NMHLD	23	144	2	96
NMHLD	23	144	4	96
NMTAP	23	288	2
NMTAP	23	288	4
NMHLD	24	0	1	288
NMTAP	24	96	3
NMTAP	24	192	3
NMTAP	24	288	3
NMHLD	25	0	2	96
NMHLD	25	0	4	96
NMHLD	25	144	3	96
NMHLD	25	144	5	96
NMTAP	25	288	3
NMTAP	25	288	5
NMHLD	26	0	3	96
NMHLD	26	0	6	96
NMTAP	26	144	4
NMTAP	26	144	5
EXHLD	26	240	2	96
EXHLD	26	240	3	96
NMHLD	27	0	1	96
NMHLD	27	0	4	96
NMTAP	27	144	2
NMTAP	27	144	3
EXHLD	27	240	4	96
EXHLD	27	240	5	96
NMHLD	28	0	3	96
NMHLD	28	0	6	96
NMTAP	28	144	4
NMTAP	28	144	5
EXHLD	28	240	2	96
EXHLD	28	240	3	96
NMHLD	29	0	1	96
NMHLD	29	0	4	96
NMTAP	29	144	2
NMTAP	29	144	3
EXTAP	29	240	4
EXTAP	29	240	5
EXTAP	29	288	4
EXTAP	29	288	5
NMTAP	30	0	6
NMTAP	30	48	6
NMTAP	30	96	4
NMTAP	30	144	5
NMTAP	30	192	1
NMTAP	30	240	1
NMTAP	30	288	3
NMTAP	30	336	2
NMTAP	31	0	6
NMTAP	31	48	6
NMTAP	31	96	4
NMTAP	31	144	5
NMTAP	31	192	1
NMTAP	31	240	1
NMTAP	31	288	3
NMTAP	31	336	2
NMTAP	32	0	6
NMTAP	32	48	6
NMTAP	32	96	1
NMTAP	32	144	1
EXTAP	32	192	0
EXTAP	32	192	7
EXTAP	32	240	0
EXTAP	32	240	7
EXTAP	32	288	0
EXTAP	32	288	7
EXTAP	32	336	0
EXTAP	32	336	7
EXSTR	33	0	0
NMSI_	33	0	0	96	48	2
EXSTR	33	0	7
NMSI_	33	0	7	96	48	5
EXTAP	33	192	3
EXTAP	33	192	4
BRTAP	33	288	2
BRTAP	33	288	5
NMHLD	34	0	6	72
NMHLD	34	72	4	72
NMTAP	34	144	5
NMHLD	34	192	1	72
NMHLD	34	264	3	72
NMTAP	34	336	2
NMSTR	35	0	2
NMSI_	35	0	2	96	48	7
NMSTR	35	192	6
NMSI_	35	192	6	96	48	3
NMHLD	36	0	1	72
NMHLD	36	72	3	72
NMTAP	36	144	2
NMHLD	36	192	6	72
NMHLD	36	264	4	72
NMTAP	36	336	5
NMSTR	37	0	5
NMSI_	37	0	5	96	48	0
NMTAP	37	192	1
NMTAP	37	288	2
NMTAP	38	0	1
NMTAP	38	0	3
NMTAP	38	48	1
NMTAP	38	48	3
NMTAP	38	96	1
NMTAP	38	96	3
NMTAP	38	192	0
NMTAP	38	192	1
NMTAP	38	288	6
NMTAP	38	288	7
NMTAP	39	0	4
NMTAP	39	0	6
NMTAP	39	48	4
NMTAP	39	48	6
NMTAP	39	96	4
NMTAP	39	96	6
NMTAP	39	192	6
NMTAP	39	192	7
NMTAP	39	288	0
NMTAP	39	288	1
NMHLD	40	0	2	96
NMHLD	40	0	3	96
NMTAP	40	144	2
NMTAP	40	144	3
NMTAP	40	240	4
NMTAP	40	240	5
NMTAP	40	336	2
NMTAP	40	336	3
NMTAP	41	48	1
NMHLD	41	96	1	96
NMTAP	41	192	3
NMTAP	41	288	4
NMTAP	41	288	6
NMTAP	42	0	6
NMTAP	42	0	7
NMTAP	42	96	2
NMTAP	42	96	3
NMTAP	42	192	0
NMTAP	42	192	1
NMSTR	42	288	4
NMSUR	42	288	4	96	96	0
NMSTR	42	288	5
NMSCR	42	288	5	96	96	7
NMTAP	43	192	0
NMTAP	43	192	7
NMTAP	43	288	0
NMTAP	43	288	7
NMTAP	44	0	0
NMTAP	44	0	1
NMTAP	44	96	4
NMTAP	44	96	5
NMTAP	44	192	6
NMTAP	44	192	7
NMHLD	44	288	2	288
NMSTR	44	288	3
NMSCL	44	288	3	96	192	7
NMTAP	45	288	3
NMTAP	45	288	7
NMTAP	46	0	4
NMTAP	46	0	6
NMTAP	46	48	4
NMTAP	46	48	6
NMTAP	46	96	4
NMTAP	46	96	6
NMTAP	46	192	6
NMTAP	46	192	7
NMTAP	46	288	0
NMTAP	46	288	1
NMTAP	47	0	1
NMTAP	47	0	3
NMTAP	47	48	1
NMTAP	47	48	3
NMTAP	47	96	1
NMTAP	47	96	3
NMTAP	47	192	0
NMTAP	47	192	1
NMTAP	47	288	6
NMTAP	47	288	7
NMSTR	48	0	5
NMSI_	48	0	5	96	48	3
NMTAP	48	144	1
NMHLD	48	192	1	144
NMTAP	48	336	3
NMSTR	49	0	3
NMSI_	49	0	3	96	96	7
EXTAP	49	288	0
EXTAP	49	288	6
NMSTR	50	0	7
NMSCL	50	0	7	96	48	4
NMTTP	50	192	3	B	0	M1
NMTTP	50	192	3	E	1	M1
NMTTP	50	192	3	A	0	M1
NMHLD	51	0	1	72
NMHLD	51	72	2	72
NMTAP	51	144	3
NMTAP	51	192	3
NMTAP	51	288	1
NMTAP	51	288	4
NMHLD	52	0	3	96
NMHLD	52	0	6	96
BXTAP	52	192	4
BXTAP	52	192	5
BXTAP	52	264	3
BXTAP	52	264	4
BXTAP	52	336	2
BXTAP	52	336	3
BXTAP	53	24	2
BXTAP	53	24	3
BXTAP	53	96	3
BXTAP	53	96	4
BXTAP	53	168	4
BXTAP	53	168	5
NMTAP	54	0	6
NMTAP	54	48	6
NMTAP	54	96	4
NMTAP	54	144	4
NMTAP	54	192	7
NMSTR	54	240	7
NMSSR	54	240	7	96	240	3
BXHLD	55	192	2	192
NMHLD	56	0	0	192
NMHLD	56	192	7	192
NMSTR	57	0	5
NMSI_	57	0	5	96	96	0
NMTTP	58	0	5	E	0	M1
NMTTP	58	96	4	E	0	M1
NMTTP	58	192	3	E	0	M1
NMTTP	59	0	6	B	0	M1
NMTTP	59	96	0	C	0	M1
NMTTP	59	192	1	B	0	M1
NMTTP	60	0	5	E	0	M1
NMTTP	60	96	4	E	0	M1
NMTTP	60	192	3	E	0	M1
NMTTP	60	288	2	E	0	M1
NMTTP	61	0	1	E	0	M1
NMTTP	61	96	0	E	0	M1
NMTTP	61	192	7	E	0	M1
NMTTP	61	288	6	E	0	M1
NMTTP	62	0	5	E	0	M1
NMTTP	62	96	4	E	0	M1
NMTTP	62	192	3	E	0	M1
NMTTP	63	0	6	B	0	M1
NMTTP	63	96	0	C	0	M1
NMTTP	63	192	1	B	0	M1
NMTTP	64	0	5	E	0	M1
NMTTP	64	96	4	E	0	M1
NMTTP	64	192	3	E	0	M1
NMTTP	64	288	2	E	0	M1
NMTTP	65	0	1	E	0	M1
NMTTP	65	96	0	E	0	M1
NMTTP	65	192	7	E	0	M1
EXTAP	66	0	5
NMTAP	66	48	5
NMTAP	66	96	4
NMTAP	66	192	3
NMTAP	66	288	2
EXTAP	66	336	2
EXTAP	67	0	3
NMTAP	67	96	4
NMTAP	67	192	4
NMTAP	67	288	3
EXTAP	68	0	2
NMTAP	68	48	2
NMTAP	68	96	3
NMTAP	68	192	4
NMTAP	68	288	5
EXTAP	68	336	5
EXTAP	69	0	4
NMTAP	69	96	3
NMTAP	69	192	4
NMTAP	69	288	4
NMTAP	69	288	5
EXTAP	70	0	6
NMTAP	70	48	6
NMTAP	70	96	4
NMTAP	70	192	3
NMTAP	70	288	1
EXTAP	70	336	1
EXTAP	71	0	3
NMTAP	71	96	4
NMTAP	71	192	4
NMTAP	71	288	3
EXTAP	72	0	1
NMTAP	72	48	1
NMTAP	72	96	3
NMTAP	72	192	4
NMSTR	72	288	6
NMSCL	72	288	6	96	192	2
NMTTP	73	0	3	B	0	M1
NMTTP	73	0	4	B	0	M1
NMTTP	73	0	4	E	1	M1
NMTAP	74	0	1
NMTAP	74	48	1
NMTAP	74	96	0
NMTAP	74	96	1
NMHLD	74	192	7	72
NMHLD	74	264	6	72
NMTAP	74	336	5
NMTAP	75	0	5
NMTAP	75	96	6
NMTAP	75	96	7
NMHLD	75	192	0	72
NMHLD	75	264	1	72
NMTAP	75	336	2
NMHLD	76	0	2	72
NMHLD	76	72	1	72
NMTAP	76	144	0
NMHLD	76	192	7	72
NMHLD	76	264	6	72
NMTAP	76	336	5
NMSTR	77	0	5
NMSSR	77	0	5	96	192	1
EXHLD	78	0	0	96
EXHLD	78	0	1	96
NMTAP	78	192	2
NMTAP	78	192	3
NMTAP	78	288	2
NMTAP	78	288	3
NMHLD	79	0	6	96
NMHLD	79	0	7	96
NMTAP	79	192	4
NMTAP	79	192	5
NMTAP	79	288	4
NMTAP	79	288	5
NMTAP	80	0	3
NMTAP	80	0	6
NMTAP	80	72	2
NMTAP	80	72	5
NMTAP	80	144	1
NMTAP	80	144	4
NMTAP	80	192	1
NMTAP	80	192	4
NMTAP	80	264	2
NMTAP	80	264	5
NMTAP	80	336	3
NMTAP	80	336	6
NMSTR	81	0	3
NMSCL	81	0	3	96	192	0
NMTAP	81	0	6
NMSTR	82	0	4
NMSCR	82	0	4	96	192	7
NMSTR	83	0	0
NMSCR	83	0	0	96	192	3
NMHLD	84	0	3	96
NMHLD	84	0	4	96
EXTAP	84	216	5
EXTAP	84	288	6
EXTAP	84	360	7
EXTAP	85	48	0
EXTAP	85	120	1
EXTAP	85	192	2
NMHLD	87	0	6	288
BXTAP	87	288	0
NMSTR	88	0	1
NMSI_	88	0	1	96	48	3
NMSTR	88	96	7
NMSI_	88	96	7	96	48	5
NMSTR	88	192	0
NMSI_	88	192	0	96	48	4
EXTAP	88	288	6
NMTAP	89	0	5
NMTAP	89	0	7
NMTAP	89	96	4
NMTAP	89	96	5
NMTAP	89	192	0
NMTAP	89	192	2
NMTAP	89	288	2
NMTAP	89	288	3
NMSTR	90	0	1
NMSI_	90	0	1	96	48	3
NMSTR	90	96	7
NMSI_	90	96	7	96	48	5
NMSTR	90	192	0
NMSI_	90	192	0	96	48	4
EXTAP	90	288	6
NMTAP	91	0	7
NMTAP	91	48	7
NMTAP	91	96	4
NMTAP	91	96	6
NMTAP	91	192	0
NMTAP	91	240	0
NMTAP	91	288	1
NMTAP	91	288	3
NMSTR	92	0	6
NMSI_	92	0	6	96	48	4
NMSTR	92	96	0
NMSI_	92	96	0	96	48	2
NMSTR	92	192	7
NMSI_	92	192	7	96	48	3
EXTAP	92	288	1
NMTAP	93	0	0
NMTAP	93	0	2
NMTAP	93	96	2
NMTAP	93	96	3
NMTAP	93	192	5
NMTAP	93	192	7
NMTAP	93	288	4
NMTAP	93	288	5
NMSTR	94	0	6
NMSI_	94	0	6	96	48	4
NMSTR	94	96	0
NMSI_	94	96	0	96	48	2
NMSTR	94	192	7
NMSI_	94	192	7	96	48	3
NMTAP	94	288	1
NMTAP	95	0	1
NMTAP	95	96	0
NMTAP	95	120	7
NMTAP	95	144	0
NMTAP	95	168	7
NMTAP	95	192	0
NMTAP	95	216	7
NMTAP	95	240	0
NMTAP	95	264	7
NMTAP	95	288	0
NMHLD	96	0	2	96
NMHLD	96	0	3	96
EXTAP	96	192	0
EXTAP	96	192	1
EXTAP	96	264	0
EXTAP	96	264	7
EXTAP	96	336	6
EXTAP	96	336	7
NMTAP	97	48	4
NMTAP	97	48	5
NMSTR	97	96	4
NMSI_	97	96	4	96	96	1
NMSTR	97	96	5
NMSI_	97	96	5	96	96	0
EXTAP	98	0	0
EXTAP	98	0	7
NMTAP	98	96	1
NMTAP	98	96	2
NMTAP	98	192	4
NMTAP	98	192	6
NMTAP	98	288	2
NMTAP	98	288	3
NMTAP	99	0	4
NMTAP	99	0	5
NMTAP	99	96	1
NMTAP	99	96	3
NMTAP	99	192	0
NMTAP	99	192	6
NMTAP	99	288	1
NMTAP	99	288	7
NMTAP	99	336	1
NMTAP	99	336	7
NMTAP	100	0	1
NMTAP	100	0	7
NMTAP	100	96	5
NMTAP	100	96	6
NMTAP	100	192	1
NMTAP	100	192	3
NMTAP	100	288	3
NMTAP	100	288	5
NMTAP	100	336	3
NMTAP	100	336	5
NMTAP	101	0	2
NMTAP	101	0	4
NMTAP	101	48	2
NMTAP	101	48	4
NMTAP	101	96	2
NMTAP	101	96	4
NMTAP	101	192	4
NMTAP	101	192	5
NMTAP	101	240	4
NMTAP	101	240	5
NMTAP	101	288	4
NMTAP	101	288	5
NMTAP	102	0	2
NMTAP	102	48	2
NMTAP	102	96	5
NMTAP	102	144	5
NMTAP	102	192	1
NMTAP	102	240	1
NMTAP	102	288	6
NMTAP	102	336	6
BRTAP	103	0	0
NMTAP	103	24	7
NMTAP	103	48	0
NMTAP	103	72	7
NMTAP	103	96	0
NMTAP	103	120	7
NMTAP	103	144	0
NMTAP	103	168	7
NMTAP	103	192	0
EXTAP	103	288	0
EXTAP	103	288	7
EXSTR	104	0	0
NMSI_	104	0	0	96	48	4
EXSTR	104	0	1
NMSI_	104	0	1	96	48	3
NMSTR	104	192	6
NMSI_	104	192	6	96	48	4
NMSTR	104	192	7
NMSI_	104	192	7	96	48	3
NMSTR	105	0	0
NMSI_	105	0	0	96	48	4
NMSTR	105	0	1
NMSI_	105	0	1	96	48	3
NMTAP	105	192	6
NMTAP	105	192	7
NMTAP	105	288	5
NMTAP	105	336	5
NMSTR	106	0	6
NMSI_	106	0	6	96	48	4
NMSTR	106	0	7
NMSI_	106	0	7	96	48	3
NMSTR	106	192	0
NMSI_	106	192	0	96	48	4
NMSTR	106	192	1
NMSI_	106	192	1	96	48	3
NMSTR	107	0	6
NMSI_	107	0	6	96	48	4
NMSTR	107	0	7
NMSI_	107	0	7	96	48	3
NMTAP	107	192	1
NMTAP	107	240	1
NMTAP	107	288	3
NMTAP	107	336	3
NMSTR	108	0	2
NMSV_	108	0	2	96	96	5
NMSTR	108	192	6
NMSCR	108	192	6	96	96	1
NMSTR	109	0	3
NMSV_	109	0	3	96	96	0
NMSTR	109	192	7
NMSCL	109	192	7	96	96	4
NMSTR	110	0	1
NMSCL	110	0	1	96	96	6
NMSTR	110	192	5
NMSUR	110	192	5	96	96	2
NMSTR	111	0	3
NMSUR	111	0	3	96	216	4
BRTAP	112	0	7
NMHLD	114	0	1	72
NMHLD	114	72	3	72
NMTAP	114	144	2
NMHLD	114	192	5	72
NMHLD	114	264	4	72
NMTAP	114	336	6
BRTAP	115	0	0
NMTAP	115	24	7
NMTAP	115	48	0
NMTAP	115	72	7
NMTAP	115	96	0
NMTAP	115	120	7
NMTAP	115	144	0
NMTAP	115	168	7
NMTAP	115	192	0
NMTAP	115	216	1
NMTAP	115	240	2
NMTAP	115	264	3
NMTAP	115	288	4
NMTAP	115	312	5
NMTAP	115	336	6
NMTAP	115	360	7
NMHLD	116	0	0	384
NMTTP	117	0	0	C	1	M1

T_REC_TAP	312
T_REC_BRK	5
T_REC_XTP	45
T_REC_BXX	13
T_REC_HLD	64
T_REC_XHO	8
T_REC_BHO	1
T_REC_BXH	1
T_REC_STR	50
T_REC_BST	1
T_REC_XST	4
T_REC_XBS	0
T_REC_TTP	34
T_REC_THO	0
T_REC_SLD	55
T_REC_BSL	0
T_REC_ALL	593
T_NUM_TAP	445
T_NUM_BRK	21
T_NUM_HLD	72
T_NUM_SLD	55
T_NUM_ALL	593
T_JUDGE_TAP	464
T_JUDGE_HLD	225
T_JUDGE_SLD	55
T_JUDGE_ALL	744
TTM_EACHPAIRS	132
TTM_SCR_TAP	222500
TTM_SCR_BRK	54600
TTM_SCR_HLD	72000
TTM_SCR_SLD	82500
TTM_SCR_ALL	431600
TTM_SCR_S	416650
TTM_SCR_SS	429500
TTM_RAT_ACV	10048

