VERSION	0.00.00	1.05.00
FES_MODE	0
BPM_DEF	220.000	220.000	220.000	220.000
MET_DEF	4	4
RESOLUTION	384
CLK_DEF	384
COMPATIBLE_CODE	MA2

BPM	0	0	220.000
MET	0	0	4	4

NMHLD	4	0	5	384
NMHLD	5	0	4	384
NMHLD	6	0	3	384
NMTAP	7	0	2
NMHLD	8	0	2	384
NMHLD	9	0	3	384
NMHLD	10	0	4	384
NMTAP	11	0	5
NMHLD	12	0	6	384
NMHLD	13	0	5	384
NMHLD	14	0	4	384
NMTAP	15	0	3
NMHLD	16	0	1	384
NMHLD	17	0	2	384
NMHLD	18	0	3	384
NMTAP	19	0	4
NMSTR	20	0	3
NMSI_	20	0	3	96	288	0
NMSTR	20	0	4
NMSI_	20	0	4	96	288	7
NMTAP	22	0	7
NMTAP	22	96	7
NMTAP	22	192	6
NMTAP	23	0	5
NMTAP	23	96	5
NMTAP	23	192	4
NMTAP	24	0	3
NMTAP	24	96	3
NMTAP	24	192	2
NMTAP	25	0	1
NMTAP	25	96	1
NMTAP	25	192	0
NMTAP	25	192	7
NMTAP	26	0	0
NMTAP	26	96	0
NMTAP	26	192	1
NMTAP	27	0	2
NMTAP	27	96	2
NMTAP	27	192	3
NMTAP	28	0	4
NMTAP	28	96	4
NMTAP	28	192	5
NMTAP	29	0	6
NMTAP	29	96	6
NMTAP	29	192	0
NMTAP	29	192	7
NMSTR	30	0	6
NMSI_	30	0	6	96	288	3
NMSTR	30	0	7
NMSI_	30	0	7	96	288	2
NMSTR	32	0	0
NMSI_	32	0	0	96	288	5
NMSTR	32	0	1
NMSI_	32	0	1	96	288	4
NMTAP	34	0	5
NMTAP	34	96	5
NMTAP	34	192	6
NMTAP	34	288	6
NMTAP	35	0	7
NMTAP	35	96	7
NMTAP	35	192	0
NMTAP	35	192	1
NMTAP	36	0	2
NMTAP	36	96	2
NMTAP	36	192	1
NMTAP	36	288	1
NMTAP	37	0	0
NMTAP	37	96	0
NMTAP	37	192	6
NMTAP	37	192	7
NMTAP	38	0	6
NMTAP	38	96	6
NMTAP	38	192	5
NMTAP	38	288	5
NMTAP	39	0	4
NMTAP	39	96	4
NMTAP	39	192	2
NMTAP	39	192	3
NMTAP	40	0	1
NMTAP	40	96	1
NMTAP	40	192	2
NMTAP	40	288	2
NMTAP	41	0	3
NMTAP	41	96	3
NMTAP	41	192	4
NMTAP	41	192	5
NMTAP	42	0	5
NMTAP	42	96	5
NMTAP	42	192	6
NMTAP	42	288	6
NMTAP	43	0	7
NMTAP	43	96	7
NMTAP	43	192	0
NMTAP	43	192	1
NMTAP	43	288	0
NMTAP	43	288	1
NMTAP	44	0	2
NMTAP	44	96	2
NMTAP	44	192	1
NMTAP	44	288	1
NMTAP	45	0	0
NMTAP	45	96	0
NMTAP	45	192	6
NMTAP	45	192	7
NMTAP	46	0	6
NMTAP	46	96	6
NMTAP	46	192	5
NMTAP	46	288	5
NMTAP	47	0	4
NMTAP	47	96	4
NMTAP	47	192	2
NMTAP	47	192	3
NMTAP	47	288	2
NMTAP	47	288	3
NMTAP	48	0	1
NMTAP	48	96	1
NMTAP	48	192	2
NMTAP	48	288	2
NMTAP	49	0	3
NMTAP	49	96	3
BRTAP	49	192	4
BRTAP	49	192	5
NMHLD	50	0	6	192
NMTAP	50	192	7
EXTAP	51	0	6
EXTAP	51	96	6
EXTAP	51	192	6
EXTAP	51	192	7
NMHLD	52	0	5	192
NMTAP	52	192	4
NMTAP	53	0	5
NMTAP	53	96	5
NMTAP	53	192	4
NMTAP	53	192	5
NMHLD	54	0	2	192
NMTAP	54	192	3
NMTAP	55	0	2
NMTAP	55	96	2
NMTAP	55	192	2
NMTAP	55	192	3
NMHLD	56	0	1	192
NMTAP	56	192	0
NMTAP	57	0	1
NMTAP	57	96	1
NMTAP	57	192	0
NMTAP	57	192	1
NMSTR	58	0	1
NMSI_	58	0	1	96	288	5
NMTAP	59	192	6
NMSTR	60	0	7
NMSI_	60	0	7	96	288	3
NMTAP	61	192	2
NMSTR	62	0	1
NMSI_	62	0	1	96	288	4
NMTAP	63	192	5
NMSTR	64	0	6
NMSI_	64	0	6	96	288	2
NMTTP	66	0	1	B	0	L1
NMTTP	66	192	2	B	0	L1
NMTTP	67	0	3	B	0	L1
NMTTP	68	0	6	B	0	L1
NMTTP	68	192	5	B	0	L1
NMTTP	69	0	4	B	0	L1
NMTTP	70	0	1	B	0	L1
NMTTP	70	192	2	B	0	L1
NMTTP	71	0	3	B	0	L1
NMTTP	71	192	4	B	0	L1
NMTTP	72	0	5	B	0	L1
NMTTP	72	192	6	B	0	L1
NMTTP	73	0	0	C	1	L1
NMTAP	74	0	6
NMTAP	74	96	6
NMTAP	74	192	6
NMTAP	74	192	7
NMTAP	75	0	5
NMTAP	75	96	5
NMTAP	75	192	4
NMTAP	75	192	5
NMTAP	76	0	3
NMTAP	76	96	3
NMTAP	76	192	2
NMTAP	76	192	3
NMTAP	77	0	1
NMTAP	77	96	1
NMTAP	77	192	0
NMTAP	77	192	7
NMTAP	78	0	1
NMTAP	78	96	1
NMTAP	78	192	0
NMTAP	78	192	1
NMTAP	79	0	2
NMTAP	79	96	2
NMTAP	79	192	2
NMTAP	79	192	3
NMTAP	80	0	4
NMTAP	80	96	4
NMTAP	80	192	4
NMTAP	80	192	5
NMTAP	81	0	6
NMTAP	81	96	6
NMTAP	81	192	0
NMTAP	81	192	7
NMTAP	82	0	0
NMTAP	82	0	7
NMTAP	82	96	0
NMTAP	82	96	7
NMTAP	82	192	0
NMTAP	82	192	7
NMTAP	83	0	1
NMTAP	83	0	6
NMTAP	83	96	1
NMTAP	83	96	6
NMTAP	83	192	1
NMTAP	83	192	6
NMSTR	84	0	2
NMSLL	84	0	2	96	480	3
NMSTR	84	0	5
NMSLR	84	0	5	96	480	4
NMHLD	87	0	3	192
NMHLD	87	0	4	192
BXTAP	88	0	2
NMTAP	88	96	2
NMTAP	88	192	0
NMTAP	88	192	1
NMTAP	88	288	0
NMTAP	88	288	1
NMTAP	89	0	7
NMTAP	89	96	7
NMTAP	89	192	6
NMTAP	89	192	7
NMTAP	90	0	5
NMTAP	90	96	5
NMTAP	90	192	6
NMTAP	90	192	7
NMTAP	90	288	6
NMTAP	90	288	7
NMTAP	91	0	0
NMTAP	91	96	0
NMTAP	91	192	0
NMTAP	91	192	1
NMTAP	92	0	1
NMTAP	92	96	1
NMTAP	92	192	2
NMTAP	92	192	3
NMTAP	92	288	2
NMTAP	92	288	3
NMTAP	93	0	4
NMTAP	93	96	4
NMTAP	93	192	4
NMTAP	93	192	5
NMTAP	94	0	6
NMTAP	94	96	6
NMTAP	94	192	4
NMTAP	94	192	5
NMTAP	94	288	4
NMTAP	94	288	5
NMTAP	95	0	3
NMTAP	95	96	3
BXTAP	95	192	2
BXTAP	95	192	3
NMTAP	96	0	2
NMTAP	96	96	2
NMTAP	96	192	0
NMTAP	96	192	1
NMTAP	96	288	0
NMTAP	96	288	1
NMTAP	97	0	7
NMTAP	97	96	7
NMTAP	97	192	6
NMTAP	97	192	7
NMTAP	97	288	6
NMTAP	97	288	7
NMTAP	98	0	5
NMTAP	98	96	5
NMTAP	98	192	6
NMTAP	98	192	7
NMTAP	98	288	6
NMTAP	98	288	7
NMTAP	99	0	0
NMTAP	99	96	0
NMTAP	99	192	0
NMTAP	99	192	1
NMTAP	100	0	1
NMTAP	100	96	1
NMTAP	100	192	2
NMTAP	100	192	3
NMTAP	100	288	2
NMTAP	100	288	3
NMTAP	101	0	4
NMTAP	101	96	4
NMTAP	101	192	4
NMTAP	101	192	5
NMTAP	101	288	4
NMTAP	101	288	5
NMTAP	102	0	6
NMTAP	102	96	6
NMTAP	102	192	4
NMTAP	102	192	5
NMTAP	102	288	4
NMTAP	102	288	5
NMTAP	103	0	3
NMTAP	103	96	3
NMTAP	103	192	2
NMTAP	103	192	3
NMTAP	104	0	2
NMTAP	104	48	2
NMTAP	104	96	2
NMTAP	104	192	0
NMTAP	104	192	1
NMTAP	104	288	0
NMTAP	104	288	1
NMTAP	105	0	7
NMTAP	105	96	7
NMTAP	105	192	6
NMTAP	105	192	7
NMTAP	106	0	5
NMTAP	106	48	5
NMTAP	106	96	5
NMTAP	106	192	6
NMTAP	106	192	7
NMTAP	106	288	6
NMTAP	106	288	7
NMTAP	107	0	0
NMTAP	107	96	0
NMTAP	107	192	0
NMTAP	107	192	1
NMTAP	108	0	1
NMTAP	108	48	1
NMTAP	108	96	1
NMTAP	108	192	2
NMTAP	108	192	3
NMTAP	108	288	2
NMTAP	108	288	3
NMTAP	109	0	4
NMTAP	109	96	4
NMTAP	109	192	4
NMTAP	109	192	5
NMTAP	110	0	6
NMTAP	110	48	6
NMTAP	110	96	6
NMTAP	110	192	4
NMTAP	110	192	5
NMTAP	110	288	4
NMTAP	110	288	5
NMTAP	111	0	3
NMTAP	111	96	3
NMTAP	111	192	2
NMTAP	111	192	3
NMSTR	112	0	1
NMSCR	112	0	1	96	480	6
NMTAP	114	0	0
NMTAP	114	0	7
NMTAP	114	96	0
NMTAP	114	96	7
NMTAP	114	192	1
NMTAP	114	192	6
NMTAP	114	288	1
NMTAP	114	288	6
NMTAP	115	0	2
NMTAP	115	0	5
NMTAP	115	96	2
NMTAP	115	96	5
NMTAP	115	192	3
NMTAP	115	192	4
NMHLD	115	288	3	288
NMHLD	115	288	4	288
BXTAP	117	0	2
BXTAP	117	0	5

T_REC_TAP	298
T_REC_BRK	2
T_REC_XTP	4
T_REC_BXX	5
T_REC_HLD	20
T_REC_XHO	0
T_REC_BHO	0
T_REC_BXH	0
T_REC_STR	13
T_REC_BST	0
T_REC_XST	0
T_REC_XBS	0
T_REC_TTP	13
T_REC_THO	0
T_REC_SLD	13
T_REC_BSL	0
T_REC_ALL	368
T_NUM_TAP	328
T_NUM_BRK	7
T_NUM_HLD	20
T_NUM_SLD	13
T_NUM_ALL	368
T_JUDGE_TAP	335
T_JUDGE_HLD	132
T_JUDGE_SLD	13
T_JUDGE_ALL	480
TTM_EACHPAIRS	82
TTM_SCR_TAP	164000
TTM_SCR_BRK	18200
TTM_SCR_HLD	20000
TTM_SCR_SLD	19500
TTM_SCR_ALL	221700
TTM_SCR_S	214400
TTM_SCR_SS	221000
TTM_RAT_ACV	10031

