VERSION	0.00.00	1.05.00
FES_MODE	0
BPM_DEF	181.000	181.000	181.000	181.000
MET_DEF	4	4
RESOLUTION	384
CLK_DEF	384
COMPATIBLE_CODE	MA2

BPM	0	0	181.000
MET	0	0	4	4

NMHLD	1	0	4	192
NMHLD	1	0	6	192
NMTAP	1	288	3
NMTAP	1	288	4
NMHLD	2	0	1	192
NMHLD	2	0	3	192
NMTAP	2	288	3
NMTAP	2	288	4
NMHLD	3	0	5	96
BXHLD	3	0	6	96
BXHLD	3	192	1	96
NMHLD	3	192	2	96
BRTAP	4	0	0
BRTAP	4	96	1
BRHLD	4	192	2	96
NMSTR	4	192	4
NMSCR	4	192	4	96	48	7
NMTTP	4	288	4	A	1	M1
NMTAP	5	0	1
NMTAP	5	64	1
NMTAP	5	96	0
NMTAP	5	160	2
NMTAP	5	192	6
NMTAP	5	256	6
NMTAP	5	288	7
NMTAP	5	352	5
NMTAP	6	0	1
NMTAP	6	64	1
NMTAP	6	96	3
NMTAP	6	160	2
NMTAP	6	192	6
NMTAP	6	256	6
NMTAP	6	288	4
NMTAP	6	352	5
NMTAP	7	0	2
NMTAP	7	64	2
NMTAP	7	96	0
NMTAP	7	160	0
NMTAP	7	192	7
NMTAP	7	256	7
NMTAP	7	288	5
NMTAP	7	352	5
NMTAP	8	0	4
NMTAP	8	64	4
NMTAP	8	96	6
NMTAP	8	160	6
NMTAP	8	192	0
NMTAP	8	288	1
NMTAP	8	288	7
NMTAP	9	0	6
NMTAP	9	64	6
NMTAP	9	96	4
NMTAP	9	160	5
NMTAP	9	192	1
NMTAP	9	256	1
NMTAP	9	288	3
NMTAP	9	352	2
NMTAP	10	0	7
NMTAP	10	64	7
NMTAP	10	96	5
NMTAP	10	160	5
NMTAP	10	192	3
EXTAP	10	288	2
EXTAP	10	288	4
NMTTP	11	0	4	B	0	M1
NMTTP	11	0	4	E	0	M1
NMTTP	11	0	5	B	0	M1
NMTTP	11	0	5	E	0	M1
NMTTP	11	0	6	E	0	M1
NMTTP	11	192	1	B	0	M1
NMTTP	11	192	1	E	0	M1
NMTTP	11	192	2	B	0	M1
NMTTP	11	192	2	E	0	M1
NMTTP	11	192	3	E	0	M1
EXTAP	12	0	6
NMTAP	12	32	7
NMTAP	12	64	6
EXTAP	12	96	1
NMTAP	12	128	0
NMTAP	12	160	1
EXTAP	12	192	7
NMTAP	12	224	6
NMTAP	12	256	5
EXTAP	12	288	1
NMTAP	12	320	2
NMTAP	12	352	3
BRHLD	13	0	4	768
NMTTP	14	0	4	E	0	M1
NMTTP	14	192	5	E	0	M1
NMTHO	15	0	4	192	E	0	M1
NMTTP	16	0	4	B	0	M1
NMTTP	16	0	5	B	0	M1
NMTTP	16	192	3	B	0	M1
NMTTP	16	192	6	B	0	M1
NMTAP	17	0	0
NMHLD	17	0	1	768
NMTTP	17	192	1	E	0	M1
NMTTP	18	0	2	E	0	M1
NMTTP	18	192	3	E	0	M1
BRSTR	19	0	3
NMSI_	19	0	3	96	48	7
NMTAP	19	96	2
NMTAP	19	192	4
EXTAP	19	192	6
NMTAP	19	256	5
NMTAP	19	288	4
BRTAP	19	352	2
BRTAP	19	352	6
NMTAP	20	64	1
NMTAP	20	96	0
NMTAP	20	128	1
NMTAP	20	160	0
NMSTR	20	192	2
NMSCR	20	192	2	96	48	5
EXHLD	21	0	6	96
NMHLD	21	96	5	96
NMHLD	21	192	4	96
NMHLD	21	288	3	96
NMHLD	22	0	2	96
NMHLD	22	96	1	96
NMTAP	22	192	0
NMTAP	22	288	0
NMSTR	22	288	1
NMSLR	22	288	1	96	192	5
NMTAP	23	0	0
NMTAP	23	96	0
NMTAP	23	192	0
NMSTR	23	288	6
BRSLL	23	288	6	96	192	2
NMTAP	23	288	7
NMTAP	24	0	7
NMTAP	24	96	7
NMTAP	24	192	7
NMTAP	24	288	0
NMTAP	24	288	1
NMTAP	25	0	0
NMHLD	25	0	1	96
NMTAP	25	96	0
NMTAP	25	192	0
NMHLD	25	192	2	96
NMTAP	25	288	0
NMTAP	26	0	0
NMHLD	26	0	3	96
NMTAP	26	96	0
NMSTR	26	192	0
NMSI_	26	192	0	96	96	3
NMTAP	26	192	2
NMSTR	26	288	3
NMSI_	26	288	3	96	96	6
NMTAP	27	0	6
NMHLD	27	96	0	96
NMTAP	27	192	6
NMTAP	27	288	1
NMTAP	27	288	5
BRTAP	27	352	1
BRTAP	27	352	5
NMTAP	28	64	5
NMTAP	28	96	3
NMTAP	28	128	4
NMTAP	28	160	2
NMTAP	28	192	3
BRTAP	28	288	0
BRTAP	28	288	7
NMSTR	29	0	6
NMSI_	29	0	6	96	48	4
NMTAP	29	0	7
NMTAP	29	96	7
NMTAP	29	192	0
NMSTR	29	192	6
NMSI_	29	192	6	96	48	3
NMTAP	29	288	0
NMSTR	30	0	6
NMSI_	30	0	6	96	48	2
NMTAP	30	0	7
NMSTR	30	96	0
NMSI_	30	96	0	96	48	4
NMTAP	30	192	7
NMTAP	30	288	3
NMTAP	30	288	5
NMTAP	31	0	0
NMSTR	31	0	1
NMSI_	31	0	1	96	48	3
NMTAP	31	96	0
NMSTR	31	192	1
NMSI_	31	192	1	96	48	4
NMTAP	31	192	7
NMTAP	31	288	7
NMTAP	32	0	0
NMSTR	32	0	1
NMSI_	32	0	1	96	48	5
NMSTR	32	96	7
NMSI_	32	96	7	96	48	3
NMTAP	32	192	0
NMTAP	32	288	2
NMTAP	32	288	4
NMSTR	33	0	1
NMSCL	33	0	1	96	48	6
NMTAP	33	96	3
NMSTR	33	192	5
NMSCL	33	192	5	96	48	2
NMTAP	33	288	0
BXTAP	34	0	1
NMTAP	34	64	0
NMTAP	34	64	2
NMTAP	34	128	0
NMTAP	34	128	2
BXTAP	34	192	6
NMTAP	34	256	5
NMTAP	34	256	7
NMTAP	34	320	5
NMTAP	34	320	7
NMHLD	35	0	0	64
NMHLD	35	0	4	64
BXTAP	35	96	1
BXTAP	35	96	3
NMHLD	35	192	3	64
NMHLD	35	192	6	64
BXTAP	35	288	4
BXTAP	35	288	5
NMHLD	36	0	1	64
NMHLD	36	0	4	64
BXTAP	36	96	2
BXTAP	36	96	3
NMHLD	36	192	3	64
NMHLD	36	192	4	64
BXTAP	36	288	2
BXTAP	36	288	5
NMTAP	37	0	6
NMTAP	37	0	7
NMTAP	37	96	0
NMTAP	37	96	1
NMTAP	37	192	2
NMTAP	37	192	3
EXSTR	37	256	2
NMSCL	37	256	2	96	224	4
EXTAP	37	256	3
NMTTP	37	352	3	B	1	M1
BRTAP	39	0	1
NMTAP	39	32	3
NMTAP	39	64	2
NMTAP	39	96	3
BRTAP	39	192	6
NMTAP	39	224	4
NMTAP	39	256	5
NMTAP	39	288	4
BRTAP	40	0	2
NMTAP	40	32	3
NMTAP	40	64	1
NMTAP	40	96	5
NMTAP	40	128	4
NMTAP	40	160	6
NMTAP	40	192	0
EXSTR	40	256	1
BRSCR	40	256	1	96	48	4
EXSTR	40	256	7
BRSCL	40	256	7	96	48	4
BXTAP	40	352	1
BXTAP	40	352	7
NMSTR	41	96	5
NMSI_	41	96	5	96	48	0
NMSTR	41	192	2
NMSI_	41	192	2	96	48	7
NMTAP	41	192	5
NMTAP	41	288	2
NMSTR	41	288	4
NMSI_	41	288	4	96	48	0
NMSTR	42	0	3
NMSCL	42	0	3	96	112	5
NMTAP	42	0	4
NMTAP	42	96	3
EXTAP	42	96	7
EXTAP	42	288	1
EXTAP	42	288	3
NMSTR	43	0	2
NMSCL	43	0	2	96	48	7
NMHLD	43	0	4	192
NMTAP	43	96	2
EXSTR	43	192	6
NMSI_	43	192	6	96	48	3
NMTAP	43	288	6
EXTAP	44	0	2
EXTAP	44	0	4
NMTAP	44	96	3
NMTAP	44	96	5
BRTAP	44	160	1
BRTAP	44	160	7
NMSTR	44	256	0
NMSCR	44	256	0	96	48	3
NMSTR	44	256	6
NMSCL	44	256	6	96	48	3
BXTAP	44	352	0
BXTAP	44	352	6
NMSTR	45	96	3
NMSI_	45	96	3	96	48	0
NMTAP	45	192	3
NMSTR	45	192	5
NMSCL	45	192	5	96	48	2
NMTAP	45	288	5
NMSTR	45	288	7
NMSCR	45	288	7	96	48	2
NMSTR	46	0	7
BRSF_	46	0	7	96	48	3
EXTAP	46	96	7
EXTAP	46	192	1
EXTAP	46	192	5
NMSTR	46	288	0
NMSCR	46	288	0	96	96	4
NMTAP	46	288	6
NMSTR	47	0	4
NMSCR	47	0	4	96	96	0
NMSTR	47	96	0
NMSCR	47	96	0	96	96	4
NMTAP	47	192	4
NMTAP	47	288	0
NMTAP	48	0	6
NMTAP	48	32	7
NMTAP	48	64	5
NMTAP	48	96	1
NMTAP	48	128	0
NMTAP	48	160	2
BXTAP	48	192	4
NMTAP	48	256	3
NMTAP	48	256	5
NMTAP	48	288	3
NMTAP	48	288	5
BXTAP	48	352	1
BXTAP	48	352	7
NMSTR	49	64	2
NMSI_	49	64	2	96	48	7
NMSTR	49	96	6
NMSI_	49	96	6	96	48	3
NMTAP	49	160	2
NMTAP	49	192	6
NMSTR	49	256	0
NMSI_	49	256	0	96	48	2
NMSTR	49	288	4
NMSI_	49	288	4	96	48	0
NMTAP	49	352	0
NMTAP	50	0	4
NMSTR	50	64	3
NMSCL	50	64	3	96	48	1
NMSTR	50	96	7
NMSCL	50	96	7	96	48	4
BXTAP	50	160	3
NMTAP	50	192	7
EXTAP	50	256	0
EXTAP	50	288	0
NMTAP	50	352	2
NMHLD	51	0	2	64
NMTAP	51	64	4
NMHLD	51	96	4	64
NMTAP	51	160	6
NMHLD	51	192	6	64
NMTAP	51	256	0
NMTAP	51	288	0
NMTAP	51	352	1
NMTAP	51	352	7
NMTAP	52	0	1
NMTAP	52	0	7
NMSTR	52	64	2
NMSCL	52	64	2	96	48	7
NMSTR	52	64	6
NMSCL	52	64	6	96	48	3
BXTAP	52	160	2
BXTAP	52	160	6
NMTAP	52	288	0
NMTAP	52	288	4
NMTAP	52	352	2
NMTAP	52	352	6
NMTAP	53	64	7
NMSTR	53	96	7
NMSI_	53	96	7	96	48	3
NMTAP	53	160	0
NMTAP	53	192	0
NMTAP	53	256	2
NMTAP	53	288	2
NMTAP	53	352	0
NMTAP	53	352	1
NMHLD	54	0	0	64
NMHLD	54	0	1	64
NMHLD	54	96	6	64
NMHLD	54	96	7	64
NMTAP	54	192	4
NMTAP	54	192	5
NMTAP	54	256	3
NMTAP	54	256	6
NMTAP	54	352	1
NMTAP	54	352	4
BXHLD	55	0	1	576
BXTAP	55	0	4
NMTAP	55	192	3
NMTTP	55	256	3	E	0	M1
NMTTP	55	288	2	A	0	M1
NMTAP	56	0	4
NMTTP	56	64	4	E	0	M1
NMTTP	56	96	3	A	0	M1
NMTAP	56	192	2
NMTTP	56	256	1	A	1	M1
NMTTP	56	256	2	E	0	M1
NMTTP	56	256	2	D	0	M1
NMTTP	56	256	3	E	0	M1
NMTTP	56	256	3	A	0	M1
NMTTP	56	256	3	D	0	M1
NMTAP	56	352	0
NMTAP	56	352	7
BXTAP	57	0	0
BXTAP	57	0	7
NMTAP	57	192	6
NMTAP	57	224	6
NMTAP	57	256	4
NMTAP	57	288	5
NMTTP	57	352	1	A	0	M1
NMTTP	57	352	2	E	0	M1
NMTTP	57	352	2	D	0	M1
NMTTP	57	352	3	E	0	M1
NMTTP	57	352	3	A	1	M1
NMTTP	57	352	3	D	0	M1
NMSTR	58	288	1
BRSUR	58	288	1	96	96	6
NMSTR	58	288	2
BRSCR	58	288	2	96	96	5
CNSCL	59	96	5	0	96	2
CNSUL	59	96	6	0	96	1
NMTAP	59	288	0
NMTAP	59	288	7
NMTAP	60	0	6
NMTAP	60	32	7
NMTAP	60	64	5
NMTAP	60	96	1
NMTAP	60	128	0
NMTAP	60	160	2
NMSTR	60	192	4
NMSI_	60	192	4	96	48	1
NMSI_	60	192	4	96	48	7
BRTAP	60	288	4
NMTAP	61	0	2
NMTAP	61	0	6
NMTAP	61	64	5
NMTAP	61	96	4
NMTAP	61	160	4
NMTAP	61	192	6
NMTAP	61	256	1
NMTAP	61	288	0
NMTAP	61	352	0
NMTAP	62	0	2
NMTAP	62	64	6
NMTAP	62	96	7
NMTAP	62	160	7
NMTAP	62	192	5
NMTAP	62	256	1
NMTAP	62	288	3
NMTAP	62	352	3
BRTAP	63	0	2
NMTAP	63	64	2
NMTAP	63	96	0
NMTAP	63	160	0
NMTAP	63	192	7
NMTAP	63	256	7
NMTAP	63	288	5
NMTAP	63	352	5
NMTAP	64	0	3
NMTAP	64	64	3
NMTAP	64	96	5
NMTAP	64	160	4
NMTAP	64	160	6
NMSTR	64	192	4
BRSI_	64	192	4	96	48	1
NMSTR	64	192	6
BRSI_	64	192	6	96	48	3
BRTAP	65	0	0
BRTAP	65	0	4
NMTAP	65	64	1
NMTAP	65	96	3
NMTAP	65	160	3
NMTAP	65	192	4
NMTAP	65	256	4
NMTAP	65	288	6
NMTAP	65	352	6
NMTAP	66	0	4
NMTAP	66	64	4
NMTAP	66	96	3
NMTAP	66	160	3
NMTAP	66	192	1
NMTAP	66	256	1
NMTAP	66	288	0
NMTAP	66	352	1
NMTAP	66	352	7
BRTAP	67	0	1
BRSTR	67	0	7
NMSI_	67	0	7	96	96	1
CNSI_	67	192	1	0	96	6
CNSI_	67	288	6	0	96	2
BXHLD	68	0	0	96
CNSI_	68	0	2	0	96	5
NMTAP	68	192	1
NMTAP	68	224	2
NMTAP	68	256	3
NMTAP	68	288	7
NMTAP	68	320	6
NMTAP	68	352	5
NMHLD	69	0	1	384
NMHLD	69	0	4	192
NMTAP	70	96	2
NMTAP	70	96	4
NMTAP	70	192	2
NMHLD	70	192	4	192
NMTTP	70	360	2	E	0	M1
NMTTP	70	372	3	E	0	M1
NMTHO	71	0	4	288	E	0	M1
NMTHO	72	0	7	288	E	0	M1
NMTHO	73	0	5	288	E	0	M1
NMTTP	74	0	0	E	0	M1
NMTTP	74	192	0	C	0	M1
NMTTP	75	0	4	E	0	M1
NMTTP	75	96	3	E	0	M1
NMTTP	75	192	2	E	0	M1
NMTTP	75	288	1	E	0	M1
NMTTP	76	0	0	E	0	M1
NMTTP	76	96	7	E	0	M1
NMTTP	76	192	6	E	0	M1
NMTAP	76	288	3
NMTAP	76	288	4
NMTAP	77	0	3
NMTAP	77	32	4
NMTAP	77	64	3
BXTAP	77	96	2
BXTAP	77	96	5
NMTAP	77	192	2
NMTAP	77	224	3
NMTAP	77	256	2
BXTAP	77	288	1
BXTAP	77	288	4
NMTAP	78	0	5
NMTAP	78	32	4
NMTAP	78	64	5
BXTAP	78	96	3
BXSTR	78	96	6
NMSI_	78	96	6	96	48	3
NMSTR	78	192	1
NMSI_	78	192	1	96	48	4
NMSI_	78	192	1	96	48	6
BXTAP	79	0	3
BXTAP	79	0	7
BXTAP	79	96	0
BXTAP	79	96	2
BXTAP	79	192	5
BXTAP	79	192	7
BXTAP	79	288	0
BXTAP	79	288	1
BRHLD	80	0	5	64
BRHLD	80	0	7	64
BRHLD	80	96	0	64
BRHLD	80	96	1	64
BRTAP	80	192	2
BRTAP	80	192	7
NMSTR	80	256	4
BRSF_	80	256	4	96	64	0
NMTAP	80	256	5
BXTAP	80	352	4
EXSTR	81	96	2
NMSI_	81	96	2	96	48	5
EXTAP	81	96	6
NMTAP	81	192	2
NMSTR	81	192	7
NMSI_	81	192	7	96	48	2
NMSTR	81	288	4
NMSI_	81	288	4	96	48	7
NMTAP	81	288	7
EXSTR	82	0	1
NMSI_	82	0	1	96	24	7
NMTAP	82	0	4
EXTAP	82	96	1
CNSI_	82	120	7	0	48	5
CNSI_	82	168	5	0	48	3
NMTAP	82	288	1
NMTAP	82	288	5
NMHLD	83	0	3	288
NMSTR	83	0	6
NMSCR	83	0	6	96	48	1
NMTAP	83	96	6
EXSTR	83	192	2
NMSCR	83	192	2	96	48	5
NMTAP	83	288	2
NMTAP	84	0	7
NMTAP	84	96	0
NMTAP	84	96	1
BRTAP	84	160	3
BRTAP	84	160	7
NMSTR	84	256	2
NMSCL	84	256	2	96	48	7
NMSTR	84	256	4
NMSCR	84	256	4	96	48	7
BXTAP	84	352	2
BXTAP	84	352	4
NMSTR	85	96	1
NMSI_	85	96	1	96	48	4
NMTAP	85	96	6
NMTAP	85	192	1
NMSTR	85	192	5
NMSI_	85	192	5	96	48	0
NMSTR	85	288	2
NMSI_	85	288	2	96	48	5
NMTAP	85	288	5
NMSTR	86	0	2
NMSI_	86	0	2	96	48	7
NMSTR	86	0	6
NMSI_	86	0	6	96	48	3
BXTAP	86	96	2
BXTAP	86	96	6
NMTAP	86	192	0
NMTAP	86	192	4
NMTAP	86	288	4
NMSTR	86	288	6
NMSLR	86	288	6	96	96	2
NMSTR	87	0	2
NMSCL	87	0	2	96	96	6
NMTAP	87	96	4
NMTAP	87	192	2
NMTAP	87	288	3
NMTAP	87	288	5
NMTAP	88	0	1
NMTAP	88	32	3
NMTAP	88	64	2
NMTAP	88	96	6
NMTAP	88	128	4
NMTAP	88	160	5
BRTAP	88	192	0
NMTAP	88	256	1
NMTAP	88	256	7
NMTAP	88	288	1
NMTAP	88	288	7
BXTAP	88	352	3
BXTAP	88	352	5
NMSTR	89	64	2
NMSI_	89	64	2	96	48	7
NMSTR	89	96	6
NMSI_	89	96	6	96	48	3
NMTAP	89	160	2
NMTAP	89	192	6
NMSTR	89	256	0
NMSI_	89	256	0	96	48	2
NMSTR	89	288	4
NMSI_	89	288	4	96	48	0
NMTAP	89	352	0
NMTAP	90	0	4
NMSTR	90	64	3
NMSCL	90	64	3	96	48	0
NMSTR	90	96	6
NMSCL	90	96	6	96	48	3
BXTAP	90	160	3
NMTAP	90	192	6
NMTAP	90	256	7
NMTAP	90	288	7
NMTAP	90	352	1
NMHLD	91	0	1	64
NMTAP	91	64	3
NMHLD	91	96	3	64
NMTAP	91	160	4
NMHLD	91	192	4	64
NMTAP	91	256	6
NMHLD	91	288	6	64
NMTAP	91	352	5
NMTAP	92	0	5
NMSTR	92	64	4
NMSI_	92	64	4	96	48	0
NMSTR	92	64	6
NMSI_	92	64	6	96	48	3
BXTAP	92	160	4
BXTAP	92	160	6
NMTAP	92	304	2
NMTAP	92	304	4
BXHLD	92	352	0	96
BXTAP	92	352	6
NMTAP	93	64	7
NMTAP	93	96	7
NMTAP	93	160	0
NMTAP	93	160	6
NMTAP	93	192	0
NMTAP	93	192	6
NMTAP	93	256	1
NMTAP	93	256	5
NMTAP	93	288	1
NMSTR	93	288	5
NMSUR	93	288	5	96	96	2
NMTAP	93	352	2
NMTAP	94	0	2
NMTAP	94	64	3
CNSUL	94	96	2	0	96	5
NMTAP	94	96	3
NMTAP	94	160	4
NMTAP	94	192	4
NMTAP	94	256	3
NMTAP	94	256	6
NMTAP	94	288	3
NMTAP	94	288	6
BRTAP	95	0	0
BRTAP	95	0	7
NMTAP	95	192	5
NMTAP	95	256	5
NMTAP	95	288	4
NMTAP	95	352	4
NMTAP	96	0	7
NMTAP	96	64	7
NMTAP	96	96	5
NMTAP	96	160	5
NMTAP	96	192	6
BRTAP	96	256	4
BRTAP	96	256	7
BXHLD	97	0	1	192
BXTAP	97	0	5
NMTAP	97	192	3
NMTAP	97	256	3
NMTAP	97	288	2
NMTAP	97	352	2
NMTAP	98	0	0
NMTAP	98	64	0
NMTAP	98	96	1
NMTAP	98	160	1
NMTTP	98	192	3	E	0	M1
NMTTP	98	256	2	B	0	M1
NMTTP	98	256	2	A	0	M1
NMTTP	98	256	3	B	0	M1
NMTTP	98	256	3	A	0	M1
NMTTP	98	256	3	D	1	M1
NMSTR	99	0	0
NMSI_	99	0	0	96	48	5
NMTAP	99	0	7
NMTAP	99	96	0
NMSTR	99	96	1
NMSI_	99	96	1	96	48	4
NMTAP	99	192	1
NMTAP	99	192	4
NMSTR	99	288	5
NMSCR	99	288	5	96	96	1
NMSTR	100	0	1
NMSCL	100	0	1	96	96	5
NMSTR	100	96	5
BRSCL	100	96	5	96	96	1
BRSLL	100	96	5	96	96	1
NMTAP	101	0	0
NMTAP	101	0	1
NMTAP	101	64	2
NMTAP	101	64	7
NMTAP	101	96	2
NMTAP	101	96	7
NMTAP	101	160	6
NMTAP	101	192	3
NMTAP	101	224	5
NMTAP	101	256	4
NMTAP	101	288	6
NMTAP	101	320	5
BRHLD	101	352	7	320
NMSTR	102	288	5
NMSCR	102	288	5	96	48	0
NMSUR	102	288	5	96	48	1
NMTTP	103	0	5	A	0	M1
NMTTP	103	0	5	D	0	M1
NMTTP	103	0	6	D	0	M1
NMSTR	103	96	2
NMSCL	103	96	2	96	48	7
NMSUL	103	96	2	96	48	6
NMTTP	103	192	2	A	0	M1
NMTTP	103	192	2	D	0	M1
NMTTP	103	192	3	D	0	M1
NMSTR	103	288	4
NMSI_	103	288	4	96	48	1
NMSTR	104	0	4
NMSI_	104	0	4	96	48	7
NMTAP	104	0	6
NMSTR	104	96	2
BRSF_	104	96	2	96	48	6
NMTAP	104	96	4
NMTTP	104	192	1	A	0	M1
NMTTP	104	192	2	A	1	M1
NMTTP	104	192	2	D	0	M1
NMTTP	104	192	3	A	0	M1
NMTTP	104	192	3	D	0	M1
NMSTR	105	0	0
NMSUL	105	0	0	96	288	4
NMHLD	105	0	6	672
NMHLD	106	192	4	96
BRTAP	107	0	3
BRTAP	107	0	4
BRSTR	107	96	1
BRSUR	107	96	1	96	96	6
BRTAP	107	96	2
BRTAP	107	192	0
BRTAP	107	288	7
NMTAP	108	0	6
NMTAP	108	32	7
NMTAP	108	64	5
NMTAP	108	96	1
NMTAP	108	128	0
NMTAP	108	160	2
NMSTR	108	192	3
NMSCL	108	192	3	96	48	0
NMSTR	108	192	4
BRSCR	108	192	4	96	48	7
BRTAP	108	288	3
BRTAP	108	288	4
NMTTP	109	0	0	B	0	M1
NMTTP	109	0	0	C	1	M1
NMTTP	109	0	0	E	0	M1
NMTTP	109	0	1	B	0	M1
NMTTP	109	0	2	B	0	M1
NMTTP	109	0	3	B	0	M1
NMTTP	109	0	4	B	0	M1
NMTTP	109	0	4	E	0	M1
NMTTP	109	0	5	B	0	M1
NMTTP	109	0	6	B	0	M1
NMTTP	109	0	7	B	0	M1

T_REC_TAP	378
T_REC_BRK	34
T_REC_XTP	20
T_REC_BXX	48
T_REC_HLD	42
T_REC_XHO	1
T_REC_BHO	7
T_REC_BXH	6
T_REC_STR	80
T_REC_BST	3
T_REC_XST	7
T_REC_XBS	1
T_REC_TTP	76
T_REC_THO	4
T_REC_SLD	82
T_REC_BSL	14
T_REC_ALL	803
T_NUM_TAP	561
T_NUM_BRK	113
T_NUM_HLD	47
T_NUM_SLD	82
T_NUM_ALL	803
T_JUDGE_TAP	647
T_JUDGE_HLD	215
T_JUDGE_SLD	96
T_JUDGE_ALL	958
TTM_EACHPAIRS	151
TTM_SCR_TAP	280500
TTM_SCR_BRK	293800
TTM_SCR_HLD	47000
TTM_SCR_SLD	123000
TTM_SCR_ALL	744300
TTM_SCR_S	711050
TTM_SCR_SS	733000
TTM_RAT_ACV	10154

