VERSION	0.00.00	1.05.00
FES_MODE	0
BPM_DEF	181.000	181.000	181.000	181.000
MET_DEF	4	4
RESOLUTION	384
CLK_DEF	384
COMPATIBLE_CODE	MA2

BPM	0	0	181.000
MET	0	0	4	4

NMHLD	1	0	0	288
NMHLD	1	0	6	288
NMHLD	2	0	1	288
NMHLD	2	0	7	288
NMTAP	3	0	0
NMTAP	3	0	6
NMTAP	3	96	0
NMTAP	3	96	6
NMTAP	3	192	1
NMTAP	3	192	7
NMTAP	3	288	1
NMTAP	3	288	7
BRTAP	4	0	0
BRTAP	4	96	1
BRTAP	4	192	2
EXTAP	4	288	1
EXTAP	4	288	5
NMHLD	5	0	6	96
NMTAP	5	96	4
NMHLD	5	192	1	96
NMTAP	5	288	3
NMHLD	6	0	5	96
NMTAP	6	96	3
NMTAP	6	192	2
NMTAP	6	192	6
NMTAP	6	288	2
NMTAP	6	288	6
NMHLD	7	0	1	96
NMTAP	7	96	3
NMHLD	7	192	6	96
NMTAP	7	288	4
NMHLD	8	0	2	96
NMTAP	8	96	4
NMTAP	8	192	1
NMTAP	8	192	5
NMTAP	8	288	1
NMTAP	8	288	5
NMHLD	9	0	6	96
NMTAP	9	96	7
NMHLD	9	192	1	96
NMTAP	9	288	0
NMHLD	10	0	6	96
NMTAP	10	96	7
NMTAP	10	192	0
NMTAP	10	192	5
NMTAP	10	288	1
NMTAP	10	288	4
NMHLD	11	0	2	96
NMHLD	11	0	3	96
NMHLD	11	192	4	96
NMHLD	11	192	5	96
NMTAP	12	0	2
NMTAP	12	0	4
NMTAP	12	96	3
NMTAP	12	96	5
NMTAP	12	192	2
NMTAP	12	192	4
NMTAP	12	288	3
NMTAP	12	288	5
NMSTR	13	0	2
NMSCL	13	0	2	96	288	6
NMSTR	15	0	5
NMSCR	15	0	5	96	288	1
NMSTR	17	0	2
NMSLL	17	0	2	96	288	6
NMTAP	19	0	4
NMTAP	19	0	6
NMTAP	19	96	3
NMTAP	19	96	4
NMTAP	19	192	1
NMTAP	19	192	3
NMTAP	19	288	0
NMTAP	19	288	7
NMTAP	20	0	4
NMTAP	20	0	6
NMTAP	20	96	3
NMTAP	20	96	4
BRTAP	20	192	2
BRTAP	20	192	5
NMSTR	21	0	1
NMSI_	21	0	1	96	96	4
NMTAP	21	192	5
NMTAP	21	288	6
NMSTR	22	0	6
NMSI_	22	0	6	96	96	3
NMTAP	22	192	2
NMTAP	22	288	1
NMSTR	23	0	1
NMSCR	23	0	1	96	96	4
NMTAP	23	192	5
NMTAP	23	288	6
NMSTR	24	0	6
NMSCL	24	0	6	96	96	3
NMTAP	24	192	2
NMTAP	24	288	1
NMSTR	25	0	1
NMSI_	25	0	1	96	96	5
NMTAP	25	192	6
NMTAP	25	288	7
NMSTR	26	0	7
NMSI_	26	0	7	96	96	4
NMTAP	26	192	3
NMTAP	26	288	2
NMHLD	27	0	2	96
NMHLD	27	96	0	96
NMHLD	27	192	7	96
NMHLD	27	288	5	96
NMHLD	28	0	3	96
NMTAP	28	96	4
BRTAP	28	192	2
BRTAP	28	192	5
NMTAP	29	0	6
NMTAP	29	96	4
NMTAP	29	96	5
NMTAP	29	192	1
NMTAP	29	288	2
NMTAP	29	288	3
NMTAP	30	0	5
NMTAP	30	96	6
NMTAP	30	96	7
NMTAP	30	192	2
NMTAP	30	288	0
NMTAP	30	288	1
NMTAP	31	0	1
NMTAP	31	96	2
NMTAP	31	96	3
NMTAP	31	192	6
NMTAP	31	288	4
NMTAP	31	288	5
NMTAP	32	0	2
NMTAP	32	96	0
NMTAP	32	96	1
NMTAP	32	192	5
NMTAP	32	288	6
NMTAP	32	288	7
NMTAP	33	0	5
NMTAP	33	96	4
NMTAP	33	96	6
NMTAP	33	192	2
NMTAP	33	288	1
NMTAP	33	288	3
NMSTR	34	0	0
NMSCR	34	0	0	96	96	3
NMSTR	34	192	7
NMSCL	34	192	7	96	96	4
NMHLD	35	0	2	96
NMTAP	35	96	3
NMHLD	35	192	5	96
NMTAP	35	288	4
NMHLD	36	0	1	96
NMTAP	36	96	3
NMHLD	36	192	6	96
NMTAP	36	288	4
NMTAP	37	0	0
NMTAP	37	96	1
NMTAP	37	96	7
NMSTR	37	192	2
NMSXL	37	192	2	96	288	1
NMSTR	37	192	6
NMSXR	37	192	6	96	288	7
EXTAP	39	0	1
EXTAP	39	0	7
NMTAP	39	192	0
NMTAP	39	192	6
NMTAP	40	0	1
NMTAP	40	0	7
NMTAP	40	96	1
NMTAP	40	96	7
BRTAP	40	192	0
BRTAP	40	192	6
NMTAP	41	0	5
NMTAP	41	0	7
NMTAP	41	96	5
NMTAP	41	96	7
NMTAP	41	192	0
NMTAP	41	192	2
NMTAP	41	288	0
NMTAP	41	288	2
NMHLD	42	0	1	96
NMHLD	42	96	3	96
NMHLD	42	192	4	96
NMTAP	42	288	6
NMTAP	43	0	1
NMTAP	43	0	3
NMTAP	43	96	1
NMTAP	43	96	3
NMTAP	43	192	4
NMTAP	43	192	6
NMTAP	43	288	4
NMTAP	43	288	6
NMHLD	44	0	5	96
NMHLD	44	96	7	96
NMHLD	44	192	0	96
NMTAP	44	288	2
NMTAP	45	0	0
NMTAP	45	0	1
NMTAP	45	96	0
NMTAP	45	96	1
NMTAP	45	192	6
NMTAP	45	192	7
NMTAP	45	288	6
NMTAP	45	288	7
NMHLD	46	0	6	96
NMHLD	46	96	4	96
NMHLD	46	192	3	96
NMTAP	46	288	1
NMSTR	47	0	7
NMSCL	47	0	7	96	96	4
NMSTR	47	192	3
NMSCL	47	192	3	96	96	0
NMTAP	48	0	7
NMTAP	48	96	7
NMTAP	48	192	0
NMTAP	48	192	6
NMHLD	49	0	0	96
NMHLD	49	0	2	96
NMHLD	49	192	5	96
NMHLD	49	192	7	96
NMHLD	50	0	6	96
NMHLD	50	96	4	96
NMHLD	50	192	3	96
NMTAP	50	288	1
NMTAP	51	0	2
NMTAP	51	0	4
NMTAP	51	96	2
NMTAP	51	96	4
NMTAP	51	192	3
NMTAP	51	192	5
NMTAP	51	288	3
NMTAP	51	288	5
NMHLD	52	0	2	96
NMHLD	52	96	0	96
NMHLD	52	192	7	96
NMTAP	52	288	5
NMTAP	53	0	6
NMTAP	53	0	7
NMTAP	53	96	6
NMTAP	53	96	7
NMTAP	53	192	0
NMTAP	53	192	1
NMTAP	53	288	0
NMTAP	53	288	1
NMTAP	54	0	2
NMTAP	54	0	3
NMTAP	54	96	4
NMTAP	54	96	5
NMTAP	54	192	2
NMTAP	54	192	3
NMTAP	54	288	4
NMTAP	54	288	5
NMHLD	55	0	5	288
NMHLD	55	0	7	288
EXTAP	56	0	0
EXTAP	56	0	6
EXTAP	56	96	1
EXTAP	56	96	7
EXTAP	56	192	0
EXTAP	56	192	6
EXTAP	56	288	0
EXTAP	56	288	6
NMHLD	57	0	0	96
NMHLD	57	0	2	96
NMTAP	57	192	0
NMSTR	57	192	2
NMSCR	57	192	2	96	96	5
NMTAP	59	0	1
NMTAP	59	0	3
NMTAP	59	96	1
NMTAP	59	96	3
NMTAP	59	192	4
NMTAP	59	192	6
NMTAP	59	288	4
NMTAP	59	288	6
NMTAP	60	0	2
NMTAP	60	0	3
NMTAP	60	96	4
NMTAP	60	96	5
NMTAP	60	192	1
NMTAP	60	192	7
BRTAP	60	288	2
BRTAP	60	288	6
NMHLD	61	0	1	96
NMTAP	61	96	3
NMHLD	61	192	6	96
NMTAP	61	288	4
NMTAP	62	0	6
NMTAP	62	0	7
NMTAP	62	96	2
NMTAP	62	96	3
NMTAP	62	192	0
NMTAP	62	192	1
NMTAP	62	288	4
NMTAP	62	288	5
NMHLD	63	0	6	96
NMTAP	63	96	4
NMHLD	63	192	1	96
NMTAP	63	288	3
NMTAP	64	0	0
NMTAP	64	0	1
NMTAP	64	96	4
NMTAP	64	96	5
NMTAP	64	192	6
NMTAP	64	192	7
NMTAP	64	288	2
NMTAP	64	288	3
NMHLD	65	0	1	96
NMTAP	65	96	0
NMHLD	65	192	6	96
NMTAP	65	288	7
NMTAP	66	0	4
NMTAP	66	0	5
NMTAP	66	96	2
NMTAP	66	96	3
NMTAP	66	192	0
NMTAP	66	192	1
NMTAP	66	288	6
NMTAP	66	288	7
NMHLD	67	0	5	384
NMTAP	67	96	4
NMTAP	67	192	4
NMTAP	67	288	4
NMHLD	68	0	2	384
NMTAP	68	96	3
NMTAP	68	192	3
NMSTR	68	288	3
NMSSR	68	288	3	96	336	7
EXTAP	70	96	0
EXTAP	70	96	6
EXTAP	70	192	0
EXTAP	70	192	6
NMSTR	71	0	7
NMSCL	71	0	7	96	192	4
NMTTP	72	0	3	E	0	M1
NMTTP	72	192	2	E	0	M1
NMSTR	73	0	0
NMSCR	73	0	0	96	192	3
NMTTP	74	0	5	E	0	M1
NMTTP	74	192	6	E	0	M1
NMSTR	75	0	7
NMSCL	75	0	7	96	192	4
NMTTP	76	0	4	B	0	M1
NMTTP	76	0	4	E	0	M1
NMTTP	76	192	2	B	0	M1
NMTTP	76	192	2	E	0	M1
EXTAP	77	0	0
EXTAP	77	0	1
BRTAP	77	96	0
BRTAP	77	96	1
EXTAP	77	192	6
EXTAP	77	192	7
BRTAP	77	288	6
BRTAP	77	288	7
EXTAP	78	0	0
EXTAP	78	0	6
BRTAP	78	96	0
BRTAP	78	96	6
EXTAP	78	192	1
EXTAP	78	192	7
EXTAP	78	288	1
EXTAP	78	288	7
BRTAP	79	0	2
BRTAP	79	0	6
NMTAP	79	96	3
NMTAP	79	96	5
NMTAP	79	192	2
NMTAP	79	288	2
NMTAP	79	288	4
NMHLD	80	0	1	64
NMHLD	80	0	5	64
NMHLD	80	96	2	64
NMHLD	80	96	6	64
BRTAP	80	192	1
BRTAP	80	192	5
NMTAP	81	0	6
NMTAP	81	64	6
NMTAP	81	96	7
NMTAP	81	192	1
NMTAP	81	256	1
NMTAP	81	288	0
NMTAP	82	0	2
NMTAP	82	0	3
NMTAP	82	96	2
NMTAP	82	96	3
NMTAP	82	192	4
NMTAP	82	192	5
NMTAP	82	288	4
NMTAP	82	288	5
NMTAP	83	0	2
NMTAP	83	64	2
NMTAP	83	96	3
NMTAP	83	192	5
NMTAP	83	256	5
NMTAP	83	288	4
NMTAP	84	0	6
NMTAP	84	0	7
NMTAP	84	96	0
NMTAP	84	96	1
NMTAP	84	192	6
NMTAP	84	192	7
NMTAP	84	288	6
NMTAP	84	288	7
NMTAP	85	0	1
NMTAP	85	64	1
NMTAP	85	96	0
NMTAP	85	192	6
NMTAP	85	256	6
NMTAP	85	288	7
NMTAP	86	0	4
NMTAP	86	0	5
NMTAP	86	96	4
NMTAP	86	96	5
NMTAP	86	192	2
NMTAP	86	192	3
NMTAP	86	288	2
NMTAP	86	288	3
NMTAP	87	0	5
NMTAP	87	64	5
NMTAP	87	96	4
NMTAP	87	192	2
NMTAP	87	256	2
NMTAP	87	288	3
BXTAP	88	0	0
BXTAP	88	0	1
BXTAP	88	96	6
BXTAP	88	96	7
BXTAP	88	192	4
BXTAP	88	192	5
BXTAP	88	288	2
BXTAP	88	288	3
NMTAP	89	0	1
NMTAP	89	64	1
NMTAP	89	96	3
NMTAP	89	160	3
NMTAP	89	192	2
NMTAP	89	256	2
NMTAP	89	288	3
NMTAP	90	0	0
NMTAP	90	0	1
NMTAP	90	96	0
NMTAP	90	96	1
NMTAP	90	192	6
NMTAP	90	192	7
NMTAP	90	288	6
NMTAP	90	288	7
NMTAP	91	0	6
NMTAP	91	64	6
NMTAP	91	96	4
NMTAP	91	160	4
NMTAP	91	192	5
NMTAP	91	256	5
NMTAP	91	288	4
NMTAP	92	0	6
NMTAP	92	0	7
NMTAP	92	96	6
NMTAP	92	96	7
NMTAP	92	192	0
NMTAP	92	192	1
NMTAP	92	288	0
NMTAP	92	288	1
EXTAP	93	0	2
NMTAP	93	64	2
NMTAP	93	96	3
NMTAP	93	160	3
NMTAP	93	192	0
NMTAP	93	256	0
NMTAP	93	288	5
NMTAP	93	352	5
NMTAP	94	0	4
NMTAP	94	64	4
NMTAP	94	96	7
NMTAP	94	160	7
NMTAP	94	192	2
NMTAP	94	256	2
NMTAP	94	288	6
NMHLD	95	0	1	192
NMHLD	95	0	5	192
NMTAP	95	288	1
NMTAP	95	288	5
NMTAP	96	0	2
NMTAP	96	0	6
NMSTR	96	96	1
NMSI_	96	96	1	96	96	5
NMSTR	96	96	7
NMSI_	96	96	7	96	96	3
NMHLD	97	0	2	192
NMHLD	97	0	6	192
NMTAP	97	288	2
NMTAP	97	288	6
NMTAP	98	0	1
NMTAP	98	0	5
NMSTR	98	96	0
NMSI_	98	96	0	96	96	4
NMSTR	98	96	6
NMSI_	98	96	6	96	96	2
NMHLD	99	0	5	96
NMHLD	99	96	7	96
NMHLD	99	192	0	96
NMTAP	99	288	2
NMTAP	100	0	2
NMTAP	100	0	3
NMTAP	100	96	0
NMTAP	100	96	1
NMTAP	100	192	6
NMTAP	100	192	7
NMTAP	100	288	4
NMTAP	100	288	5
NMTAP	101	0	6
NMTAP	101	64	6
NMTAP	101	96	4
NMTAP	101	160	4
NMTAP	101	192	3
NMTAP	101	256	3
NMTAP	101	288	1
NMHLD	101	352	1	320
EXHLD	102	160	3	128
NMSTR	103	0	4
NMSI_	103	0	4	96	96	7
NMSTR	103	192	3
NMSI_	103	192	3	96	96	0
NMTAP	104	0	7
NMTAP	104	96	0
NMTAP	104	96	6
NMHLD	104	192	1	96
NMHLD	104	192	7	96
NMSTR	105	0	6
NMSXL	105	0	6	96	336	3
NMHLD	106	192	2	96
NMHLD	106	192	4	96
NMTAP	107	0	0
NMTAP	107	0	1
NMTAP	107	96	0
NMTAP	107	96	2
NMTAP	107	192	6
NMTAP	107	192	7
NMTAP	107	288	5
NMTAP	107	288	7
NMTAP	108	0	0
NMTAP	108	0	7
NMTAP	108	96	2
NMTAP	108	96	5
NMTAP	108	192	3
NMTAP	108	192	4
BRTAP	108	288	1
BRTAP	108	288	6
BRTAP	109	0	1
BRTAP	109	0	6

T_REC_TAP	350
T_REC_BRK	25
T_REC_XTP	27
T_REC_BXX	8
T_REC_HLD	73
T_REC_XHO	1
T_REC_BHO	0
T_REC_BXH	0
T_REC_STR	27
T_REC_BST	0
T_REC_XST	0
T_REC_XBS	0
T_REC_TTP	8
T_REC_THO	0
T_REC_SLD	27
T_REC_BSL	0
T_REC_ALL	546
T_NUM_TAP	412
T_NUM_BRK	33
T_NUM_HLD	74
T_NUM_SLD	27
T_NUM_ALL	546
T_JUDGE_TAP	445
T_JUDGE_HLD	198
T_JUDGE_SLD	27
T_JUDGE_ALL	670
TTM_EACHPAIRS	162
TTM_SCR_TAP	206000
TTM_SCR_BRK	85800
TTM_SCR_HLD	74000
TTM_SCR_SLD	40500
TTM_SCR_ALL	406300
TTM_SCR_S	390950
TTM_SCR_SS	403000
TTM_RAT_ACV	10081

