VERSION	0.00.00	1.05.00
FES_MODE	0
BPM_DEF	181.000	181.000	181.000	181.000
MET_DEF	4	4
RESOLUTION	384
CLK_DEF	384
COMPATIBLE_CODE	MA2

BPM	0	0	181.000
MET	0	0	4	4

NMTAP	1	0	2
NMTAP	1	0	3
NMTAP	1	192	2
NMTAP	1	192	3
NMTAP	2	0	3
NMTAP	2	0	4
NMTAP	2	192	3
NMTAP	2	192	4
NMTAP	3	0	4
NMTAP	3	0	5
NMTAP	3	192	4
NMTAP	3	192	5
NMTAP	4	0	3
NMTAP	4	0	4
NMTAP	4	192	3
NMTAP	4	192	4
NMTAP	5	0	3
NMTAP	5	96	3
NMTAP	5	192	2
NMTAP	6	0	1
NMTAP	6	96	1
NMTAP	6	192	0
NMTAP	7	0	7
NMTAP	7	96	7
NMTAP	7	192	6
NMTAP	8	0	5
NMTAP	8	96	5
NMTAP	8	192	3
NMTAP	8	192	4
NMTAP	9	0	4
NMTAP	9	96	4
NMTAP	9	192	5
NMTAP	10	0	6
NMTAP	10	96	6
NMTAP	10	192	7
NMTAP	11	0	0
NMTAP	11	96	0
NMTAP	11	192	1
NMTAP	12	0	2
NMTAP	12	96	2
NMTAP	12	192	3
NMTAP	12	192	4
NMHLD	13	0	5	192
NMHLD	13	192	4	192
NMHLD	14	0	3	192
NMTAP	14	192	2
NMHLD	15	0	2	192
NMHLD	15	192	3	192
NMHLD	16	0	4	192
NMTAP	16	192	5
NMHLD	17	0	6	192
NMHLD	17	192	5	192
NMHLD	18	0	4	192
NMTAP	18	192	3
NMHLD	19	0	1	192
NMHLD	19	192	2	192
NMHLD	20	0	3	192
NMTAP	20	192	4
NMTAP	21	0	2
NMTAP	21	96	2
NMTAP	21	192	2
NMTAP	21	192	3
NMTAP	22	0	1
NMTAP	22	96	1
NMTAP	22	192	0
NMTAP	22	192	1
NMTAP	23	0	7
NMTAP	23	96	7
NMTAP	23	192	6
NMTAP	23	192	7
NMTAP	24	0	4
NMTAP	24	0	5
NMTAP	24	96	4
NMTAP	24	96	5
NMTAP	24	192	4
NMTAP	24	192	5
NMTAP	25	0	5
NMTAP	25	96	5
NMTAP	25	192	4
NMTAP	25	192	5
NMTAP	26	0	6
NMTAP	26	96	6
NMTAP	26	192	6
NMTAP	26	192	7
NMTAP	27	0	0
NMTAP	27	96	0
NMTAP	27	192	0
NMTAP	27	192	1
NMTAP	28	0	2
NMTAP	28	0	3
NMTAP	28	96	2
NMTAP	28	96	3
NMTAP	28	192	2
NMTAP	28	192	3
NMTTP	29	0	1	B	0	L1
NMTTP	29	96	2	B	0	L1
NMTTP	29	192	3	B	0	L1
NMTTP	30	0	6	B	0	L1
NMTTP	30	96	5	B	0	L1
NMTTP	30	192	4	B	0	L1
NMTTP	31	0	1	B	0	L1
NMTTP	31	96	2	B	0	L1
NMTTP	31	192	3	B	0	L1
NMTTP	31	288	4	B	0	L1
NMTTP	32	0	0	C	0	L1
NMTTP	33	0	7	B	0	L1
NMTTP	33	96	6	B	0	L1
NMTTP	33	192	4	B	0	L1
NMTTP	33	192	5	B	0	L1
NMTTP	34	0	0	B	0	L1
NMTTP	34	96	1	B	0	L1
NMTTP	34	192	2	B	0	L1
NMTTP	34	192	3	B	0	L1
NMTTP	35	0	7	B	0	L1
NMTTP	35	96	6	B	0	L1
NMTTP	35	192	5	B	0	L1
NMTTP	35	288	4	B	0	L1
NMTTP	36	0	3	B	0	L1
NMTTP	36	96	2	B	0	L1
NMTTP	36	192	1	B	0	L1
NMTTP	36	288	0	B	0	L1
NMTTP	37	0	0	C	1	L1
EXTAP	39	0	3
EXTAP	39	0	4
EXTAP	39	192	3
EXTAP	39	192	4
EXTAP	40	0	3
EXTAP	40	0	4
NMTAP	41	0	2
NMTAP	41	96	2
NMTAP	41	192	1
NMTAP	41	288	1
NMTAP	42	0	0
NMTAP	42	96	0
NMTAP	42	192	6
NMTAP	42	192	7
NMTAP	43	0	5
NMTAP	43	96	5
NMTAP	43	192	6
NMTAP	43	288	6
NMTAP	44	0	7
NMTAP	44	96	7
NMTAP	44	192	0
NMTAP	44	192	1
NMTAP	45	0	1
NMTAP	45	96	1
NMTAP	45	192	2
NMTAP	45	288	2
NMTAP	46	0	3
NMTAP	46	96	3
NMTAP	46	192	4
NMTAP	46	192	5
NMTAP	47	0	6
NMTAP	47	96	6
NMTAP	47	192	5
NMTAP	47	288	5
NMTAP	48	0	4
NMTAP	48	96	4
NMTAP	48	192	2
NMTAP	48	192	3
NMTAP	49	0	2
NMTAP	49	96	2
NMTAP	49	192	1
NMTAP	49	288	1
NMTAP	50	0	0
NMTAP	50	96	0
NMTAP	50	192	6
NMTAP	50	192	7
NMTAP	50	288	6
NMTAP	50	288	7
NMTAP	51	0	5
NMTAP	51	96	5
NMTAP	51	192	6
NMTAP	51	288	6
NMTAP	52	0	7
NMTAP	52	96	7
NMTAP	52	192	0
NMTAP	52	192	1
NMTAP	53	0	1
NMTAP	53	96	1
NMTAP	53	192	2
NMTAP	53	288	2
NMTAP	54	0	3
NMTAP	54	96	3
NMTAP	54	192	4
NMTAP	54	192	5
NMTAP	55	0	6
NMTAP	55	96	6
NMTAP	55	192	6
NMTAP	55	192	7
NMTAP	56	0	5
NMTAP	56	96	5
NMTAP	56	192	4
NMTAP	56	192	5
NMTAP	57	0	3
NMTAP	57	96	3
NMTAP	57	192	2
NMTAP	57	192	3
NMTAP	58	0	1
NMTAP	58	96	1
NMTAP	58	192	0
NMTAP	58	192	1
NMTAP	59	0	0
NMTAP	59	0	7
NMTAP	59	96	0
NMTAP	59	96	7
NMTAP	59	192	0
NMTAP	59	192	7
NMTAP	60	0	1
NMTAP	60	0	6
NMTAP	60	96	1
NMTAP	60	96	6
BRTAP	60	192	1
BRTAP	60	192	6
NMTAP	61	0	0
NMTAP	61	96	0
NMTAP	61	192	1
NMTAP	61	288	1
NMTAP	62	0	2
NMTAP	62	96	2
NMTAP	62	192	3
NMTAP	62	288	3
NMTAP	63	0	4
NMTAP	63	96	4
NMTAP	63	192	5
NMTAP	63	288	5
NMTAP	64	0	6
NMTAP	64	96	6
NMTAP	64	192	0
NMTAP	64	192	7
NMTAP	65	0	7
NMTAP	65	96	7
NMTAP	65	192	6
NMTAP	65	288	6
NMTAP	66	0	5
NMTAP	66	96	5
NMTAP	66	192	4
NMTAP	66	288	4
NMTAP	67	0	3
NMTAP	67	96	3
NMTAP	67	192	2
NMTAP	67	288	2
NMTAP	68	0	1
NMTAP	68	96	1
NMTAP	68	192	0
NMTAP	68	192	7
NMSTR	69	0	0
NMSI_	69	0	0	96	288	3
NMSTR	69	0	7
NMSI_	69	0	7	96	288	4
NMTAP	70	192	3
NMTAP	70	192	4
NMSTR	71	0	2
NMSI_	71	0	2	96	288	5
NMTAP	72	192	6
NMSTR	73	0	6
NMSI_	73	0	6	96	288	2
NMTAP	74	192	1
NMSTR	75	0	1
NMSI_	75	0	1	96	288	5
NMTAP	76	192	6
NMSTR	77	0	7
NMSI_	77	0	7	96	288	3
NMTAP	78	192	2
NMSTR	79	0	2
NMSLL	79	0	2	96	480	4
NMTAP	81	0	5
NMTAP	81	96	5
NMTAP	81	192	6
NMTAP	81	192	7
NMTAP	81	288	6
NMTAP	81	288	7
NMTAP	82	0	0
NMTAP	82	96	0
NMTAP	82	192	0
NMTAP	82	192	1
NMTAP	83	0	2
NMTAP	83	96	2
NMTAP	83	192	0
NMTAP	83	192	1
NMTAP	83	288	0
NMTAP	83	288	1
NMTAP	84	0	7
NMTAP	84	96	7
NMTAP	84	192	6
NMTAP	84	192	7
NMTAP	85	0	6
NMTAP	85	96	6
NMTAP	85	192	4
NMTAP	85	192	5
NMTAP	85	288	4
NMTAP	85	288	5
NMTAP	86	0	3
NMTAP	86	96	3
NMTAP	86	192	2
NMTAP	86	192	3
NMTAP	87	0	1
NMTAP	87	96	1
NMTAP	87	192	2
NMTAP	87	192	3
NMTAP	87	288	2
NMTAP	87	288	3
NMTAP	88	0	4
NMTAP	88	96	4
NMTAP	88	192	4
NMTAP	88	192	5
NMTAP	89	0	5
NMTAP	89	96	5
NMTAP	89	192	6
NMTAP	89	192	7
NMTAP	89	288	6
NMTAP	89	288	7
NMTAP	90	0	0
NMTAP	90	96	0
NMTAP	90	192	0
NMTAP	90	192	1
NMTAP	90	288	0
NMTAP	90	288	1
NMTAP	91	0	2
NMTAP	91	96	2
NMTAP	91	192	0
NMTAP	91	192	1
NMTAP	91	288	0
NMTAP	91	288	1
NMTAP	92	0	7
NMTAP	92	96	7
NMTAP	92	192	6
NMTAP	92	192	7
NMTAP	93	0	6
NMTAP	93	96	6
NMTAP	93	192	4
NMTAP	93	192	5
NMTAP	93	288	4
NMTAP	93	288	5
NMTAP	94	0	3
NMTAP	94	96	3
NMTAP	94	192	2
NMTAP	94	192	3
NMTAP	95	0	1
NMTAP	95	96	2
NMTAP	95	192	3
NMTAP	95	288	4
NMTAP	96	0	5
NMTAP	96	96	6
NMTAP	96	192	0
NMTAP	96	192	7
NMTAP	97	0	6
NMTAP	97	96	5
NMTAP	97	192	4
NMTAP	97	288	3
NMTAP	98	0	2
NMTAP	98	96	1
NMTAP	98	192	0
NMTAP	98	192	7
NMTAP	99	0	0
NMTAP	99	96	1
NMTAP	99	192	2
NMTAP	99	288	3
NMTAP	100	0	4
NMTAP	100	96	5
NMTAP	100	192	6
NMTAP	100	288	7
NMTAP	101	0	0
NMTAP	101	96	1
NMTAP	101	192	2
NMTAP	101	288	3
EXTAP	102	0	3
EXTAP	102	0	4
NMTAP	103	0	5
NMTAP	103	96	5
NMTAP	103	192	4
NMTAP	103	192	5
NMTAP	104	0	2
NMTAP	104	96	2
NMTAP	104	192	2
NMTAP	104	192	3
NMSTR	105	0	3
NMSI_	105	0	3	96	288	0
NMSTR	105	0	4
NMSI_	105	0	4	96	288	7
NMTAP	107	0	0
NMTAP	107	0	7
NMTAP	107	96	0
NMTAP	107	96	7
NMTAP	107	192	1
NMTAP	107	192	6
NMTAP	107	288	1
NMTAP	107	288	6
NMTAP	108	0	2
NMTAP	108	0	5
NMTAP	108	96	2
NMTAP	108	96	5
NMTAP	108	192	3
NMTAP	108	192	4
EXTAP	108	288	3
EXTAP	108	288	4
BXTAP	109	0	2
BXTAP	109	0	5

T_REC_TAP	326
T_REC_BRK	2
T_REC_XTP	10
T_REC_BXX	2
T_REC_HLD	12
T_REC_XHO	0
T_REC_BHO	0
T_REC_BXH	0
T_REC_STR	9
T_REC_BST	0
T_REC_XST	0
T_REC_XBS	0
T_REC_TTP	28
T_REC_THO	0
T_REC_SLD	9
T_REC_BSL	0
T_REC_ALL	398
T_NUM_TAP	373
T_NUM_BRK	4
T_NUM_HLD	12
T_NUM_SLD	9
T_NUM_ALL	398
T_JUDGE_TAP	377
T_JUDGE_HLD	48
T_JUDGE_SLD	9
T_JUDGE_ALL	434
TTM_EACHPAIRS	84
TTM_SCR_TAP	186500
TTM_SCR_BRK	10400
TTM_SCR_HLD	12000
TTM_SCR_SLD	13500
TTM_SCR_ALL	222400
TTM_SCR_S	215350
TTM_SCR_SS	222000
TTM_RAT_ACV	10018

