VERSION	0.00.00	1.05.00
FES_MODE	0
BPM_DEF	185.000	185.000	185.000	185.000
MET_DEF	4	4
RESOLUTION	384
CLK_DEF	384
COMPATIBLE_CODE	MA2

BPM	0	0	185.000
MET	0	0	4	4

EXTAP	2	0	4
EXTAP	2	0	6
NMTAP	2	96	4
NMTAP	2	96	6
NMTAP	2	192	4
NMTAP	2	192	6
NMTAP	2	288	5
NMSTR	2	336	5
NMSUR	2	336	5	96	96	1
NMTAP	3	48	4
NMTAP	3	96	3
NMTAP	3	144	2
NMHLD	3	192	2	72
NMHLD	3	264	3	72
NMTAP	3	336	4
NMSTR	4	0	4
NMSXR	4	0	4	96	192	0
NMTAP	4	96	7
NMTAP	4	192	6
NMTAP	4	288	5
NMTAP	5	0	6
NMHLD	5	48	6	216
NMTTP	5	144	3	E	0	M1
NMTTP	5	168	4	E	0	M1
NMTTP	5	192	5	E	0	M1
NMTTP	5	216	6	E	0	M1
NMTTP	5	240	7	E	0	M1
NMTTP	5	264	0	E	0	M1
EXTAP	6	0	1
EXTAP	6	0	3
NMTAP	6	96	1
NMTAP	6	96	3
NMTAP	6	192	1
NMTAP	6	192	3
NMTAP	6	288	2
NMSTR	6	336	2
NMSUL	6	336	2	96	96	6
NMTAP	7	48	3
NMTAP	7	96	4
NMTAP	7	144	5
NMSTR	7	192	5
NMSUR	7	192	5	96	96	1
NMTAP	7	240	4
NMSTR	7	288	3
NMSCL	7	288	3	96	288	4
NMTAP	8	336	7
NMSTR	9	0	7
NMSCL	9	0	7	96	96	3
NMTAP	9	96	2
NMTAP	9	144	1
BRTAP	9	192	0
NMTAP	10	0	2
NMHLD	10	0	5	384
NMTAP	10	96	4
NMTAP	10	240	3
NMTAP	10	288	3
NMHLD	11	0	2	384
NMTAP	11	96	3
NMTAP	11	240	4
NMTAP	11	288	4
NMHLD	12	0	5	288
NMTAP	12	96	4
NMTAP	12	240	3
NMTAP	12	288	3
NMHLD	13	0	3	96
NMHLD	13	0	4	96
NMHLD	13	192	2	96
NMHLD	13	192	3	96
NMHLD	14	0	1	384
NMTAP	14	96	2
NMTAP	14	240	3
NMTAP	14	288	3
NMHLD	15	0	6	384
NMTAP	15	96	5
NMTAP	15	240	4
NMTAP	15	288	4
NMTAP	16	0	3
NMTAP	16	96	3
NMTAP	16	96	4
NMTAP	16	168	2
NMTAP	16	192	3
NMTAP	16	240	3
NMTAP	16	288	3
NMTAP	16	336	1
NMTAP	16	336	5
BRTAP	17	192	3
BRTAP	17	192	4
EXTAP	18	0	0
EXTAP	18	0	7
NMTAP	18	96	5
NMTAP	18	144	5
NMSTR	18	192	6
NMSI_	18	192	6	96	48	2
EXTAP	18	264	3
NMHLD	18	336	1	96
NMTAP	19	48	0
NMTAP	19	96	7
NMTAP	19	144	6
NMSTR	19	192	5
NMSI_	19	192	5	96	48	1
EXTAP	19	264	0
NMTAP	20	0	2
NMTAP	20	48	2
NMTAP	20	96	3
NMTAP	20	144	0
NMTAP	20	192	5
NMTAP	20	240	5
NMTAP	20	288	4
NMTAP	20	336	7
EXSTR	21	0	3
NMSCR	21	0	3	96	96	0
NMTAP	21	96	2
EXSTR	21	192	1
NMSXR	21	192	1	96	144	3
NMTAP	21	288	4
EXTAP	22	0	5
NMTAP	22	96	6
NMTAP	22	192	3
NMTAP	22	192	5
NMTAP	22	288	1
NMTAP	22	288	3
NMSTR	23	0	0
NMSCR	23	0	0	96	48	3
NMTAP	23	0	4
NMTAP	23	96	6
NMSTR	23	144	7
NMSCL	23	144	7	96	48	4
NMTAP	23	240	1
NMTAP	23	336	0
NMTAP	23	336	3
NMTAP	24	48	2
NMTAP	24	48	4
NMTAP	24	96	5
NMTAP	24	144	6
NMTAP	24	192	4
NMTAP	24	192	7
NMTAP	24	240	3
NMTAP	24	288	2
NMHLD	24	336	1	96
NMHLD	24	336	5	96
NMTAP	25	144	4
NMTAP	25	168	2
EXTAP	25	192	6
BRTAP	26	0	0
BRTAP	26	0	7
BRTAP	26	96	3
BRTAP	26	96	4
BRTAP	26	192	1
BRTAP	26	192	2
BRTAP	26	288	5
BRTAP	26	288	6
EXTAP	27	0	4
EXSTR	27	0	7
NMSUR	27	0	7	96	48	3
NMTAP	27	96	6
NMTAP	27	96	7
NMSTR	27	192	5
NMSUR	27	192	5	96	48	1
NMTAP	27	288	4
NMTAP	27	288	5
NMSTR	27	336	3
NMSI_	27	336	3	96	48	0
NMTAP	28	48	2
NMTAP	28	48	3
NMTAP	28	144	1
NMSTR	28	192	0
NMSUL	28	192	0	96	48	4
NMSTR	28	192	7
NMSCL	28	192	7	96	48	5
NMTAP	28	288	0
NMTAP	28	288	7
NMSTR	29	0	2
NMSI_	29	0	2	96	48	0
NMSTR	29	96	4
NMSI_	29	96	4	96	48	0
NMSTR	29	192	1
NMSI_	29	192	1	96	48	3
NMTAP	29	288	7
NMSTR	29	336	7
NMSCL	29	336	7	96	48	4
NMSTR	30	48	7
NMSXL	30	48	7	96	144	4
NMTAP	30	144	7
NMTAP	30	192	5
NMTAP	30	288	6
EXSTR	31	0	0
NMSUR	31	0	0	96	96	5
EXTAP	31	0	3
NMTAP	31	96	0
NMTAP	31	96	1
NMSTR	31	192	2
NMSUL	31	192	2	96	48	6
NMTAP	31	288	2
NMTAP	31	288	3
NMSTR	31	336	4
NMSI_	31	336	4	96	48	7
NMTAP	32	48	4
NMTAP	32	48	5
NMTAP	32	144	6
NMSTR	32	192	0
NMSCR	32	192	0	96	48	2
NMSTR	32	192	7
NMSUR	32	192	7	96	48	3
NMTAP	32	288	0
NMTAP	32	288	7
NMSTR	33	0	5
NMSI_	33	0	5	96	48	7
NMSTR	33	96	3
NMSI_	33	96	3	96	48	7
NMSTR	33	192	6
NMSI_	33	192	6	96	48	4
NMTAP	33	288	0
BRTAP	33	336	1
BRTAP	34	48	2
BRTAP	34	48	3
BRTAP	34	144	4
BRTAP	34	144	5
BRTAP	34	192	6
BRTAP	34	192	7
NMSTR	34	288	1
NMSI_	34	288	1	96	48	6
EXTAP	35	0	1
EXSTR	35	0	7
NMSI_	35	0	7	96	48	4
EXSTR	35	96	5
NMSI_	35	96	5	96	48	2
EXTAP	35	96	7
EXTAP	35	192	3
EXTAP	35	192	5
NMTAP	35	288	1
NMTAP	35	336	1
NMTAP	36	48	3
NMTAP	36	48	5
NMTAP	36	96	6
NMTAP	36	144	7
NMTAP	36	192	0
NMHLD	36	192	1	72
NMHLD	36	264	2	72
NMTAP	36	336	3
NMSTR	37	0	4
BRSCL	37	0	4	96	192	7
BRSUL	37	0	4	96	192	7
EXTAP	38	0	5
NMHLD	38	48	5	192
NMTAP	38	144	4
NMTAP	38	168	3
NMTAP	38	192	2
NMTAP	38	216	1
NMTAP	38	240	0
NMTAP	38	264	7
NMSTR	38	288	6
NMSI_	38	288	6	96	48	1
EXSTR	39	0	0
NMSI_	39	0	0	96	48	3
EXTAP	39	0	6
EXTAP	39	96	0
EXSTR	39	96	2
NMSI_	39	96	2	96	48	5
EXTAP	39	192	2
EXTAP	39	192	4
NMTAP	39	288	7
NMTAP	39	336	7
NMTAP	40	48	3
NMTAP	40	48	6
EXTAP	40	96	3
EXTAP	40	96	6
NMTAP	40	192	1
NMTAP	40	192	4
NMTAP	40	240	2
NMTAP	40	264	3
NMTAP	40	288	2
NMTAP	40	336	5
NMTAP	40	360	4
NMSTR	41	0	5
NMSI_	41	0	5	96	48	1
CNSI_	41	144	1	0	48	7
NMTAP	41	144	3
NMSTR	41	192	4
NMSI_	41	192	4	96	48	0
BRTAP	42	0	1
BRTAP	42	0	5
BRTAP	42	48	1
BRTAP	42	48	5
BRTAP	42	96	2
BRTAP	42	96	6
BRSTR	42	144	2
NMSCL	42	144	2	96	48	7
BRSTR	42	144	6
NMSCL	42	144	6	96	48	3
EXTAP	43	0	1
EXTAP	43	0	4
NMTAP	43	64	5
NMTAP	43	128	6
NMTAP	43	192	4
NMTAP	43	192	7
NMTAP	43	256	3
NMTAP	43	320	2
NMTAP	44	0	1
NMTAP	44	0	4
NMTAP	44	64	5
NMTAP	44	128	6
NMTAP	44	192	4
NMTAP	44	192	7
NMTAP	44	256	3
EXTAP	44	320	2
EXTAP	44	320	4
EXTAP	45	0	0
EXTAP	45	0	3
NMTAP	45	64	4
NMTAP	45	128	5
NMTAP	45	192	3
NMTAP	45	192	6
NMTAP	45	256	2
NMTAP	45	320	1
NMTAP	46	0	0
NMTAP	46	0	3
NMTAP	46	64	4
NMTAP	46	128	5
NMTAP	46	192	3
NMTAP	46	192	6
NMTAP	46	256	2
NMTAP	46	288	2
NMTAP	46	320	4
NMTAP	46	352	4
EXHLD	47	0	1	192
NMTAP	47	64	2
NMTAP	47	128	3
NMHLD	47	192	4	192
NMTAP	47	256	3
NMTAP	47	320	2
NMHLD	48	0	2	192
NMTAP	48	64	3
NMTAP	48	128	4
NMHLD	48	192	5	192
NMTAP	48	256	4
NMTAP	48	320	3
NMHLD	49	0	3	192
NMTAP	49	64	4
NMTAP	49	128	5
NMHLD	49	192	6	128
NMTAP	49	256	5
NMTAP	49	320	4
EXTAP	50	0	3
EXTAP	50	0	5
NMTAP	50	48	3
NMTAP	50	48	5
NMTAP	50	96	2
NMTAP	50	96	4
NMTAP	50	144	2
NMTAP	50	144	4
NMTAP	50	192	5
NMTAP	50	216	3
NMTAP	50	240	5
NMTAP	50	264	3
NMTAP	50	288	6
NMTAP	50	312	4
NMTAP	50	336	6
NMTAP	50	360	4
EXSTR	51	0	7
NMSXL	51	0	7	96	144	4
NMTAP	51	192	3
NMTAP	51	240	2
NMTAP	51	288	1
NMSTR	51	336	0
NMSLR	51	336	0	96	96	4
NMTAP	52	48	5
NMTAP	52	96	6
NMSTR	52	144	7
NMSLL	52	144	7	96	96	3
NMTAP	52	240	2
NMTAP	52	288	1
NMSTR	52	336	0
NMSI_	52	336	0	96	48	4
NMTAP	53	48	5
CNSI_	53	96	4	0	48	1
NMHLD	53	96	7	192
NMTAP	53	192	0
NMTAP	53	240	1
NMTAP	53	288	2
NMSTR	53	336	3
NMSI_	53	336	3	96	48	7
NMTAP	54	48	6
NMTAP	54	96	5
NMTAP	54	144	4
NMTAP	54	192	0
NMTAP	54	192	3
NMTAP	54	240	1
NMTAP	54	240	4
NMTAP	54	288	2
NMTAP	54	288	5
EXTAP	54	336	3
EXTAP	54	336	6
NMSTR	55	48	1
NMSV_	55	48	1	96	48	3
NMSTR	55	96	0
NMSLL	55	96	0	96	72	4
NMTAP	55	288	2
NMTAP	55	336	1
NMTAP	55	336	5
NMSTR	56	48	6
NMSV_	56	48	6	96	48	4
NMSTR	56	96	7
NMSLR	56	96	7	96	72	3
NMSTR	56	288	5
NMSCL	56	288	5	96	96	1
NMSCR	56	288	5	96	96	1
NMTAP	57	0	5
NMTAP	57	192	3
NMTAP	57	192	7
NMTAP	57	240	2
NMTAP	57	288	1
NMTAP	57	336	0
NMHLD	57	336	4	336
NMTAP	58	48	7
NMTAP	58	96	6
NMTAP	58	144	5
NMTAP	58	240	3
NMTAP	58	288	2
EXTAP	59	0	0
EXSTR	59	0	7
NMSXL	59	0	7	96	192	3
NMTAP	59	96	4
NMTAP	59	96	7
NMTAP	59	288	6
EXSTR	60	0	0
NMSXR	60	0	0	96	192	4
EXTAP	60	0	7
NMTAP	60	96	0
NMTAP	60	96	3
NMTAP	60	288	1
EXTAP	61	0	0
EXSTR	61	0	7
NMSXL	61	0	7	96	192	3
NMTAP	61	96	4
NMTAP	61	96	7
NMTAP	61	288	6
NMTAP	62	0	2
NMTAP	62	48	1
NMTAP	62	48	3
NMTAP	62	96	5
NMTAP	62	144	4
NMTAP	62	144	6
NMTAP	62	192	2
NMTAP	62	216	5
NMTAP	62	240	2
NMTAP	62	264	5
NMTAP	62	288	1
EXSTR	63	0	0
NMSI_	63	0	0	96	48	4
NMTAP	63	48	0
NMSTR	63	96	6
NMSI_	63	96	6	96	48	2
NMTAP	63	144	6
NMSTR	63	192	3
NMSI_	63	192	3	96	48	7
NMTAP	63	240	3
EXTAP	63	288	5
EXSTR	64	0	4
NMSI_	64	0	4	96	48	0
NMTAP	64	48	4
NMSTR	64	96	2
NMSI_	64	96	2	96	48	6
NMTAP	64	144	2
NMSTR	64	192	7
NMSI_	64	192	7	96	48	4
NMTAP	64	240	7
EXTAP	64	288	0
EXHLD	65	0	1	144
EXHLD	65	0	3	144
EXHLD	65	192	4	144
EXHLD	65	192	6	144
EXSTR	66	0	1
NMSCR	66	0	1	96	288	6
EXSTR	66	0	7
NMSSR	66	0	7	96	288	3
CNSSR	67	0	3	0	288	7
CNSCL	67	0	6	0	288	1
EXHLD	68	0	1	144
EXHLD	68	0	3	144
NMTAP	68	192	2
NMTAP	68	192	4
NMTAP	68	240	5
NMTAP	68	288	6
EXTAP	68	336	4
EXTAP	68	336	7
NMTAP	69	48	2
NMTAP	69	72	3
NMTAP	69	96	2
NMTAP	69	144	1
NMTAP	69	168	0
NMSTR	69	192	1
NMSCR	69	192	1	96	48	4
NMTAP	69	288	5
NMTAP	70	0	6
NMTAP	70	0	7
BRTAP	70	48	0
BRTAP	70	48	5
NMTAP	70	144	0
NMTAP	70	144	1
BRTAP	70	192	2
BRTAP	70	192	7
NMTTP	70	288	0	B	0	M1
NMTTP	70	288	0	E	1	M1
NMTTP	70	288	1	E	0	M1
NMTTP	70	288	7	B	0	M1
NMTTP	70	288	7	E	0	M1
NMHLD	71	0	3	288
NMTAP	71	0	4
NMTAP	71	96	4
NMTAP	71	192	4
NMTAP	71	288	4
NMHLD	72	0	2	288
NMTAP	72	0	4
NMTAP	72	96	4
NMTAP	72	192	4
NMTAP	72	288	4
NMHLD	73	0	1	288
NMTAP	73	0	3
NMTAP	73	96	3
NMTAP	73	192	3
NMTAP	73	288	3
NMHLD	74	0	0	96
NMTAP	74	0	3
NMTAP	74	96	3
NMTAP	74	192	3
NMTAP	74	192	7
NMTAP	74	288	3
NMTAP	74	288	7
EXSTR	75	0	0
NMSSL	75	0	0	96	192	4
NMTAP	75	96	4
NMTAP	75	144	4
NMTAP	75	192	5
NMTAP	75	240	5
NMTAP	75	288	6
NMTAP	75	336	6
EXSTR	76	0	7
NMSSR	76	0	7	96	192	3
NMTAP	76	96	3
NMTAP	76	144	3
NMTAP	76	192	2
NMTAP	76	240	2
NMSTR	76	288	1
NMSV_	76	288	1	96	48	4
NMSV_	76	288	1	96	48	6
EXTAP	77	0	1
BRTAP	78	0	5
BRTAP	78	0	7
BRTAP	78	64	0
BRTAP	78	64	2
BRTAP	78	128	3
BRTAP	78	128	4
BRTAP	78	192	4
BRTAP	78	192	6
BRTAP	78	256	1
BRTAP	78	256	3
BRTAP	78	320	0
BRTAP	78	320	7
NMTAP	79	96	5
NMTAP	79	96	6
NMTAP	79	192	3
NMTAP	79	192	4
NMTAP	79	288	1
NMTAP	79	288	2
EXSTR	80	0	0
NMSUL	80	0	0	96	48	4
EXTAP	80	0	3
NMTAP	80	96	0
NMTAP	80	96	1
NMSTR	80	192	2
NMSUL	80	192	2	96	48	6
NMTAP	80	288	2
NMTAP	80	288	3
NMSTR	80	336	4
NMSI_	80	336	4	96	48	7
NMTAP	81	48	4
NMTAP	81	48	5
NMTAP	81	144	6
NMSTR	81	192	0
NMSCR	81	192	0	96	48	2
NMSTR	81	192	7
NMSUR	81	192	7	96	48	3
NMTAP	81	288	0
NMTAP	81	288	7
NMSTR	82	0	5
NMSI_	82	0	5	96	48	7
NMSTR	82	96	3
NMSI_	82	96	3	96	48	7
NMSTR	82	192	6
NMSI_	82	192	6	96	48	4
NMTAP	82	288	0
NMSTR	82	336	0
NMSCR	82	336	0	96	48	3
NMSTR	83	48	0
NMSXR	83	48	0	96	144	3
NMTAP	83	144	0
NMTAP	83	192	2
NMTAP	83	288	1
EXTAP	84	0	4
EXSTR	84	0	7
NMSUL	84	0	7	96	96	2
NMTAP	84	96	6
NMTAP	84	96	7
NMSTR	84	192	5
NMSUR	84	192	5	96	48	1
NMTAP	84	288	4
NMTAP	84	288	5
NMSTR	84	336	3
NMSI_	84	336	3	96	48	0
NMTAP	85	48	2
NMTAP	85	48	3
NMTAP	85	144	1
NMSTR	85	192	0
NMSUL	85	192	0	96	48	4
NMSTR	85	192	7
NMSCL	85	192	7	96	48	5
NMTAP	85	288	0
NMTAP	85	288	7
NMSTR	86	0	2
NMSI_	86	0	2	96	48	0
NMSTR	86	96	4
NMSI_	86	96	4	96	48	0
NMSTR	86	192	1
NMSI_	86	192	1	96	48	3
NMTAP	86	288	7
BRTAP	86	336	6
BRTAP	87	48	4
BRTAP	87	48	5
BRTAP	87	144	2
BRTAP	87	144	3
BRTAP	87	192	0
BRTAP	87	192	1
NMSTR	87	288	3
NMSCL	87	288	3	96	48	0
NMTAP	87	288	7
EXTAP	88	0	7
NMTAP	88	16	6
NMTAP	88	32	5
NMTAP	88	48	4
BRTAP	88	96	1
BRTAP	88	96	6
NMTAP	88	192	2
NMSTR	88	192	7
NMSCL	88	192	7	96	48	4
NMTAP	88	288	3
NMSTR	88	336	3
BRSV_	88	336	3	96	96	1
NMSTR	89	48	1
BRSCL	89	48	1	96	96	5
NMTAP	89	144	5
NMTAP	89	192	5
NMTAP	89	288	3
EXTAP	90	0	0
EXTAP	90	0	4
NMTAP	90	48	5
NMTAP	90	96	2
NMTAP	90	96	6
NMTAP	90	144	7
NMSTR	90	192	0
NMSI_	90	192	0	96	48	4
NMTAP	90	192	4
NMTAP	90	288	3
NMSTR	90	336	3
BRSV_	90	336	3	96	96	5
NMSTR	91	48	5
BRSCR	91	48	5	96	96	1
NMTAP	91	144	1
NMTAP	91	192	1
NMTAP	91	288	3
EXTAP	92	0	4
EXSTR	92	0	7
NMSUR	92	0	7	96	48	3
NMTAP	92	96	6
NMTAP	92	96	7
NMSTR	92	192	5
NMSUR	92	192	5	96	48	1
NMTAP	92	288	4
NMTAP	92	288	5
NMSTR	92	336	3
NMSI_	92	336	3	96	48	0
NMTAP	93	48	2
NMTAP	93	48	3
NMTAP	93	144	1
NMSTR	93	192	0
NMSUL	93	192	0	96	48	4
NMSTR	93	192	7
NMSCL	93	192	7	96	48	5
NMTAP	93	288	0
NMTAP	93	288	7
NMSTR	94	0	2
NMSI_	94	0	2	96	48	0
NMSTR	94	96	4
NMSI_	94	96	4	96	48	0
NMSTR	94	192	1
NMSI_	94	192	1	96	48	3
NMTAP	94	288	7
NMTAP	94	336	7
NMSTR	95	48	2
BRSI_	95	48	2	96	48	6
BRSI_	95	48	2	96	48	6
CNSCL	95	192	6	0	48	4
CNSCR	95	192	6	0	48	0
EXSTR	95	288	1
NMSI_	95	288	1	96	48	6
EXTAP	96	0	1
EXSTR	96	0	7
NMSI_	96	0	7	96	48	4
EXSTR	96	96	5
NMSI_	96	96	5	96	48	2
EXTAP	96	96	7
EXTAP	96	192	3
EXTAP	96	192	5
NMTAP	96	288	1
NMTAP	96	288	3
NMTAP	96	336	1
NMTAP	96	336	3
NMTAP	97	48	0
NMTAP	97	48	1
NMTAP	97	96	2
NMTAP	97	144	3
NMTAP	97	192	4
NMHLD	97	192	5	72
NMHLD	97	264	6	72
NMTAP	97	336	7
NMSTR	98	0	7
NMSCL	98	0	7	96	96	3
NMSTR	98	96	3
NMSCL	98	96	3	96	96	7
NMSTR	98	192	7
NMSCL	98	192	7	96	96	3
NMTAP	98	288	3
NMTAP	98	336	1
NMTAP	99	48	0
NMTAP	99	48	1
NMTAP	99	144	3
NMTAP	99	144	4
NMTAP	99	192	3
NMTAP	99	192	4
NMSTR	99	288	6
NMSI_	99	288	6	96	48	1
NMTAP	99	288	7
EXSTR	100	0	0
NMSI_	100	0	0	96	48	3
EXTAP	100	0	6
EXTAP	100	96	0
EXSTR	100	96	2
NMSI_	100	96	2	96	48	5
EXTAP	100	192	2
EXTAP	100	192	4
NMTAP	100	288	4
NMTAP	100	288	6
NMTAP	100	336	4
NMTAP	100	336	6
NMTAP	101	48	6
NMTAP	101	48	7
NMTAP	101	96	5
NMTAP	101	144	4
NMHLD	101	192	2	72
NMTAP	101	192	3
NMHLD	101	264	1	72
NMTAP	101	336	0
NMSTR	102	0	0
NMSCR	102	0	0	96	96	4
NMSTR	102	96	4
NMSCR	102	96	4	96	96	0
NMTAP	102	192	0
NMTAP	102	288	4
NMTAP	102	336	4
NMTAP	103	0	3
NMTAP	103	0	5
NMTAP	103	48	6
NMTAP	103	72	7
NMTAP	103	96	6
NMTAP	103	144	1
NMTAP	103	168	0
NMTAP	103	192	1
NMTAP	103	240	2
NMTAP	103	240	3
NMTAP	103	288	2
NMTAP	103	288	3
EXTAP	104	0	1
EXSTR	104	0	6
NMSI_	104	0	6	96	48	2
NMTAP	104	96	6
NMSTR	104	96	7
NMSI_	104	96	7	96	48	3
NMSTR	104	192	4
NMSI_	104	192	4	96	48	0
NMTAP	104	192	7
NMSTR	104	288	2
NMSI_	104	288	2	96	48	6
NMTAP	104	288	4
NMSTR	105	0	1
NMSUL	105	0	1	96	48	5
NMTAP	105	0	2
NMTAP	105	96	1
NMSTR	105	96	4
NMSI_	105	96	4	96	48	0
NMTAP	105	192	4
NMSTR	105	192	7
BRSI_	105	192	7	96	48	2
BRSI_	105	192	7	96	48	4
NMTAP	105	288	7
EXSTR	106	0	0
NMSI_	106	0	0	96	48	4
EXTAP	106	0	5
NMTAP	106	96	0
NMSTR	106	96	7
NMSI_	106	96	7	96	48	3
NMSTR	106	192	2
NMSI_	106	192	2	96	48	6
NMTAP	106	192	7
NMTAP	106	288	2
NMSTR	106	288	4
NMSI_	106	288	4	96	48	7
NMTAP	107	0	0
NMTAP	107	0	4
NMTAP	107	96	0
NMTAP	107	96	2
NMTAP	107	192	3
NMTAP	107	192	7
NMTAP	107	240	3
NMTAP	107	240	7
NMSTR	107	288	3
BRSUR	107	288	3	96	48	7
NMSTR	107	288	7
BRSCL	107	288	7	96	48	3
BRTAP	108	0	3
BRTAP	108	0	7
NMTAP	108	96	1
NMTAP	108	192	2
NMTAP	108	192	3
NMTAP	108	240	2
NMTAP	108	240	3
NMTAP	108	288	4
NMTAP	108	288	5
NMTAP	108	336	4
NMTAP	108	336	5
NMTAP	109	0	6
NMTAP	109	0	7
NMTAP	109	48	6
NMTAP	109	48	7
NMTAP	109	96	0
NMTAP	109	96	1
NMTAP	109	144	0
NMTAP	109	144	1
NMTAP	109	192	2
NMTAP	109	192	7
NMTAP	109	240	3
NMTAP	109	240	6
NMSTR	109	288	4
NMSI_	109	288	4	96	48	0
NMSTR	109	288	5
NMSI_	109	288	5	96	48	1
EXTAP	110	0	4
EXTAP	110	0	5
NMTAP	110	144	2
NMTAP	110	168	4
NMTAP	110	192	2
NMTAP	110	216	4
NMTAP	110	240	2
NMTAP	110	264	4
NMTAP	110	288	3
NMTAP	110	312	5
NMTAP	110	336	3
NMTAP	110	360	5
BRTAP	111	0	2
BRTAP	111	0	6
NMHLD	112	0	1	144
NMTAP	112	96	3
NMHLD	112	144	4	144
NMTAP	112	240	2
NMHLD	112	288	1	96
NMHLD	113	0	6	144
NMTAP	113	96	4
NMHLD	113	144	3	144
NMTAP	113	240	5
NMHLD	113	288	6	96
NMHLD	114	0	1	144
NMTAP	114	96	3
NMHLD	114	144	4	144
NMTAP	114	240	2
NMTAP	114	288	1
NMTAP	115	0	6
NMTAP	115	48	5
NMTAP	115	96	4
NMTAP	115	144	3
NMTAP	115	192	2
NMTAP	115	240	3
NMSTR	115	288	4
NMSSL	115	288	4	96	1536	0
NMTAP	115	336	5
EXTAP	116	0	4
EXTAP	116	0	6

T_REC_TAP	456
T_REC_BRK	53
T_REC_XTP	61
T_REC_BXX	0
T_REC_HLD	41
T_REC_XHO	7
T_REC_BHO	0
T_REC_BXH	0
T_REC_STR	97
T_REC_BST	2
T_REC_XST	28
T_REC_XBS	0
T_REC_TTP	11
T_REC_THO	0
T_REC_SLD	120
T_REC_BSL	12
T_REC_ALL	888
T_NUM_TAP	653
T_NUM_BRK	67
T_NUM_HLD	48
T_NUM_SLD	120
T_NUM_ALL	888
T_JUDGE_TAP	708
T_JUDGE_HLD	171
T_JUDGE_SLD	132
T_JUDGE_ALL	1011
TTM_EACHPAIRS	186
TTM_SCR_TAP	326500
TTM_SCR_BRK	174200
TTM_SCR_HLD	48000
TTM_SCR_SLD	180000
TTM_SCR_ALL	728700
TTM_SCR_S	700350
TTM_SCR_SS	722000
TTM_RAT_ACV	10092

