VERSION	0.00.00	1.05.00
FES_MODE	0
BPM_DEF	185.000	185.000	185.000	185.000
MET_DEF	4	4
RESOLUTION	384
CLK_DEF	384
COMPATIBLE_CODE	MA2

BPM	0	0	185.000
MET	0	0	4	4

NMHLD	2	0	1	96
NMTAP	2	96	3
NMTAP	2	192	4
NMTAP	2	240	4
NMTAP	2	288	2
NMHLD	3	0	5	96
NMTAP	3	96	4
NMTAP	3	192	6
NMTAP	3	240	6
NMTAP	3	288	4
NMTAP	4	0	4
NMTAP	4	0	6
NMTAP	4	96	4
NMTAP	4	96	6
NMTAP	4	192	2
NMTAP	4	192	4
NMTAP	4	288	2
NMTAP	4	288	4
NMTAP	5	0	4
NMTAP	5	0	5
NMTAP	5	96	4
NMTAP	5	96	5
NMTAP	5	192	3
NMTAP	5	192	6
NMHLD	6	0	6	96
NMTAP	6	96	4
NMTAP	6	192	3
NMTAP	6	240	3
NMTAP	6	288	5
NMHLD	7	0	2	96
NMTAP	7	96	3
NMTAP	7	192	1
NMTAP	7	240	1
NMTAP	7	288	3
NMTAP	8	0	1
NMTAP	8	0	3
NMTAP	8	96	1
NMTAP	8	96	3
NMTAP	8	192	3
NMTAP	8	192	5
NMTAP	8	288	3
NMTAP	8	288	5
NMTAP	9	0	2
NMTAP	9	48	2
NMTAP	9	96	4
EXTAP	9	192	1
EXTAP	9	192	5
NMTAP	10	0	6
NMHLD	10	96	6	576
NMTTP	10	288	5	E	0	M1
NMTTP	11	96	4	E	0	M1
NMTTP	11	288	3	E	0	M1
NMHLD	12	0	1	672
NMTTP	12	96	4	E	0	M1
NMTTP	12	288	5	E	0	M1
NMTTP	13	96	6	E	0	M1
NMTTP	13	288	7	E	0	M1
EXHLD	14	0	7	672
NMTTP	14	96	4	B	0	M1
NMTTP	14	96	5	B	0	M1
NMTTP	14	288	2	B	0	M1
NMTTP	14	288	3	B	0	M1
NMTTP	15	96	5	B	0	M1
NMTTP	15	96	6	B	0	M1
NMTTP	15	288	1	B	0	M1
NMTTP	15	288	2	B	0	M1
NMTHO	16	0	0	336	C	0	M1
BXTAP	17	192	0
BXTAP	17	192	7
NMTAP	18	0	0
NMTAP	18	0	7
NMTAP	18	96	6
NMTAP	18	144	6
NMTAP	18	192	7
NMTAP	18	288	0
NMTAP	18	288	5
NMTAP	19	0	2
NMTAP	19	0	7
NMTAP	19	96	1
NMTAP	19	144	1
NMTAP	19	192	0
NMTAP	19	288	2
NMTAP	19	288	3
NMHLD	20	0	1	96
NMTAP	20	96	0
NMHLD	20	192	6	96
NMTAP	20	288	7
EXTAP	21	0	0
EXTAP	21	0	5
BXTAP	21	96	0
BXTAP	21	96	5
EXTAP	21	192	2
EXTAP	21	192	7
BXTAP	21	288	2
BXTAP	21	288	7
NMTAP	22	0	6
NMTAP	22	48	6
NMTAP	22	96	4
NMTAP	22	144	4
NMTAP	22	192	5
NMTAP	22	288	3
NMTAP	22	288	4
NMHLD	23	0	2	96
NMTAP	23	96	3
NMHLD	23	144	3	96
NMTAP	23	240	1
NMTAP	23	336	0
NMTAP	23	336	1
NMTAP	24	48	7
NMTAP	24	96	7
NMTAP	24	192	0
NMTAP	24	192	6
NMTAP	24	240	0
NMSTR	24	240	6
NMSXL	24	240	6	96	240	3
EXTAP	26	0	2
EXTAP	26	0	4
EXTAP	26	96	2
EXTAP	26	96	4
EXTAP	26	192	3
EXTAP	26	192	5
EXTAP	26	288	3
EXTAP	26	288	5
NMTAP	27	0	2
NMTAP	27	0	3
NMTAP	27	96	0
NMTAP	27	96	1
NMTAP	27	192	6
NMTAP	27	192	7
NMTAP	27	288	4
NMTAP	27	288	5
NMTAP	28	0	6
NMTAP	28	0	7
NMTAP	28	96	6
NMTAP	28	96	7
NMTAP	28	192	0
NMTAP	28	192	1
NMTAP	28	288	0
NMTAP	28	288	1
NMHLD	29	0	1	96
NMHLD	29	96	3	96
NMHLD	29	192	4	96
NMTAP	29	288	6
NMTAP	30	0	4
NMTAP	30	0	6
NMTAP	30	96	4
NMTAP	30	96	6
NMTAP	30	192	1
NMTAP	30	192	3
BRTAP	30	288	1
BRTAP	30	288	3
NMSTR	31	0	0
NMSI_	31	0	0	96	96	4
NMSTR	31	192	5
NMSCR	31	192	5	96	96	0
NMTAP	32	0	1
NMTAP	32	96	0
NMTAP	32	96	1
NMTAP	32	192	6
NMTAP	32	288	6
NMTAP	32	288	7
NMSTR	33	0	5
NMSCL	33	0	5	96	96	2
NMSTR	33	192	1
NMSCL	33	192	1	96	96	6
NMTAP	34	0	4
NMTAP	34	96	3
NMTAP	34	96	5
BXTAP	34	192	2
BXTAP	34	192	6
NMTAP	35	0	1
NMTAP	35	0	7
NMTAP	35	96	2
NMTAP	35	96	3
NMTAP	35	192	4
NMTAP	35	192	5
NMTAP	35	288	4
NMTAP	35	288	5
NMTAP	36	0	0
NMTAP	36	0	6
NMTAP	36	96	4
NMTAP	36	96	5
NMTAP	36	192	2
NMTAP	36	192	3
NMSTR	36	288	2
NMSI_	36	288	2	96	96	6
NMSI_	36	288	2	96	96	7
NMTAP	36	288	3
NMTAP	37	192	4
NMTAP	37	192	5
NMTAP	37	288	4
NMSTR	37	288	5
NMSI_	37	288	5	96	96	0
NMSI_	37	288	5	96	96	1
NMTAP	38	192	0
NMTAP	38	192	1
NMTAP	38	288	0
NMTAP	38	288	1
NMTAP	39	0	0
NMTAP	39	0	6
NMTAP	39	96	4
NMTAP	39	96	5
NMTAP	39	192	2
NMTAP	39	192	3
NMTAP	39	288	2
NMTAP	39	288	3
NMTAP	40	0	1
NMTAP	40	0	7
NMTAP	40	96	2
NMTAP	40	96	3
NMTAP	40	192	4
NMTAP	40	192	5
NMSTR	40	288	4
NMSCL	40	288	4	96	288	5
NMTAP	40	288	5
NMTTP	41	0	5	E	1	M1
NMTAP	42	0	4
NMTAP	42	0	5
NMTAP	42	96	3
NMTAP	42	96	6
BXTAP	42	192	3
BXTAP	42	192	6
NMTAP	43	0	2
NMTAP	43	64	2
NMTAP	43	128	2
NMTAP	43	128	3
NMTAP	43	192	2
NMTAP	43	192	3
NMTAP	44	0	5
NMTAP	44	64	5
NMTAP	44	128	4
NMTAP	44	128	5
NMTAP	44	192	4
NMTAP	44	192	5
NMTAP	45	0	1
NMTAP	45	64	1
NMTAP	45	128	1
NMTAP	45	128	3
NMTAP	45	192	1
NMTAP	45	192	3
NMTAP	46	0	6
NMTAP	46	64	6
NMTAP	46	128	4
NMTAP	46	128	6
NMTAP	46	192	4
NMTAP	46	192	6
NMTAP	47	0	2
NMTAP	47	64	2
NMTAP	47	128	2
NMTAP	47	192	3
NMTAP	47	256	3
NMTAP	47	320	3
NMTAP	48	0	1
NMTAP	48	64	1
NMTAP	48	128	1
EXTAP	48	192	2
EXTAP	48	192	4
NMTAP	49	0	5
NMTAP	49	64	5
NMTAP	49	128	5
NMTAP	49	192	4
NMTAP	49	256	4
NMTAP	49	320	4
NMTAP	50	0	5
NMTAP	50	96	4
NMTAP	50	96	5
EXTAP	50	192	3
EXTAP	50	192	6
EXTAP	50	240	3
EXTAP	50	240	6
EXTAP	50	288	3
EXTAP	50	288	6
NMTAP	51	0	5
NMTAP	51	96	6
NMTAP	51	96	7
NMTAP	51	192	0
NMTAP	51	240	0
NMTAP	51	288	7
NMTAP	52	0	2
NMTAP	52	96	0
NMTAP	52	96	1
NMTAP	52	192	7
NMTAP	52	240	7
NMTAP	52	288	0
NMHLD	53	0	6	96
NMTAP	53	96	4
NMTAP	53	192	3
NMTAP	53	192	5
NMTAP	53	288	2
NMTAP	53	288	4
NMHLD	54	0	2	96
NMTAP	54	96	0
NMTAP	54	192	1
NMTAP	54	192	7
NMTAP	54	288	0
NMTAP	54	288	6
NMTAP	55	0	5
NMTAP	55	48	5
NMTAP	55	96	3
NMTAP	55	144	3
NMTAP	55	192	4
NMTAP	55	240	4
NMTAP	55	288	2
NMTAP	56	0	1
NMTAP	56	48	1
NMTAP	56	96	4
NMTAP	56	144	4
NMTAP	56	192	3
NMTAP	56	240	3
NMTAP	56	288	6
NMTAP	57	0	5
NMTAP	57	0	7
NMTAP	57	96	5
NMTAP	57	96	7
NMTAP	57	192	4
NMTAP	57	192	6
NMTAP	57	288	4
NMTAP	57	288	6
NMTAP	58	0	1
NMTAP	58	0	3
NMTAP	58	96	1
NMTAP	58	96	3
NMTAP	58	192	0
NMTAP	58	192	4
NMSTR	59	0	5
NMSCR	59	0	5	96	96	0
NMTAP	59	192	1
NMTAP	59	288	2
NMSTR	60	0	2
NMSCL	60	0	2	96	96	7
NMTAP	60	192	6
NMTAP	60	288	5
NMHLD	61	0	4	576
NMSTR	61	0	5
NMSLR	61	0	5	96	192	2
NMTAP	62	0	1
NMTAP	62	96	0
NMTAP	62	192	0
NMTAP	63	0	2
NMTAP	63	96	2
NMTAP	63	192	1
NMTAP	63	192	3
NMTAP	63	288	1
NMTAP	63	288	3
NMTAP	64	0	5
NMTAP	64	96	5
NMTAP	64	192	4
NMTAP	64	192	6
NMTAP	64	288	4
NMTAP	64	288	6
NMHLD	65	0	6	96
NMHLD	65	0	7	96
NMHLD	65	192	0	96
NMHLD	65	192	1	96
NMTAP	66	0	6
NMTAP	66	0	7
NMTAP	66	96	6
NMTAP	66	96	7
NMSTR	66	192	0
NMSUL	66	192	0	96	288	2
NMSTR	66	192	5
NMSUR	66	192	5	96	288	3
NMHLD	68	0	1	96
NMHLD	68	0	3	96
NMSTR	68	192	0
NMSCR	68	192	0	96	192	3
NMSTR	68	192	4
NMSCR	68	192	4	96	192	7
NMTAP	69	288	3
NMTAP	69	288	7
NMTAP	70	0	4
NMTAP	70	0	6
NMTAP	70	48	4
NMTAP	70	48	6
NMTAP	70	144	1
NMTAP	70	144	3
NMTAP	70	192	1
NMTAP	70	192	3
BRTAP	70	288	0
BRTAP	70	288	4
NMHLD	71	0	6	576
NMTAP	71	96	3
NMTAP	71	192	3
NMTAP	71	288	3
NMTAP	72	0	4
NMTAP	72	96	4
NMTAP	72	192	3
NMTAP	72	288	2
NMHLD	73	0	1	576
NMTAP	73	96	4
NMTAP	73	192	4
NMTAP	73	288	4
NMTAP	74	0	3
NMTAP	74	96	3
NMTAP	74	192	4
NMTAP	74	288	5
NMTAP	75	0	6
NMTAP	75	48	6
NMTAP	75	96	4
NMTAP	75	192	1
NMTAP	75	240	1
NMTAP	75	288	3
NMTAP	76	0	5
NMTAP	76	48	5
NMTAP	76	96	3
NMTAP	76	192	2
NMTAP	76	240	2
NMTAP	76	288	4
BRHLD	77	0	1	192
BRHLD	77	0	5	192
NMSTR	77	288	6
NMSXL	77	288	6	96	288	3
BXTAP	79	96	0
BXTAP	79	96	1
BXTAP	79	192	0
BXTAP	79	192	1
NMTAP	80	0	0
NMTAP	80	0	1
NMTAP	80	96	2
NMTAP	80	96	3
NMTAP	80	192	4
NMTAP	80	192	5
NMTAP	80	288	6
NMTAP	80	288	7
NMTAP	80	336	6
NMTAP	80	336	7
NMTAP	81	48	0
NMTAP	81	48	5
NMTAP	81	144	2
NMTAP	81	144	7
NMTAP	81	192	2
NMTAP	81	192	7
NMTAP	81	288	0
NMTAP	81	288	5
NMHLD	82	0	6	96
NMHLD	82	96	4	96
NMHLD	82	192	3	96
NMTAP	82	288	1
NMTAP	82	336	1
NMTAP	83	48	0
NMTAP	83	48	2
NMTAP	83	144	7
NMTAP	83	192	7
NMTAP	83	288	2
BRTAP	83	288	6
NMSTR	84	0	5
NMSI_	84	0	5	96	96	0
NMHLD	84	192	1	96
NMTAP	84	288	0
NMTAP	84	336	0
NMHLD	85	48	6	96
NMTAP	85	144	7
NMTAP	85	192	7
NMTAP	85	288	4
NMTAP	85	288	5
NMTAP	86	0	4
NMHLD	86	0	5	96
NMHLD	86	96	6	96
NMHLD	86	192	7	96
NMTAP	86	288	0
NMTAP	86	336	0
NMTAP	87	48	0
NMTAP	87	48	1
NMTAP	87	144	2
NMTAP	87	144	7
BRTAP	87	192	2
BRTAP	87	192	7
NMTAP	88	0	6
NMTAP	88	48	6
NMTAP	88	96	7
NMTAP	88	192	0
NMTAP	88	192	5
NMTAP	88	288	1
NMSTR	88	336	1
NMSCL	88	336	1	96	240	3
NMTAP	90	0	1
NMTAP	90	48	1
NMTAP	90	96	0
NMTAP	90	192	2
NMTAP	90	192	7
NMTAP	90	288	6
NMSTR	90	336	6
NMSCR	90	336	6	96	240	4
NMTAP	92	0	6
NMTAP	92	48	6
NMTAP	92	96	7
NMTAP	92	192	4
NMTAP	92	192	5
NMTAP	92	288	2
NMTAP	92	288	3
NMTAP	92	336	2
NMTAP	92	336	3
NMTAP	93	48	1
NMTAP	93	48	4
NMTAP	93	144	3
NMTAP	93	144	6
NMTAP	93	192	3
NMTAP	93	192	6
NMTAP	93	288	4
NMTAP	93	288	5
NMSTR	94	0	6
NMSI_	94	0	6	96	96	2
NMSTR	94	192	3
NMSI_	94	192	3	96	96	0
NMTAP	95	0	7
NMTAP	95	96	7
BRTAP	95	192	1
BRTAP	95	192	6
NMTAP	96	0	2
NMTAP	96	0	7
NMTAP	96	96	2
NMTAP	96	96	7
NMTAP	96	192	0
NMTAP	96	192	5
NMTAP	96	288	2
NMTAP	96	288	7
NMTAP	97	0	0
NMTAP	97	0	5
NMTAP	97	96	0
NMTAP	97	96	5
NMTAP	97	192	2
NMTAP	97	192	7
NMTAP	97	288	0
NMTAP	97	288	5
NMSTR	98	0	6
NMSI_	98	0	6	96	48	3
NMSTR	98	0	7
NMSI_	98	0	7	96	48	3
NMSTR	98	192	0
NMSI_	98	192	0	96	48	4
NMSTR	98	192	1
NMSI_	98	192	1	96	48	4
NMSTR	99	0	6
NMSI_	99	0	6	96	48	3
NMSTR	99	0	7
NMSI_	99	0	7	96	48	3
NMTAP	99	192	0
NMTAP	99	192	1
NMTAP	99	288	0
NMTAP	99	288	1
NMTAP	100	0	1
NMTAP	100	0	4
NMTAP	100	96	1
NMTAP	100	96	4
NMTAP	100	192	3
NMTAP	100	192	6
NMTAP	100	288	1
NMTAP	100	288	4
NMTAP	101	0	3
NMTAP	101	0	6
NMTAP	101	96	3
NMTAP	101	96	6
NMTAP	101	192	1
NMTAP	101	192	4
NMTAP	101	288	3
NMTAP	101	288	6
NMSTR	102	0	4
NMSUR	102	0	4	96	192	3
NMSTR	102	0	5
NMSCR	102	0	5	96	192	2
NMHLD	103	0	5	96
NMTAP	103	96	4
NMTAP	103	192	6
NMTAP	103	192	7
BXTAP	103	288	6
BXTAP	103	288	7
NMTAP	104	0	0
NMTAP	104	0	5
NMTAP	104	96	2
NMTAP	104	96	3
NMTAP	104	192	2
NMTAP	104	192	7
NMTAP	104	288	4
NMTAP	104	288	5
NMTAP	105	0	0
NMTAP	105	0	5
NMTAP	105	96	0
NMTAP	105	96	5
NMTAP	105	192	2
NMTAP	105	192	7
NMTAP	105	288	2
NMTAP	105	288	7
NMSTR	106	0	0
NMSI_	106	0	0	96	48	4
NMSTR	106	0	1
NMSI_	106	0	1	96	48	5
NMSTR	106	192	6
NMSI_	106	192	6	96	48	2
NMSTR	106	192	7
NMSI_	106	192	7	96	48	3
NMTAP	107	0	0
NMTAP	107	0	1
NMSTR	107	96	0
BRSCL	107	96	0	96	96	5
NMSTR	107	96	1
BRSCR	107	96	1	96	96	4
NMTAP	108	0	5
NMTAP	108	48	5
NMTAP	108	96	4
NMTAP	108	144	4
NMTAP	108	192	6
NMTAP	108	240	6
NMTAP	108	288	1
NMTAP	108	336	1
NMTAP	109	0	3
NMTAP	109	48	3
NMTAP	109	96	2
NMTAP	109	144	2
NMTAP	109	192	5
NMTAP	109	240	5
NMTAP	109	288	3
NMTTP	110	0	0	C	1	M1
NMTTP	110	0	2	B	0	M1
NMTTP	110	0	2	A	0	M1
NMTTP	110	0	6	B	0	M1
NMTTP	110	0	6	A	0	M1
NMTAP	111	0	0
NMTAP	111	0	7
NMTAP	111	96	1
NMTAP	111	96	6
NMTAP	111	192	2
NMTAP	111	192	5
EXHLD	111	288	3	192
EXHLD	111	288	4	192
NMTTP	112	288	4	E	0	M1
NMTTP	113	96	5	E	0	M1
NMHLD	113	288	5	768
NMTTP	114	96	4	E	0	M1
NMTTP	114	288	3	E	0	M1
NMTTP	115	96	2	E	0	M1
NMSTR	115	288	0
BRSCR	115	288	0	96	768	6
NMTTP	116	0	0	C	1	M1

T_REC_TAP	445
T_REC_BRK	9
T_REC_XTP	22
T_REC_BXX	16
T_REC_HLD	34
T_REC_XHO	3
T_REC_BHO	2
T_REC_BXH	0
T_REC_STR	36
T_REC_BST	0
T_REC_XST	0
T_REC_XBS	0
T_REC_TTP	27
T_REC_THO	1
T_REC_SLD	35
T_REC_BSL	3
T_REC_ALL	633
T_NUM_TAP	530
T_NUM_BRK	30
T_NUM_HLD	38
T_NUM_SLD	35
T_NUM_ALL	633
T_JUDGE_TAP	555
T_JUDGE_HLD	171
T_JUDGE_SLD	38
T_JUDGE_ALL	764
TTM_EACHPAIRS	181
TTM_SCR_TAP	265000
TTM_SCR_BRK	78000
TTM_SCR_HLD	38000
TTM_SCR_SLD	52500
TTM_SCR_ALL	433500
TTM_SCR_S	417600
TTM_SCR_SS	430500
TTM_RAT_ACV	10069

