VERSION	0.00.00	1.05.00
FES_MODE	0
BPM_DEF	185.000	185.000	185.000	185.000
MET_DEF	4	4
RESOLUTION	384
CLK_DEF	384
COMPATIBLE_CODE	MA2

BPM	0	0	185.000
MET	0	0	4	4

NMTAP	2	0	4
NMTAP	2	96	4
NMTAP	2	192	4
NMTAP	3	0	5
NMTAP	3	96	5
NMTAP	3	192	5
NMTAP	4	0	6
NMTAP	4	96	6
NMTAP	4	192	6
NMTAP	5	0	0
NMTAP	5	0	7
NMTAP	5	192	0
NMTAP	5	192	7
NMTAP	6	0	0
NMTAP	6	96	0
NMTAP	6	192	0
NMTAP	7	0	1
NMTAP	7	96	1
NMTAP	7	192	1
NMTAP	8	0	2
NMTAP	8	96	2
NMTAP	8	192	2
NMTAP	9	0	3
NMTAP	9	0	4
NMTAP	9	192	3
NMTAP	9	192	4
NMTAP	10	0	3
NMTAP	10	96	3
NMTAP	10	192	2
NMTAP	11	0	1
NMTAP	11	96	1
NMTAP	11	192	0
NMTAP	12	0	7
NMTAP	12	96	7
NMTAP	12	192	6
NMTAP	13	0	4
NMTAP	13	0	5
NMTAP	13	192	4
NMTAP	13	192	5
NMTAP	14	0	4
NMTAP	14	96	4
NMTAP	14	192	5
NMTAP	15	0	6
NMTAP	15	96	6
NMTAP	15	192	7
NMTAP	16	0	0
NMTAP	16	96	0
NMTAP	16	192	1
NMTAP	17	0	2
NMTAP	17	0	3
NMTAP	17	192	2
NMTAP	17	192	3
NMTTP	18	0	1	B	0	L1
NMTTP	18	96	2	B	0	L1
NMTTP	18	192	3	B	0	L1
NMTTP	19	0	6	B	0	L1
NMTTP	19	96	5	B	0	L1
NMTTP	19	192	4	B	0	L1
NMTTP	20	0	1	B	0	L1
NMTTP	20	96	2	B	0	L1
NMTTP	20	192	3	B	0	L1
NMTTP	20	288	4	B	0	L1
NMTTP	21	0	0	C	0	L1
NMTTP	22	0	7	B	0	L1
NMTTP	22	96	6	B	0	L1
NMTTP	22	192	4	B	0	L1
NMTTP	22	192	5	B	0	L1
NMTTP	23	0	0	B	0	L1
NMTTP	23	96	1	B	0	L1
NMTTP	23	192	2	B	0	L1
NMTTP	23	192	3	B	0	L1
NMTTP	24	0	6	B	0	L1
NMTTP	24	96	5	B	0	L1
NMTTP	24	192	4	B	0	L1
NMTTP	24	288	3	B	0	L1
NMTTP	25	0	2	B	0	L1
NMTTP	25	96	1	B	0	L1
NMTTP	25	192	0	C	1	L1
NMTAP	27	0	1
NMTAP	27	96	1
NMTAP	27	192	0
NMTAP	27	288	0
NMTAP	28	0	7
NMTAP	28	96	7
NMTAP	28	192	6
NMTAP	28	192	7
NMTAP	29	0	5
NMTAP	29	96	5
NMTAP	29	192	6
NMTAP	29	288	6
NMTAP	30	0	7
NMTAP	30	96	7
NMTAP	30	192	0
NMTAP	30	192	1
NMTAP	31	0	1
NMTAP	31	96	1
NMTAP	31	192	2
NMTAP	31	288	2
NMTAP	32	0	3
NMTAP	32	96	3
NMTAP	32	192	4
NMTAP	32	192	5
NMTAP	33	0	6
NMTAP	33	96	6
NMTAP	33	192	5
NMTAP	33	288	5
NMTAP	34	0	4
NMTAP	34	96	4
BRTAP	34	192	2
BRTAP	34	192	3
NMTAP	35	0	2
NMTAP	35	96	2
NMTAP	35	192	1
NMTAP	35	288	1
NMTAP	36	0	0
NMTAP	36	96	0
NMTAP	36	192	6
NMTAP	36	192	7
NMTAP	36	288	6
NMTAP	36	288	7
NMTAP	37	0	5
NMTAP	37	96	5
NMTAP	37	192	6
NMTAP	37	288	6
NMTAP	38	0	7
NMTAP	38	96	7
NMTAP	38	192	0
NMTAP	38	192	1
NMTAP	39	0	1
NMTAP	39	96	1
NMTAP	39	192	2
NMTAP	39	288	2
NMTAP	40	0	3
NMTAP	40	96	3
NMTAP	40	192	4
NMTAP	40	192	5
NMTAP	40	288	4
NMTAP	40	288	5
NMTAP	41	0	6
NMTAP	41	96	6
NMTAP	41	192	5
NMTAP	41	288	5
NMTAP	42	0	4
NMTAP	42	96	4
NMTAP	42	192	2
NMTAP	42	192	3
NMHLD	43	0	2	192
NMHLD	43	192	3	192
NMHLD	44	0	4	192
NMTAP	44	192	5
NMHLD	45	0	5	192
NMHLD	45	192	4	192
NMHLD	46	0	3	192
NMTAP	46	192	2
NMHLD	47	0	1	192
NMHLD	47	192	2	192
NMHLD	48	0	3	192
NMTAP	48	192	4
NMHLD	49	0	6	192
NMHLD	49	192	5	192
NMHLD	50	0	4	192
NMTAP	50	192	3
NMTAP	51	0	5
NMTAP	51	96	5
NMTAP	51	192	5
NMTAP	51	288	5
NMTAP	52	0	6
NMTAP	52	96	6
NMTAP	52	192	6
NMTAP	52	288	6
NMTAP	53	0	7
NMTAP	53	96	7
NMTAP	53	192	7
NMTAP	53	288	7
NMTAP	54	0	0
NMTAP	54	0	1
NMTAP	54	192	0
NMTAP	54	192	1
NMTAP	55	0	2
NMTAP	55	96	2
NMTAP	55	192	2
NMTAP	55	288	2
NMTAP	56	0	1
NMTAP	56	96	1
NMTAP	56	192	1
NMTAP	56	288	1
NMTAP	57	0	0
NMTAP	57	96	0
NMTAP	57	192	0
NMTAP	57	288	0
NMTAP	58	0	6
NMTAP	58	0	7
NMTAP	58	192	6
NMTAP	58	192	7
NMHLD	59	0	6	192
NMTAP	59	192	7
NMHLD	60	0	5	192
NMTAP	60	192	4
NMHLD	61	0	2	192
NMTAP	61	192	3
NMHLD	62	0	1	192
NMTAP	62	192	0
NMTAP	63	0	1
NMTAP	63	96	1
NMTAP	63	192	2
NMTAP	63	288	2
NMTAP	64	0	3
NMTAP	64	96	3
NMTAP	64	192	4
NMTAP	64	288	4
NMTAP	65	0	5
NMTAP	65	96	5
NMTAP	65	192	6
NMTAP	65	288	6
NMSTR	66	0	0
NMSI_	66	0	0	96	288	3
NMSTR	66	0	7
NMSI_	66	0	7	96	288	4
NMTAP	68	0	2
NMTAP	68	96	1
NMTAP	68	192	0
NMTAP	68	288	7
NMTAP	69	0	6
NMTAP	69	96	5
NMTAP	69	192	3
NMTAP	69	192	4
BRTAP	70	0	3
BRTAP	70	0	4
NMSTR	71	0	2
NMSI_	71	0	2	96	288	5
NMTAP	72	192	6
NMSTR	73	0	6
NMSI_	73	0	6	96	288	2
NMTAP	74	192	1
NMSTR	75	0	1
NMSI_	75	0	1	96	288	4
NMTAP	76	192	5
NMSTR	77	0	6
NMSUL	77	0	6	96	672	3
NMTAP	80	0	2
NMTAP	80	96	2
NMTAP	80	192	0
NMTAP	80	192	1
NMTAP	80	288	0
NMTAP	80	288	1
NMTAP	81	0	7
NMTAP	81	96	7
NMTAP	81	192	6
NMTAP	81	192	7
NMTAP	82	0	5
NMTAP	82	96	5
NMTAP	82	192	6
NMTAP	82	192	7
NMTAP	82	288	6
NMTAP	82	288	7
NMTAP	83	0	0
NMTAP	83	96	0
BXTAP	83	192	0
BXTAP	83	192	1
NMTAP	84	0	1
NMTAP	84	96	1
NMTAP	84	192	2
NMTAP	84	192	3
NMTAP	84	288	2
NMTAP	84	288	3
NMTAP	85	0	4
NMTAP	85	96	4
NMTAP	85	192	4
NMTAP	85	192	5
NMTAP	86	0	6
NMTAP	86	96	6
NMTAP	86	192	4
NMTAP	86	192	5
NMTAP	86	288	4
NMTAP	86	288	5
NMTAP	87	0	3
NMTAP	87	96	3
BRTAP	87	192	2
BRTAP	87	192	3
NMTAP	88	0	1
NMTAP	88	96	1
NMTAP	88	192	1
NMTAP	88	288	0
NMTAP	88	288	1
NMTAP	89	0	2
NMTAP	89	96	2
NMTAP	89	192	2
NMTAP	89	288	2
NMTAP	89	288	3
NMTAP	90	0	4
NMTAP	90	96	4
NMTAP	90	192	4
NMTAP	90	288	4
NMTAP	90	288	5
NMTAP	91	0	6
NMTAP	91	96	6
NMTAP	91	192	6
NMTAP	91	192	7
NMTAP	92	0	6
NMTAP	92	96	6
NMTAP	92	192	6
NMTAP	92	288	6
NMTAP	92	288	7
NMTAP	93	0	5
NMTAP	93	96	5
NMTAP	93	192	5
NMTAP	93	288	4
NMTAP	93	288	5
NMTAP	94	0	3
NMTAP	94	96	3
NMTAP	94	192	3
NMTAP	94	288	2
NMTAP	94	288	3
NMTAP	95	0	1
NMTAP	95	96	1
NMTAP	95	192	0
NMTAP	95	192	1
NMTAP	96	0	1
NMTAP	96	96	1
NMTAP	96	192	0
NMTAP	96	192	1
NMTAP	96	288	0
NMTAP	96	288	1
NMTAP	97	0	2
NMTAP	97	96	2
NMTAP	97	192	2
NMTAP	97	192	3
NMTAP	97	288	2
NMTAP	97	288	3
NMTAP	98	0	4
NMTAP	98	96	4
NMTAP	98	192	4
NMTAP	98	192	5
NMTAP	98	288	4
NMTAP	98	288	5
NMTAP	99	0	6
NMTAP	99	0	7
NMTAP	99	96	6
NMTAP	99	96	7
NMTAP	99	192	6
NMTAP	99	192	7
NMTAP	100	0	6
NMTAP	100	96	6
NMTAP	100	192	6
NMTAP	100	192	7
NMTAP	100	288	6
NMTAP	100	288	7
NMTAP	101	0	5
NMTAP	101	96	5
NMTAP	101	192	4
NMTAP	101	192	5
NMTAP	101	288	4
NMTAP	101	288	5
NMTAP	102	0	3
NMTAP	102	96	3
NMTAP	102	192	2
NMTAP	102	192	3
NMTAP	102	288	2
NMTAP	102	288	3
NMTAP	103	0	0
NMTAP	103	0	1
NMTAP	103	96	0
NMTAP	103	96	1
NMTAP	103	192	0
NMTAP	103	192	1
NMTAP	104	0	0
NMTAP	104	0	1
NMTAP	104	96	0
NMTAP	104	96	1
NMTAP	104	192	0
NMTAP	104	192	1
NMTAP	105	0	2
NMTAP	105	0	3
NMTAP	105	96	2
NMTAP	105	96	3
NMTAP	105	192	2
NMTAP	105	192	3
NMTAP	106	0	4
NMTAP	106	0	5
NMTAP	106	96	4
NMTAP	106	96	5
NMTAP	106	192	4
NMTAP	106	192	5
NMTAP	107	0	6
NMTAP	107	0	7
NMTAP	107	96	6
NMTAP	107	96	7
NMTAP	107	192	0
NMTAP	107	192	5
NMTAP	108	0	6
NMTAP	108	0	7
NMTAP	108	96	6
NMTAP	108	96	7
NMTAP	108	192	6
NMTAP	108	192	7
NMTAP	109	0	4
NMTAP	109	0	5
NMTAP	109	96	4
NMTAP	109	96	5
NMTAP	109	192	4
NMTAP	109	192	5
NMTAP	110	0	2
NMTAP	110	0	3
NMTAP	110	96	2
NMTAP	110	96	3
NMTAP	110	192	2
NMTAP	110	192	3
NMTAP	111	0	0
NMTAP	111	0	1
NMTAP	111	96	0
NMTAP	111	96	1
NMTAP	111	192	2
NMTAP	111	192	7
NMSTR	112	0	0
NMSI_	112	0	0	96	288	5
NMSTR	112	0	1
NMSI_	112	0	1	96	288	4
NMSTR	114	0	6
NMSI_	114	0	6	96	288	3
NMSTR	114	0	7
NMSI_	114	0	7	96	288	2
BXTAP	116	0	3
BXTAP	116	0	4

T_REC_TAP	351
T_REC_BRK	6
T_REC_XTP	0
T_REC_BXX	4
T_REC_HLD	16
T_REC_XHO	0
T_REC_BHO	0
T_REC_BXH	0
T_REC_STR	10
T_REC_BST	0
T_REC_XST	0
T_REC_XBS	0
T_REC_TTP	26
T_REC_THO	0
T_REC_SLD	10
T_REC_BSL	0
T_REC_ALL	423
T_NUM_TAP	387
T_NUM_BRK	10
T_NUM_HLD	16
T_NUM_SLD	10
T_NUM_ALL	423
T_JUDGE_TAP	397
T_JUDGE_HLD	64
T_JUDGE_SLD	10
T_JUDGE_ALL	471
TTM_EACHPAIRS	90
TTM_SCR_TAP	193500
TTM_SCR_BRK	26000
TTM_SCR_HLD	16000
TTM_SCR_SLD	15000
TTM_SCR_ALL	250500
TTM_SCR_S	242050
TTM_SCR_SS	249500
TTM_RAT_ACV	10040

