VERSION	0.00.00	1.05.00
FES_MODE	0
BPM_DEF	 70.000	175.000	221.000	 70.000
MET_DEF	4	4
RESOLUTION	384
CLK_DEF	384
COMPATIBLE_CODE	MA2

BPM	0	0	 70.000
BPM	3	96	 73.000
BPM	3	192	 76.000
BPM	3	288	 70.000
BPM	4	192	124.000
BPM	5	360	172.000
BPM	8	0	168.000
BPM	8	288	166.000
BPM	9	0	180.000
BPM	9	96	170.000
BPM	10	0	175.000
BPM	11	0	168.000
BPM	11	144	172.000
BPM	11	240	175.000
BPM	12	0	165.000
BPM	12	96	172.000
BPM	12	192	185.000
BPM	12	288	168.000
BPM	13	96	170.000
BPM	13	288	172.000
BPM	14	0	176.000
BPM	14	192	170.000
BPM	15	0	172.000
BPM	23	96	180.000
BPM	23	192	170.000
BPM	24	0	171.000
BPM	24	192	172.000
BPM	32	0	175.000
BPM	33	96	180.000
BPM	33	288	185.000
BPM	34	0	187.000
BPM	34	96	188.000
BPM	35	0	190.000
BPM	35	96	194.000
BPM	35	192	197.000
BPM	35	288	200.000
BPM	36	0	202.000
BPM	37	0	206.000
BPM	37	96	212.000
BPM	38	192	208.000
BPM	38	288	215.000
BPM	39	96	211.000
BPM	39	192	221.000
BPM	40	0	207.000
BPM	40	96	188.000
BPM	40	192	184.000
BPM	41	0	150.000
BPM	41	192	126.000
BPM	41	288	170.000
BPM	42	192	172.000
BPM	43	0	180.000
BPM	43	96	167.000
BPM	44	192	172.000
BPM	46	96	178.000
BPM	46	288	162.000
BPM	47	0	173.000
BPM	47	96	182.000
BPM	47	192	175.000
BPM	48	288	177.000
BPM	49	192	173.000
BPM	50	97	170.000
BPM	50	192	175.000
BPM	50	288	177.000
BPM	51	290	176.000
BPM	52	288	177.000
BPM	53	96	175.000
BPM	54	288	177.000
BPM	55	192	172.000
BPM	56	0	174.000
BPM	57	288	176.000
BPM	58	288	174.000
BPM	59	287	175.000
BPM	60	96	177.000
BPM	60	288	175.000
BPM	61	288	177.000
BPM	62	288	171.000
BPM	63	192	170.000
BPM	63	288	171.000
BPM	64	0	176.000
BPM	64	192	169.000
BPM	65	0	174.000
BPM	65	288	170.000
BPM	66	288	166.000
BPM	67	0	170.000
BPM	67	96	172.000
BPM	68	0	179.000
BPM	68	96	182.000
BPM	68	192	178.000
BPM	68	288	164.000
BPM	68	336	160.000
BPM	69	0	156.000
BPM	69	48	150.000
BPM	69	96	144.000
BPM	69	192	141.000
BPM	69	288	168.000
BPM	70	0	170.000
BPM	70	96	174.000
BPM	70	288	169.000
BPM	71	96	161.000
BPM	72	0	163.000
BPM	72	288	173.000
BPM	74	288	175.000
BPM	76	96	177.000
BPM	77	0	174.000
BPM	77	288	178.000
BPM	78	0	180.000
BPM	78	288	168.000
BPM	79	96	175.000
MET	0	0	4	4
MET	32	0	4	3
MET	46	96	4	2
MET	46	288	4	4

NMHLD	1	0	3	144
NMHLD	1	0	5	144
NMHLD	1	192	2	144
NMHLD	1	192	4	144
NMHLD	2	0	3	144
NMHLD	2	0	4	144
NMHLD	2	192	3	336
NMHLD	2	192	5	336
NMHLD	3	192	2	336
NMHLD	4	0	4	144
NMHLD	4	192	1	1152
NMHLD	4	192	5	1152
BRTAP	7	288	0
BRTAP	7	288	6
NMSTR	8	0	7
NMSI_	8	0	7	96	48	3
NMTAP	8	96	3
NMTAP	8	96	7
NMTAP	8	192	2
NMHLD	8	240	2	96
NMHLD	8	336	0	96
NMHLD	9	48	7	96
NMSTR	9	144	5
NMSI_	9	144	5	96	48	1
NMSTR	9	240	3
NMSLL	9	240	3	96	96	7
NMTAP	9	240	5
NMTAP	9	336	0
NMTAP	10	48	5
NMTAP	10	96	5
NMTAP	10	192	6
NMTAP	10	192	7
NMTAP	10	240	4
NMTAP	10	288	3
NMHLD	10	336	1	96
NMSTR	11	48	0
NMSF_	11	48	0	96	48	4
NMTAP	11	96	0
NMTAP	11	240	2
NMTAP	11	240	6
NMTAP	11	288	2
NMTAP	11	288	6
NMSTR	12	0	0
NMSI_	12	0	0	96	48	4
NMTAP	12	48	0
NMTAP	12	96	4
NMTAP	12	192	5
NMHLD	12	240	5	96
NMHLD	12	336	7	96
NMHLD	13	48	0	96
NMSTR	13	144	2
NMSI_	13	144	2	96	48	6
NMTAP	13	240	2
NMSTR	13	240	4
NMSLR	13	240	4	96	96	0
NMTAP	13	336	7
NMTAP	14	48	2
NMTAP	14	96	2
NMTAP	14	192	0
NMTAP	14	192	1
NMTAP	14	240	3
NMTAP	14	288	4
NMHLD	14	336	6	96
NMTAP	15	48	7
NMTAP	15	96	7
BRTAP	15	144	0
BRTAP	15	144	5
BRTAP	15	192	0
BRTAP	15	192	5
NMTAP	15	288	2
NMTAP	15	288	3
NMHLD	16	0	1	96
NMTAP	16	0	3
NMTAP	16	96	2
NMTAP	16	192	1
NMHLD	16	192	3	96
NMTAP	16	288	2
NMTAP	17	0	2
NMHLD	17	0	4	96
NMTAP	17	96	3
NMTAP	17	192	4
NMHLD	17	192	6	96
NMTAP	17	288	4
NMHLD	18	0	3	96
NMTAP	18	0	5
NMTAP	18	96	4
NMTAP	18	192	2
NMHLD	18	192	4	96
NMTAP	18	288	2
NMTAP	18	336	2
NMTAP	18	336	3
NMTAP	19	48	1
NMTAP	19	48	4
NMTAP	19	96	1
NMTAP	19	96	4
NMTAP	19	144	1
NMTAP	19	144	4
NMTAP	19	192	2
NMTAP	19	216	3
NMTAP	19	264	5
NMTAP	19	288	4
NMTAP	19	336	4
NMTAP	19	336	6
NMTAP	20	0	4
NMHLD	20	0	6	96
NMTAP	20	96	5
NMTAP	20	192	5
NMHLD	20	192	7	96
NMTAP	20	288	6
NMHLD	21	0	0	96
NMTAP	21	0	6
NMTAP	21	96	7
NMTAP	21	192	0
NMHLD	21	192	2	96
NMTAP	21	288	0
NMTAP	21	336	0
NMTAP	21	336	1
NMTAP	22	48	1
NMTAP	22	48	3
NMTAP	22	96	2
NMTAP	22	96	3
NMTAP	22	192	4
NMTAP	22	192	5
NMSTR	22	240	4
NMSCL	22	240	4	96	240	5
NMTAP	22	240	5
NMTTP	22	336	0	C	1	M1
EXTAP	23	288	0
EXTAP	23	288	7
NMTAP	24	0	1
NMTAP	24	48	1
NMTAP	24	96	3
NMTAP	24	144	2
NMTAP	24	192	5
NMTAP	24	240	4
NMTAP	24	288	6
NMSTR	24	336	6
NMSCL	24	336	6	96	48	3
NMTAP	25	48	3
NMTAP	25	96	2
NMSTR	25	144	1
NMSI_	25	144	1	96	48	3
NMSTR	25	240	4
NMSI_	25	240	4	96	48	0
NMTAP	25	336	2
NMTAP	26	48	1
NMTAP	26	96	2
NMHLD	26	144	1	96
NMHLD	26	144	3	96
NMTAP	26	288	0
NMHLD	26	336	0	96
NMSTR	27	48	7
NMSI_	27	48	7	96	48	3
NMSTR	27	144	7
BRSXL	27	144	7	96	72	1
BRSXR	27	144	7	96	72	5
NMTAP	28	0	6
NMTAP	28	48	6
NMTAP	28	96	4
NMTAP	28	144	5
NMTAP	28	192	2
NMTAP	28	240	3
NMTAP	28	288	1
NMSTR	28	336	1
NMSCR	28	336	1	96	48	4
NMTAP	29	48	4
NMTAP	29	96	5
NMHLD	29	144	3	96
NMHLD	29	144	6	96
NMTAP	29	288	7
NMSTR	29	336	7
NMSI_	29	336	7	96	48	3
NMTAP	30	48	4
NMSTR	30	96	4
NMSCL	30	96	4	96	48	1
NMSCR	30	96	4	96	48	7
NMSTR	30	192	4
NMSXL	30	192	4	96	240	7
NMSXR	30	192	4	96	240	1
NMTAP	31	192	3
NMTAP	31	192	5
NMSTR	31	288	2
NMSCL	31	288	2	96	192	6
NMTAP	32	0	3
NMTAP	32	96	3
NMSTR	32	192	5
NMSCR	32	192	5	96	192	1
NMTAP	32	288	4
NMTAP	33	0	3
NMSTR	33	96	2
NMSCL	33	96	2	96	192	6
NMTAP	33	192	3
NMTAP	33	288	4
NMSTR	34	0	5
NMSI_	34	0	5	96	144	0
NMTAP	34	96	3
NMTAP	34	192	2
NMSTR	34	288	1
NMSCR	34	288	1	96	192	5
NMTAP	35	0	0
NMTAP	35	96	7
NMSTR	35	192	6
NMSCL	35	192	6	96	192	2
NMTAP	35	288	7
NMTAP	36	0	7
NMSTR	36	96	0
NMSUR	36	96	0	96	144	4
NMTAP	36	192	4
NMTAP	36	288	6
NMSTR	37	0	7
NMSUL	37	0	7	96	144	3
NMTAP	37	96	3
NMTAP	37	192	1
NMTAP	37	288	0
NMTAP	38	0	1
NMTAP	38	0	3
NMTAP	38	96	2
NMTAP	38	144	2
NMTAP	38	192	1
NMTAP	38	192	3
NMTAP	38	288	4
NMTAP	38	336	4
NMTAP	39	0	2
NMTAP	39	0	4
NMTAP	39	96	3
NMTAP	39	96	5
NMTAP	39	192	4
NMTAP	39	192	6
NMTAP	39	288	5
NMTAP	39	336	5
NMTAP	40	0	4
NMTAP	40	0	6
NMTAP	40	96	3
NMTAP	40	144	3
NMTAP	40	192	3
NMTAP	40	192	5
NMTAP	40	288	2
NMTAP	40	288	4
NMTAP	41	0	1
NMTAP	41	0	3
NMTAP	41	96	0
NMTAP	41	144	0
NMTAP	41	192	6
NMTAP	41	240	6
NMHLD	41	288	2	192
NMTAP	42	0	3
NMTAP	42	96	3
NMHLD	42	192	5	192
NMSTR	42	288	4
NMSUR	42	288	4	96	48	0
NMHLD	43	96	1	96
NMTAP	43	192	0
NMTAP	43	288	2
NMTAP	43	288	7
NMHLD	44	0	6	96
NMTAP	44	96	7
NMTAP	44	192	0
NMTAP	44	192	5
NMTAP	44	288	2
NMTAP	44	288	4
NMTAP	45	0	1
NMTAP	45	0	3
NMTAP	45	48	1
NMTAP	45	96	1
NMTAP	45	96	3
NMTAP	45	192	4
NMTAP	45	192	6
NMTAP	45	240	6
NMTAP	45	288	4
NMTAP	45	288	6
NMTAP	46	0	3
NMTAP	46	0	5
NMTAP	46	48	2
NMTAP	46	96	2
NMTAP	46	96	4
NMSTR	46	192	1
NMSI_	46	192	1	96	48	4
NMSTR	46	192	5
NMSI_	46	192	5	96	48	1
BRTAP	46	288	1
BRTAP	46	288	5
NMTAP	47	0	0
NMTAP	47	48	7
NMSTR	47	96	6
BRSCR	47	96	6	96	96	2
NMSTR	47	192	2
BRSCR	47	192	2	96	96	6
NMTAP	47	288	6
NMTAP	48	0	2
NMTAP	48	96	3
NMSTR	48	96	5
NMSI_	48	96	5	96	48	1
NMSTR	48	192	2
NMSI_	48	192	2	96	48	7
NMSTR	48	288	0
NMSCR	48	288	0	96	48	3
NMSTR	49	0	0
NMSCL	49	0	0	96	48	5
NMSTR	49	96	0
NMSI_	49	96	0	96	48	4
NMSTR	49	192	0
NMSCR	49	192	0	96	192	6
NMTAP	49	288	0
NMTAP	50	0	6
NMTAP	50	96	7
NMSTR	50	192	4
NMSUL	50	192	4	96	48	0
NMTAP	50	192	5
NMTAP	50	288	4
NMTAP	50	288	6
NMTAP	50	360	7
EXSTR	51	0	0
NMSI_	51	0	0	96	48	4
NMTAP	51	48	0
NMTAP	51	96	3
NMTAP	51	192	2
NMSTR	51	192	3
NMSUR	51	192	3	96	48	7
NMTAP	51	288	1
NMTAP	51	288	3
NMTAP	51	360	0
EXSTR	52	0	7
NMSI_	52	0	7	96	48	3
NMTAP	52	48	7
NMTAP	52	96	4
NMSTR	52	192	4
NMSI_	52	192	4	96	48	0
NMSTR	52	192	5
NMSI_	52	192	5	96	48	1
NMTAP	52	288	4
NMTAP	52	288	5
NMSTR	53	0	2
NMSI_	53	0	2	96	48	6
NMSTR	53	0	3
NMSI_	53	0	3	96	48	7
NMTAP	53	96	2
NMTAP	53	96	3
NMTAP	53	192	4
NMTAP	53	192	5
NMSTR	53	288	6
NMSCL	53	288	6	96	96	1
NMHLD	53	288	7	192
NMSTR	54	192	2
NMSCL	54	192	2	96	48	0
NMSTR	54	192	4
NMSI_	54	192	4	96	48	1
NMTAP	54	288	2
NMTAP	54	288	4
NMTAP	55	0	7
NMTAP	55	48	0
NMSTR	55	96	1
BRSI_	55	96	1	96	48	4
NMSTR	55	192	5
BRSI_	55	192	5	96	48	0
NMTAP	55	288	3
NMTAP	55	336	3
NMTAP	56	0	7
NMSTR	56	96	2
NMSI_	56	96	2	96	48	6
NMTAP	56	96	4
NMSTR	56	192	5
NMSI_	56	192	5	96	48	0
NMSTR	56	288	7
NMSI_	56	288	7	96	48	2
NMSCL	56	288	7	96	48	4
NMTAP	57	0	7
NMSTR	57	96	3
NMSI_	57	96	3	96	48	6
NMSCL	57	96	3	96	48	0
NMSTR	57	192	3
NMSXR	57	192	3	96	192	7
NMTAP	57	288	5
NMTAP	58	0	5
NMTAP	58	96	4
NMTAP	58	192	0
NMSTR	58	192	3
NMSUR	58	192	3	96	48	7
NMTAP	58	288	1
NMTAP	58	288	3
NMTAP	58	360	0
EXSTR	59	0	7
NMSI_	59	0	7	96	48	3
NMTAP	59	48	7
NMTAP	59	96	4
NMSTR	59	192	4
NMSUL	59	192	4	96	48	0
NMTAP	59	192	5
NMTAP	59	288	4
NMTAP	59	288	6
NMTAP	59	360	7
EXTAP	60	0	0
NMTAP	60	48	0
NMTAP	60	96	0
NMTAP	60	96	1
NMSTR	60	192	0
NMSI_	60	192	0	96	48	4
NMSTR	60	192	1
NMSI_	60	192	1	96	48	3
NMSTR	60	288	0
NMSI_	60	288	0	96	48	6
NMSTR	60	288	1
NMSI_	60	288	1	96	48	5
NMSTR	61	0	0
NMSCL	61	0	0	96	192	1
NMSTR	61	0	1
NMSUL	61	0	1	96	192	1
NMTAP	62	288	6
NMTAP	62	288	7
NMTAP	62	336	4
NMTAP	62	360	5
NMTAP	63	0	4
NMTAP	63	48	3
NMTAP	63	96	2
NMHLD	63	144	1	96
NMHLD	63	240	3	96
NMTAP	63	336	5
NMTAP	64	0	6
NMSTR	64	48	7
NMSI_	64	48	7	96	48	4
NMSTR	64	144	7
NMSLR	64	144	7	96	96	3
NMTAP	64	240	5
NMTAP	64	336	7
NMTAP	65	0	6
NMTAP	65	48	5
NMTAP	65	96	3
NMTAP	65	144	2
NMTAP	65	192	1
NMTAP	65	240	0
NMTAP	65	240	7
NMTAP	65	288	6
NMTAP	65	312	4
NMTAP	65	336	5
NMTAP	65	360	4
NMTAP	66	0	5
NMSTR	66	48	3
NMSI_	66	48	3	96	48	0
NMSTR	66	48	6
NMSUL	66	48	6	96	48	2
NMTAP	66	144	3
NMTAP	66	144	6
EXTAP	66	288	0
EXTAP	66	288	1
NMTAP	66	336	3
NMTAP	66	360	2
NMTAP	67	0	3
NMTAP	67	48	4
NMTAP	67	96	5
NMHLD	67	144	6	96
NMHLD	67	240	4	96
NMTAP	67	336	2
NMTAP	68	0	1
NMHLD	68	48	0	32
NMHLD	68	128	5	32
NMHLD	68	128	7	32
NMHLD	68	208	2	32
NMHLD	68	208	3	32
NMHLD	68	288	1	32
NMHLD	68	288	7	32
NMHLD	68	368	3	32
NMHLD	68	368	5	32
NMTAP	69	64	3
NMTAP	69	64	5
NMTTP	69	120	3	E	0	M1
NMTTP	69	144	5	E	0	M1
NMTTP	69	168	2	E	0	M1
NMTTP	69	192	6	E	0	M1
NMTTP	69	216	1	E	0	M1
NMTTP	69	240	7	E	0	M1
NMTTP	69	264	0	E	0	M1
EXSTR	69	288	7
NMSI_	69	288	7	96	48	3
EXTAP	69	336	0
EXTAP	69	336	6
BRTAP	70	0	7
NMTAP	70	96	2
NMTAP	70	96	4
NMTAP	70	144	2
NMTAP	70	144	4
NMTAP	70	192	3
NMTAP	70	192	5
NMSTR	70	240	3
NMSCL	70	240	3	96	48	0
NMTAP	70	240	5
NMTAP	70	336	4
NMTAP	71	0	5
NMTAP	71	48	5
NMTAP	71	72	4
NMSTR	71	96	3
BRSI_	71	96	3	96	336	7
BRTAP	71	192	3
BRTAP	72	288	7
NMTAP	72	300	0
NMTAP	72	300	6
NMTAP	72	312	1
NMTAP	72	312	5
NMTAP	72	324	2
NMTAP	72	324	4
NMTAP	72	336	3
NMTAP	73	0	7
NMTAP	73	48	0
NMSTR	73	96	1
BRSCL	73	96	1	96	96	5
NMSTR	73	192	5
BRSCL	73	192	5	96	96	1
NMTAP	73	288	1
NMTAP	74	0	5
NMSTR	74	96	2
NMSI_	74	96	2	96	48	6
NMTAP	74	96	4
NMSTR	74	192	5
NMSI_	74	192	5	96	48	0
NMSTR	74	288	7
NMSCL	74	288	7	96	48	4
NMSTR	75	0	7
NMSCR	75	0	7	96	48	2
NMSTR	75	96	7
NMSI_	75	96	7	96	48	3
NMTAP	75	192	7
NMTAP	75	288	2
NMTAP	75	288	4
NMTAP	76	0	3
NMTAP	76	0	5
NMTAP	76	48	6
NMTAP	76	72	4
NMTAP	76	96	5
NMTAP	76	144	3
NMTAP	76	144	4
NMTAP	76	192	2
NMSTR	76	192	3
NMSUR	76	192	3	96	48	7
NMTAP	76	288	1
NMTAP	76	288	3
NMTAP	76	360	0
EXSTR	77	0	7
NMSI_	77	0	7	96	48	3
NMTAP	77	48	7
NMTAP	77	96	4
NMTAP	77	144	4
NMSTR	77	192	4
NMSUL	77	192	4	96	48	0
NMTAP	77	192	5
NMTAP	77	240	6
NMTAP	77	288	4
NMTAP	77	288	6
NMTAP	77	360	7
EXSTR	78	0	0
NMSI_	78	0	0	96	48	4
NMTAP	78	48	0
NMTAP	78	96	3
NMTAP	78	144	3
NMSTR	78	192	2
NMSI_	78	192	2	96	48	6
NMSTR	78	192	3
NMSI_	78	192	3	96	48	7
NMTAP	78	288	2
NMTAP	78	288	3
NMSTR	79	0	4
NMSI_	79	0	4	96	48	0
NMSTR	79	0	5
NMSI_	79	0	5	96	48	1
NMTAP	79	96	4
NMTAP	79	96	5
NMTAP	79	192	2
NMTAP	79	192	3
NMTAP	79	288	2
NMTAP	79	288	3
NMTAP	79	336	1
NMTAP	79	360	3
NMTAP	80	0	1
NMTAP	80	24	3
NMTAP	80	48	1
NMTAP	80	72	3
NMTAP	80	96	2
NMTAP	80	120	4
NMTAP	80	144	2
NMTAP	80	168	4
NMSTR	80	192	3
NMSI_	80	192	3	96	48	6
NMSTR	80	192	5
NMSCR	80	192	5	96	48	7
NMTAP	80	288	3
NMTAP	80	288	5
NMTAP	81	0	0
NMTAP	81	48	7
NMSTR	81	96	6
BRSI_	81	96	6	96	48	3
NMTAP	81	144	5
NMSTR	81	192	2
BRSI_	81	192	2	96	48	7
NMTAP	81	240	1
NMSTR	81	288	4
BRSI_	81	288	4	96	48	7
NMTAP	81	336	3
NMTAP	82	0	0
NMTAP	82	96	3
NMSTR	82	96	5
NMSI_	82	96	5	96	48	1
NMSTR	82	192	2
NMSI_	82	192	2	96	48	7
NMSTR	82	288	0
NMSI_	82	288	0	96	48	5
NMSCR	82	288	0	96	48	3
NMTAP	83	0	0
NMSTR	83	96	4
NMSI_	83	96	4	96	48	1
NMSCR	83	96	4	96	48	7
NMTAP	83	192	4
NMSTR	83	288	2
NMSI_	83	288	2	96	48	0
NMTAP	83	288	6
NMTAP	83	336	5
NMSTR	84	0	4
NMSCR	84	0	4	96	48	7
NMTAP	84	48	3
NMTAP	84	96	2
NMSTR	84	192	4
NMSUL	84	192	4	96	48	0
EXTAP	84	192	7
NMTAP	84	288	4
NMTAP	84	288	6
NMTAP	84	360	7
EXSTR	85	0	0
NMSI_	85	0	0	96	48	4
NMTAP	85	48	0
NMTAP	85	96	3
NMTAP	85	144	3
NMTAP	85	192	2
NMSTR	85	192	3
NMSUR	85	192	3	96	48	7
NMTAP	85	288	1
NMTAP	85	288	3
NMTAP	85	360	0
EXSTR	86	0	7
NMSI_	86	0	7	96	48	3
NMTAP	86	48	7
NMTAP	86	96	4
NMTAP	86	144	4
NMTAP	86	192	4
NMSTR	86	192	5
NMSCR	86	192	5	96	48	0
BRTAP	86	288	3
NMTAP	87	0	2
NMTAP	87	0	3
NMTAP	87	96	5
NMTAP	87	120	4
NMTAP	87	144	5
NMSTR	87	192	6
NMSI_	87	192	6	96	48	4
NMSTR	87	192	7
NMSI_	87	192	7	96	48	3
NMSTR	87	288	6
NMSI_	87	288	6	96	48	2
NMSTR	87	288	7
NMSI_	87	288	7	96	48	1
NMSTR	88	0	6
NMSI_	88	0	6	96	48	4
NMSTR	88	0	7
NMSI_	88	0	7	96	48	3
NMTAP	88	96	6
NMTAP	88	96	7
EXTAP	88	192	1
EXSTR	88	192	3
NMSI_	88	192	3	96	48	7
NMSTR	88	288	2
NMSI_	88	288	2	96	48	5
NMTAP	88	288	3
NMTAP	89	0	2
NMSTR	89	0	6
NMSI_	89	0	6	96	48	1
NMSTR	89	96	4
NMSI_	89	96	4	96	48	1
NMTAP	89	96	6
NMSTR	89	192	0
NMSI_	89	192	0	96	48	5
NMTAP	89	192	4
NMTAP	89	288	0
NMSTR	89	288	3
NMSCL	89	288	3	96	48	0
NMTAP	90	0	3
NMSTR	90	0	4
NMSCR	90	0	4	96	48	7
NMTAP	90	96	2
NMTAP	90	96	4
NMSTR	90	192	6
NMSI_	90	192	6	96	48	1
NMSI_	90	192	6	96	48	3
NMTAP	90	288	6
NMSTR	91	0	2
NMSI_	91	0	2	96	48	5
NMSI_	91	0	2	96	48	7
NMTAP	91	96	2
NMSTR	91	192	6
NMSUR	91	192	6	96	96	7
NMTTP	91	288	0	C	1	M1
CNSCR	92	0	7	0	96	4
NMSTR	92	192	4
NMSI_	92	192	4	96	48	7
NMTAP	92	192	5
NMSTR	92	288	3
NMSI_	92	288	3	96	48	0
NMTAP	92	288	4
NMSTR	93	0	1
NMSCR	93	0	1	96	48	4
NMTAP	93	0	3
NMTAP	93	96	0
NMTAP	93	96	1
NMTAP	93	192	2
NMSTR	93	192	3
NMSI_	93	192	3	96	48	0
NMTAP	93	288	3
NMSTR	93	288	4
NMSI_	93	288	4	96	48	7
NMTAP	94	0	4
NMSTR	94	0	6
NMSCL	94	0	6	96	48	3
NMTAP	94	96	6
NMTAP	94	96	7
NMSTR	94	192	4
NMSI_	94	192	4	96	48	0
NMSTR	94	192	5
NMSI_	94	192	5	96	48	1
BRTAP	94	288	4
BRTAP	94	288	5
NMSTR	95	0	2
NMSI_	95	0	2	96	48	6
NMSTR	95	0	3
NMSI_	95	0	3	96	48	7
BRTAP	95	96	2
BRTAP	95	96	3
NMSTR	95	192	1
NMSI_	95	192	1	96	48	5
NMSTR	95	288	0
NMSI_	95	288	0	96	48	4
NMTAP	95	288	1
NMTAP	96	0	0
NMSTR	96	0	7
NMSI_	96	0	7	96	48	3
NMTAP	96	96	6
NMTAP	96	96	7
BRSTR	96	192	0
NMSI_	96	192	0	96	48	5
BRHLD	96	192	4	576
NMSTR	96	288	0
NMSI_	96	288	0	96	48	3
NMSTR	97	0	0
NMSCL	97	0	0	96	48	6
NMSTR	97	96	0
NMSCR	97	96	0	96	48	2
NMSTR	97	192	0
NMSI_	97	192	0	96	48	5
NMSTR	97	288	0
NMSI_	97	288	0	96	48	3
NMSTR	98	0	0
NMSI_	98	0	0	96	48	4
NMTAP	98	96	0
NMTAP	98	96	5
NMSTR	98	192	2
NMSCL	98	192	2	96	48	7
NMTAP	98	240	3
NMTAP	98	288	4
NMSTR	99	0	5
NMSCR	99	0	5	96	48	0
NMTAP	99	48	4
NMTAP	99	96	3
NMSTR	99	192	2
NMSCL	99	192	2	96	48	7
NMTAP	99	240	3
NMTAP	99	288	4
NMTAP	100	0	6
NMTAP	100	48	5
NMTAP	100	96	4
NMTAP	100	96	6
NMHLD	100	192	3	384
NMSTR	100	192	7
NMSI_	100	192	7	96	48	2
NMSTR	100	288	7
NMSI_	100	288	7	96	48	4
NMSTR	101	0	7
NMSCR	101	0	7	96	48	1
NMSTR	101	96	7
NMSI_	101	96	7	96	48	5
NMTAP	101	192	7
NMTAP	101	288	2
NMTAP	101	288	4
NMTAP	101	336	1
NMTAP	101	360	3
NMTAP	102	0	2
NMTAP	102	24	3
NMTAP	102	48	2
NMTAP	102	96	6
NMTAP	102	120	4
NMTAP	102	144	5
NMSTR	102	192	1
NMSI_	102	192	1	96	48	5
NMHLD	102	192	3	96
BRTAP	102	288	1
NMTAP	103	96	4
NMTAP	103	96	6
NMTAP	103	168	3
NMTAP	103	168	4
NMTAP	103	240	1
NMSTR	103	240	3
NMSCR	103	240	3	96	288	1
NMTTP	104	48	0	C	1	M1
NMTAP	105	48	5
NMTAP	105	120	4
NMTAP	105	192	3
NMTAP	105	264	2
NMTAP	105	336	1
NMHLD	106	96	4	1824
NMTAP	106	120	3
NMSTR	106	144	2
NMSXR	106	144	2	96	1680	5

T_REC_TAP	417
T_REC_BRK	17
T_REC_XTP	9
T_REC_BXX	0
T_REC_HLD	56
T_REC_XHO	0
T_REC_BHO	1
T_REC_BXH	0
T_REC_STR	137
T_REC_BST	1
T_REC_XST	9
T_REC_XBS	0
T_REC_TTP	10
T_REC_THO	0
T_REC_SLD	144
T_REC_BSL	12
T_REC_ALL	813
T_NUM_TAP	582
T_NUM_BRK	31
T_NUM_HLD	56
T_NUM_SLD	144
T_NUM_ALL	813
T_JUDGE_TAP	600
T_JUDGE_HLD	271
T_JUDGE_SLD	156
T_JUDGE_ALL	1027
TTM_EACHPAIRS	160
TTM_SCR_TAP	291000
TTM_SCR_BRK	80600
TTM_SCR_HLD	56000
TTM_SCR_SLD	216000
TTM_SCR_ALL	643600
TTM_SCR_S	621300
TTM_SCR_SS	640500
TTM_RAT_ACV	10048

