VERSION	0.00.00	1.05.00
FES_MODE	0
BPM_DEF	 70.000	175.000	221.000	 70.000
MET_DEF	4	4
RESOLUTION	384
CLK_DEF	384
COMPATIBLE_CODE	MA2

BPM	0	0	 70.000
BPM	3	96	 73.000
BPM	3	192	 76.000
BPM	3	288	 70.000
BPM	4	192	124.000
BPM	5	360	172.000
BPM	8	0	168.000
BPM	8	288	166.000
BPM	9	0	180.000
BPM	9	96	170.000
BPM	10	0	175.000
BPM	11	0	168.000
BPM	11	144	172.000
BPM	11	240	175.000
BPM	12	0	165.000
BPM	12	96	172.000
BPM	12	192	185.000
BPM	12	288	168.000
BPM	13	96	170.000
BPM	13	288	172.000
BPM	14	0	176.000
BPM	14	192	170.000
BPM	15	0	172.000
BPM	23	96	180.000
BPM	23	192	170.000
BPM	24	0	171.000
BPM	24	192	172.000
BPM	32	0	175.000
BPM	33	96	180.000
BPM	33	288	185.000
BPM	34	0	187.000
BPM	34	96	188.000
BPM	35	0	190.000
BPM	35	96	194.000
BPM	35	192	197.000
BPM	35	288	200.000
BPM	36	0	202.000
BPM	37	0	206.000
BPM	37	96	212.000
BPM	38	192	208.000
BPM	38	288	215.000
BPM	39	96	211.000
BPM	39	192	221.000
BPM	40	0	207.000
BPM	40	96	188.000
BPM	40	192	184.000
BPM	41	0	150.000
BPM	41	192	126.000
BPM	41	288	170.000
BPM	42	192	172.000
BPM	43	0	180.000
BPM	43	96	167.000
BPM	44	192	172.000
BPM	46	96	178.000
BPM	46	288	162.000
BPM	47	0	173.000
BPM	47	96	182.000
BPM	47	192	175.000
BPM	48	288	177.000
BPM	49	192	173.000
BPM	50	97	170.000
BPM	50	192	175.000
BPM	50	288	177.000
BPM	51	290	176.000
BPM	52	288	177.000
BPM	53	96	175.000
BPM	54	288	177.000
BPM	55	192	172.000
BPM	56	0	174.000
BPM	57	288	176.000
BPM	58	288	174.000
BPM	59	287	175.000
BPM	60	96	177.000
BPM	60	288	175.000
BPM	61	288	177.000
BPM	62	288	171.000
BPM	63	192	170.000
BPM	63	288	171.000
BPM	64	0	176.000
BPM	64	192	169.000
BPM	65	0	174.000
BPM	65	288	170.000
BPM	66	288	166.000
BPM	67	0	170.000
BPM	67	96	172.000
BPM	68	0	179.000
BPM	68	96	182.000
BPM	68	192	178.000
BPM	68	288	164.000
BPM	68	336	160.000
BPM	69	0	156.000
BPM	69	48	150.000
BPM	69	96	144.000
BPM	69	192	141.000
BPM	69	288	168.000
BPM	70	0	170.000
BPM	70	96	174.000
BPM	70	288	169.000
BPM	71	96	161.000
BPM	72	0	163.000
BPM	72	288	173.000
BPM	74	288	175.000
BPM	76	96	177.000
BPM	77	0	174.000
BPM	77	288	178.000
BPM	78	0	180.000
BPM	78	288	168.000
BPM	79	96	175.000
MET	0	0	4	4
MET	32	0	4	3
MET	46	96	4	2
MET	46	288	4	4

NMHLD	1	0	3	384
NMTTP	1	192	4	E	0	M1
NMHLD	2	0	5	576
NMTHO	2	192	4	192	E	0	M1
NMHLD	3	192	4	192
NMHLD	4	0	3	192
NMSTR	4	192	2
NMSCR	4	192	2	96	864	1
BXTAP	7	192	0
BXTAP	7	192	7
NMTAP	8	0	1
NMTAP	8	96	0
NMTAP	8	96	1
NMTAP	8	192	2
NMTAP	8	240	2
NMTAP	8	288	3
NMTAP	9	0	5
NMTAP	9	96	4
NMTAP	9	96	5
NMTAP	9	192	6
NMTAP	9	240	6
NMTAP	9	288	7
NMTAP	10	0	5
NMTAP	10	48	5
NMTAP	10	96	4
NMTAP	10	192	2
NMTAP	10	240	2
NMTAP	10	288	3
NMTAP	11	0	1
NMTAP	11	0	4
NMTAP	11	96	3
NMTAP	11	96	6
NMTAP	11	144	3
NMTAP	11	144	6
NMTAP	11	240	2
NMTAP	11	240	5
BRTAP	11	288	2
BRTAP	11	288	5
NMTAP	12	0	6
NMTAP	12	96	6
NMTAP	12	96	7
NMTAP	12	192	5
NMTAP	12	240	5
NMTAP	12	288	4
NMTAP	13	0	2
NMTAP	13	96	2
NMTAP	13	96	3
NMTAP	13	192	1
NMTAP	13	240	1
NMTAP	13	288	0
NMTAP	14	0	2
NMTAP	14	48	2
NMTAP	14	96	3
NMTAP	14	192	4
NMTAP	14	192	5
NMTAP	14	288	6
NMHLD	14	336	6	96
NMTAP	15	48	7
NMTAP	15	96	7
BRTAP	15	192	0
BRTAP	15	192	5
NMTAP	16	0	1
NMTAP	16	96	1
NMTAP	16	192	1
NMTAP	16	192	4
NMTAP	16	288	1
NMTAP	16	288	4
NMTAP	17	0	1
NMTAP	17	0	3
NMTAP	17	96	1
NMTAP	17	96	3
NMTAP	17	192	1
NMTAP	17	192	4
NMTAP	17	288	5
NMTAP	18	0	6
NMTAP	18	96	6
NMTAP	18	192	3
NMTAP	18	192	6
NMTAP	18	288	3
NMSTR	18	288	6
NMSUL	18	288	6	96	144	1
NMTAP	19	288	2
NMTAP	19	288	3
NMTAP	20	0	1
NMTAP	20	96	1
NMTAP	20	192	1
NMTAP	20	192	4
NMTAP	20	288	1
NMTAP	20	288	4
NMTAP	21	0	1
NMTAP	21	0	3
NMTAP	21	96	1
NMTAP	21	96	3
NMTAP	21	192	2
NMTAP	21	192	3
NMTAP	21	288	1
NMHLD	21	336	1	96
NMTAP	22	48	3
NMHLD	22	96	3	96
NMTAP	22	192	4
NMHLD	22	240	4	96
NMTAP	22	336	6
NMTAP	23	48	6
NMTAP	23	48	7
NMTAP	23	96	6
NMTAP	23	96	7
BRTAP	23	192	0
BRTAP	23	192	5
NMTAP	24	0	1
NMTAP	24	48	1
NMTAP	24	96	0
NMTAP	24	144	0
NMHLD	24	192	2	96
NMTAP	24	288	0
NMTAP	24	336	0
NMTAP	25	48	1
NMTAP	25	48	7
NMTAP	25	144	1
NMTAP	25	144	7
NMHLD	25	240	6	96
NMHLD	25	336	4	96
NMTAP	26	48	5
NMTAP	26	96	5
NMTAP	26	144	3
NMTAP	26	192	3
NMTAP	26	288	2
NMTAP	26	288	4
NMTAP	26	336	2
NMTAP	26	336	4
NMTAP	27	48	1
NMTAP	27	96	1
NMTAP	27	144	3
NMTAP	27	240	4
NMTAP	27	240	5
EXTAP	27	288	4
EXTAP	27	288	5
NMTAP	28	0	6
NMTAP	28	48	6
NMTAP	28	96	7
NMTAP	28	144	7
NMTAP	28	192	5
NMHLD	28	240	5	96
NMHLD	28	336	7	96
NMHLD	29	48	0	96
BRTAP	29	144	2
NMTAP	29	240	1
NMTAP	29	288	1
NMTAP	29	336	3
NMTAP	30	48	5
NMTAP	30	96	5
NMTAP	30	144	4
NMTAP	30	192	4
NMTAP	30	240	6
NMTAP	30	288	6
NMTAP	30	336	5
NMTAP	31	48	6
NMTAP	31	48	7
NMTAP	31	96	6
NMTAP	31	96	7
BXTAP	31	192	0
BXTAP	31	192	5
NMSTR	32	0	1
NMSCR	32	0	1	96	192	5
NMTAP	33	0	7
NMTAP	33	96	6
NMSTR	33	192	6
NMSCL	33	192	6	96	192	2
NMTAP	34	192	1
NMTAP	34	288	0
EXSTR	35	0	0
NMSI_	35	0	0	96	192	4
NMSI_	35	0	0	96	192	5
EXTAP	36	0	6
EXTAP	36	96	7
EXSTR	36	192	7
BRSCL	36	192	7	96	192	4
BRSCR	36	192	7	96	192	2
EXTAP	37	192	3
EXTAP	37	288	2
EXTAP	38	0	1
EXHLD	38	96	1	192
EXTAP	38	288	3
EXHLD	39	0	3	192
EXTAP	39	192	4
EXHLD	39	288	4	192
EXSTR	40	96	6
NMSV_	40	96	6	96	216	5
CNSI_	41	24	5	0	168	3
NMTTP	41	288	2	E	0	M1
NMTTP	42	0	3	B	0	M1
NMTTP	42	0	3	E	0	M1
NMTTP	42	192	6	E	0	M1
NMTTP	42	288	4	B	0	M1
NMTTP	42	288	5	E	0	M1
NMTAP	43	96	2
NMTAP	43	192	1
NMTAP	43	192	3
NMTAP	43	288	1
NMTAP	43	288	3
NMTAP	44	0	5
NMTAP	44	96	4
NMTAP	44	96	6
NMTAP	44	192	4
NMTAP	44	192	6
NMTHO	44	288	4	288	E	1	M1
EXTAP	46	96	4
EXTAP	46	96	5
BRTAP	46	288	6
BRTAP	46	288	7
NMTAP	47	0	1
NMTAP	47	48	1
NMTAP	47	96	0
NMTAP	47	144	0
NMTAP	47	192	2
NMSTR	47	288	0
BRSCL	47	288	0	96	96	5
NMSTR	47	288	1
BRSUL	47	288	1	96	96	4
NMTAP	48	192	2
NMTAP	48	192	3
NMTAP	48	288	0
NMTAP	48	288	1
NMTAP	49	0	6
NMTAP	49	48	6
NMTAP	49	96	7
NMTAP	49	144	7
NMSTR	49	192	5
NMSCR	49	192	5	96	192	3
NMTAP	50	192	4
NMHLD	50	288	5	72
NMHLD	50	360	4	72
NMTAP	51	48	6
NMTAP	51	96	6
NMTAP	51	192	0
NMTAP	51	192	7
NMHLD	51	288	1	72
NMHLD	51	360	0	72
NMTAP	52	48	2
NMTAP	52	96	2
NMTAP	52	192	3
NMTAP	52	192	4
NMHLD	52	288	2	72
NMHLD	52	360	1	72
NMTAP	53	48	0
NMHLD	53	96	7	72
NMHLD	53	168	6	72
NMTAP	53	240	5
NMSTR	53	288	5
BRSI_	53	288	5	96	96	0
EXTAP	54	192	2
BRTAP	54	288	0
BRTAP	54	288	1
NMTAP	55	0	6
NMTAP	55	48	6
NMTAP	55	96	7
NMTAP	55	144	7
NMTAP	55	192	5
NMSTR	55	288	6
BRSUR	55	288	6	96	96	3
NMSTR	55	288	7
BRSCR	55	288	7	96	96	2
NMTAP	56	192	4
NMTAP	56	192	5
NMTAP	56	288	6
NMTAP	56	288	7
NMTAP	57	0	1
NMTAP	57	48	1
NMTAP	57	96	0
NMTAP	57	144	0
NMSTR	57	192	2
NMSCL	57	192	2	96	192	4
NMTAP	58	192	3
NMHLD	58	288	2	72
NMHLD	58	360	1	72
NMTAP	59	48	0
NMTAP	59	96	0
NMTAP	59	192	0
NMTAP	59	192	6
NMHLD	59	288	5	72
NMHLD	59	360	6	72
NMTAP	60	48	7
NMTAP	60	96	7
NMTAP	60	192	1
NMTAP	60	192	7
NMHLD	60	288	6	72
NMHLD	60	360	5	72
NMTAP	61	48	4
EXHLD	61	96	1	72
EXHLD	61	168	2	72
EXHLD	61	240	3	432
BRTAP	62	288	5
NMTAP	63	0	3
NMTAP	63	0	5
NMTAP	63	96	6
NMTAP	63	144	6
NMTAP	63	192	4
NMTAP	63	288	3
NMTAP	63	288	5
NMTAP	64	0	2
NMTAP	64	0	4
NMTAP	64	96	1
NMTAP	64	144	1
NMTAP	64	192	3
NMTAP	64	288	2
NMTAP	64	288	4
NMTAP	65	0	3
NMTAP	65	0	5
NMTAP	65	96	6
NMTAP	65	144	6
NMTAP	65	192	4
NMHLD	65	288	2	96
NMTAP	66	0	3
NMTAP	66	48	3
EXTAP	66	144	1
EXTAP	66	144	4
EXTAP	66	192	1
EXTAP	66	192	4
NMTAP	66	288	6
NMTAP	66	336	6
NMTAP	67	0	4
NMTAP	67	48	4
NMTAP	67	96	5
NMTAP	67	192	1
NMTAP	67	192	3
NMHLD	67	288	0	544
EXTAP	68	48	3
EXTAP	68	128	3
EXTAP	68	208	2
EXTAP	68	288	2
EXTAP	68	368	3
EXTAP	69	64	3
NMTAP	69	288	1
NMTAP	69	288	3
NMTAP	70	0	1
NMTAP	70	0	3
NMTAP	70	96	3
NMTAP	70	96	5
NMTAP	70	192	6
NMSTR	70	240	6
NMSCL	70	240	6	96	96	3
NMTAP	71	48	1
NMTAP	71	96	1
BRHLD	71	192	0	480
BRTAP	72	288	7
NMTAP	73	0	4
NMTAP	73	0	5
NMTAP	73	96	0
NMTAP	73	96	7
NMTAP	73	192	2
NMTAP	73	192	3
NMSTR	73	288	0
BRSUR	73	288	0	96	96	6
NMSTR	73	288	1
BRSCR	73	288	1	96	96	5
NMTAP	74	192	7
NMHLD	74	288	7	96
NMTAP	75	0	4
NMTAP	75	48	4
NMTAP	75	96	6
NMTAP	75	192	1
NMTAP	75	240	1
NMTAP	75	288	3
NMTAP	76	0	2
NMTAP	76	0	4
NMTAP	76	96	1
NMTAP	76	96	5
NMTAP	76	192	1
NMTAP	76	192	5
NMHLD	76	288	6	72
NMHLD	76	360	5	72
NMTAP	77	48	4
NMTAP	77	96	4
NMTAP	77	192	2
NMTAP	77	192	3
NMHLD	77	288	1	72
NMHLD	77	360	2	72
NMTAP	78	48	3
NMTAP	78	96	3
NMSTR	78	192	5
NMSI_	78	192	5	96	48	0
NMSTR	79	0	2
NMSI_	79	0	2	96	48	7
NMTAP	79	192	5
NMSTR	79	288	2
NMSCR	79	288	2	96	96	5
NMSTR	79	288	6
NMSCR	79	288	6	96	96	1
NMTAP	80	192	4
BRTAP	80	288	6
BRTAP	80	288	7
NMTAP	81	0	5
NMTAP	81	48	5
NMTAP	81	96	7
NMTAP	81	144	7
NMTAP	81	192	0
NMTAP	81	240	0
NMTAP	81	288	2
BRHLD	82	0	3	96
BRHLD	82	0	7	96
NMTAP	82	192	4
NMTAP	82	192	6
NMTAP	82	288	3
NMTAP	82	288	4
NMTAP	83	0	2
NMTAP	83	48	2
NMTAP	83	96	3
NMTAP	83	144	3
NMSTR	83	192	1
NMSCL	83	192	1	96	144	4
NMSUL	83	192	1	96	144	3
NMTAP	84	192	2
NMTAP	84	192	3
EXHLD	84	288	1	72
EXTAP	84	360	0
NMTAP	85	48	2
NMTAP	85	48	7
NMTAP	85	96	2
NMTAP	85	96	7
NMTAP	85	192	4
NMTAP	85	192	5
EXHLD	85	288	6	72
EXTAP	85	360	7
NMTAP	86	48	0
NMTAP	86	48	5
NMTAP	86	96	0
NMTAP	86	96	5
NMTAP	86	192	2
NMTAP	86	192	7
NMHLD	86	288	5	72
NMHLD	86	360	6	72
NMTAP	87	48	7
NMHLD	87	96	0	72
NMHLD	87	168	1	72
NMTAP	87	240	2
NMTAP	87	288	2
NMTAP	88	0	1
NMTAP	88	0	3
NMTAP	88	96	4
NMTAP	88	96	6
NMTAP	88	192	4
NMTAP	88	192	6
BRTAP	88	288	6
BRTAP	88	288	7
NMTAP	89	0	2
NMTAP	89	0	3
NMTAP	89	96	0
NMTAP	89	96	1
NMTAP	89	192	4
NMTAP	89	192	5
NMTAP	89	288	6
NMTAP	89	288	7
NMTAP	90	0	2
NMTAP	90	0	3
NMTAP	90	96	0
NMTAP	90	96	1
NMTAP	90	192	4
NMTAP	90	192	5
NMSTR	90	288	4
NMSI_	90	288	4	96	48	0
NMSTR	90	288	5
NMSI_	90	288	5	96	48	0
NMSTR	91	96	2
NMSI_	91	96	2	96	48	7
NMSTR	91	96	3
NMSI_	91	96	3	96	48	7
BXHLD	91	288	0	96
BXHLD	91	288	6	96
NMTAP	92	96	1
NMTAP	92	96	5
NMTAP	92	192	2
NMTAP	92	192	6
NMSTR	92	288	1
NMSI_	92	288	1	96	48	4
NMSTR	93	0	7
NMSI_	93	0	7	96	48	3
NMTAP	93	96	2
NMTAP	93	192	2
NMTAP	93	192	4
NMSTR	93	288	5
NMSI_	93	288	5	96	48	0
NMSTR	94	0	1
NMSI_	94	0	1	96	48	5
NMTAP	94	96	6
NMTAP	94	192	4
NMTAP	94	192	6
NMHLD	94	288	2	96
NMHLD	95	0	0	96
NMHLD	95	96	7	96
NMTAP	95	192	5
NMSTR	95	288	0
NMSI_	95	288	0	96	48	4
NMSTR	96	0	5
NMSI_	96	0	5	96	48	7
NMSTR	96	96	3
NMSI_	96	96	3	96	48	1
NMSTR	96	192	6
NMSCR	96	192	6	96	384	4
NMTTP	96	288	0	C	1	M1
NMTAP	98	192	2
NMTAP	98	192	3
NMTAP	98	288	0
NMTAP	98	288	1
NMTAP	99	0	0
NMTAP	99	0	1
NMTAP	99	96	2
NMTAP	99	144	2
NMTAP	99	192	3
NMTAP	99	288	4
NMTAP	99	288	5
NMTAP	100	0	4
NMTAP	100	0	5
NMTAP	100	96	6
NMTAP	100	144	6
NMTAP	100	192	7
NMTAP	100	288	5
NMTAP	100	288	7
NMTAP	101	0	2
NMTAP	101	0	3
NMTAP	101	96	0
NMTAP	101	96	2
NMTAP	101	192	4
NMTAP	101	192	5
NMTAP	101	288	5
NMTAP	101	288	7
NMTAP	102	0	2
NMTAP	102	0	3
NMTAP	102	96	0
NMTAP	102	96	2
NMTAP	102	192	4
NMTAP	102	192	5
NMHLD	102	288	3	72
NMHLD	102	288	6	72
NMTAP	103	48	2
NMHLD	103	96	1	72
NMHLD	103	96	4	72
EXSTR	103	240	0
NMSCR	103	240	0	96	1200	6
NMTTP	104	48	0	C	1	M1
CNSUR	107	0	6	0	1536	7

T_REC_TAP	349
T_REC_BRK	17
T_REC_XTP	24
T_REC_BXX	4
T_REC_HLD	46
T_REC_XHO	8
T_REC_BHO	3
T_REC_BXH	2
T_REC_STR	31
T_REC_BST	0
T_REC_XST	4
T_REC_XBS	0
T_REC_TTP	9
T_REC_THO	2
T_REC_SLD	29
T_REC_BSL	9
T_REC_ALL	537
T_NUM_TAP	417
T_NUM_BRK	35
T_NUM_HLD	56
T_NUM_SLD	29
T_NUM_ALL	537
T_JUDGE_TAP	438
T_JUDGE_HLD	211
T_JUDGE_SLD	38
T_JUDGE_ALL	687
TTM_EACHPAIRS	118
TTM_SCR_TAP	208500
TTM_SCR_BRK	91000
TTM_SCR_HLD	56000
TTM_SCR_SLD	43500
TTM_SCR_ALL	399000
TTM_SCR_S	383650
TTM_SCR_SS	395500
TTM_RAT_ACV	10088

