VERSION	0.00.00	1.05.00
FES_MODE	0
BPM_DEF	 70.000	175.000	221.000	 70.000
MET_DEF	4	4
RESOLUTION	384
CLK_DEF	384
COMPATIBLE_CODE	MA2

BPM	0	0	 70.000
BPM	3	96	 73.000
BPM	3	192	 76.000
BPM	3	288	 70.000
BPM	4	192	124.000
BPM	5	360	172.000
BPM	8	0	168.000
BPM	8	288	166.000
BPM	9	0	180.000
BPM	9	96	170.000
BPM	10	0	175.000
BPM	11	0	168.000
BPM	11	144	172.000
BPM	11	240	175.000
BPM	12	0	165.000
BPM	12	96	172.000
BPM	12	192	185.000
BPM	12	288	168.000
BPM	13	96	170.000
BPM	13	288	172.000
BPM	14	0	176.000
BPM	14	192	170.000
BPM	15	0	172.000
BPM	23	96	180.000
BPM	23	192	170.000
BPM	24	0	171.000
BPM	24	192	172.000
BPM	32	0	175.000
BPM	33	96	180.000
BPM	33	288	185.000
BPM	34	0	187.000
BPM	34	96	188.000
BPM	35	0	190.000
BPM	35	96	194.000
BPM	35	192	197.000
BPM	35	288	200.000
BPM	36	0	202.000
BPM	37	0	206.000
BPM	37	96	212.000
BPM	38	192	208.000
BPM	38	288	215.000
BPM	39	96	211.000
BPM	39	192	221.000
BPM	40	0	207.000
BPM	40	96	188.000
BPM	40	192	184.000
BPM	41	0	150.000
BPM	41	192	126.000
BPM	41	288	170.000
BPM	42	192	172.000
BPM	43	0	180.000
BPM	43	96	167.000
BPM	44	192	172.000
BPM	46	96	178.000
BPM	46	288	162.000
BPM	47	0	173.000
BPM	47	96	182.000
BPM	47	192	175.000
BPM	48	288	177.000
BPM	49	192	173.000
BPM	50	97	170.000
BPM	50	192	175.000
BPM	50	288	177.000
BPM	51	290	176.000
BPM	52	288	177.000
BPM	53	96	175.000
BPM	54	288	177.000
BPM	55	192	172.000
BPM	56	0	174.000
BPM	57	288	176.000
BPM	58	288	174.000
BPM	59	287	175.000
BPM	60	96	177.000
BPM	60	288	175.000
BPM	61	288	177.000
BPM	62	288	171.000
BPM	63	192	170.000
BPM	63	288	171.000
BPM	64	0	176.000
BPM	64	192	169.000
BPM	65	0	174.000
BPM	65	288	170.000
BPM	66	288	166.000
BPM	67	0	170.000
BPM	67	96	172.000
BPM	68	0	179.000
BPM	68	96	182.000
BPM	68	192	178.000
BPM	68	288	164.000
BPM	68	336	160.000
BPM	69	0	156.000
BPM	69	48	150.000
BPM	69	96	144.000
BPM	69	192	141.000
BPM	69	288	168.000
BPM	70	0	170.000
BPM	70	96	174.000
BPM	70	288	169.000
BPM	71	96	161.000
BPM	72	0	163.000
BPM	72	288	173.000
BPM	74	288	175.000
BPM	76	96	177.000
BPM	77	0	174.000
BPM	77	288	178.000
BPM	78	0	180.000
BPM	78	288	168.000
BPM	79	96	175.000
MET	0	0	4	4
MET	32	0	4	3
MET	46	96	4	2
MET	46	288	4	4

NMTAP	1	0	0
NMTAP	1	96	0
NMTAP	1	192	1
NMTAP	1	288	1
NMTAP	2	0	2
NMTAP	2	96	2
NMHLD	2	192	3	192
NMHLD	2	192	4	192
NMTAP	3	192	5
NMTAP	3	288	5
NMTAP	4	0	6
NMTAP	4	96	6
NMSTR	4	192	0
NMSXL	4	192	0	96	864	3
NMSTR	4	192	7
NMSXR	4	192	7	96	864	4
EXTAP	8	0	3
EXTAP	8	96	3
EXTAP	8	192	2
NMTAP	9	0	1
NMTAP	9	96	1
NMTAP	9	192	0
NMTAP	10	0	7
NMTAP	10	96	7
NMTAP	10	192	6
NMTAP	11	0	5
NMTAP	11	96	5
NMTAP	11	192	3
NMTAP	11	192	4
NMTAP	12	0	4
NMTAP	12	96	4
NMTAP	12	192	5
NMTAP	13	0	6
NMTAP	13	96	6
NMTAP	13	192	7
NMTAP	14	0	0
NMTAP	14	96	0
NMTAP	14	192	1
NMTAP	15	0	2
NMTAP	15	96	2
BXTAP	15	192	3
BXTAP	15	192	4
NMHLD	16	0	5	192
NMHLD	16	192	4	192
NMHLD	17	0	3	192
NMTAP	17	192	2
NMHLD	18	0	2	192
NMHLD	18	192	3	192
NMHLD	19	0	4	192
NMTAP	19	192	5
NMHLD	20	0	6	192
NMHLD	20	192	5	192
NMHLD	21	0	4	192
NMTAP	21	192	3
NMHLD	22	0	1	192
NMHLD	22	192	2	192
NMHLD	23	0	3	192
NMTAP	23	192	4
NMTAP	24	0	2
NMTAP	24	96	2
NMTAP	24	192	2
NMTAP	24	192	3
NMTAP	25	0	1
NMTAP	25	96	1
NMTAP	25	192	0
NMTAP	25	192	1
NMTAP	26	0	7
NMTAP	26	96	7
NMTAP	26	192	6
NMTAP	26	192	7
NMTAP	27	0	4
NMTAP	27	0	5
NMTAP	27	96	4
NMTAP	27	96	5
NMTAP	27	192	4
NMTAP	27	192	5
NMTAP	28	0	5
NMTAP	28	96	5
NMTAP	28	192	4
NMTAP	28	192	5
NMTAP	29	0	6
NMTAP	29	96	6
NMTAP	29	192	6
NMTAP	29	192	7
NMTAP	30	0	0
NMTAP	30	96	0
NMTAP	30	192	0
NMTAP	30	192	1
NMTAP	31	0	2
NMTAP	31	0	3
NMTAP	31	96	2
NMTAP	31	96	3
NMTAP	31	192	2
NMTAP	31	192	3
NMTTP	32	0	2	E	0	L1
NMTTP	32	96	2	B	0	L1
NMTTP	32	192	3	B	0	L1
NMTTP	32	288	4	E	0	L1
NMTTP	33	192	6	E	0	L1
NMTTP	33	288	5	B	0	L1
NMTTP	34	0	4	B	0	L1
NMTTP	34	96	4	E	0	L1
NMTTP	35	0	1	B	0	L1
NMTTP	35	96	2	B	0	L1
NMTTP	35	192	3	B	0	L1
NMTTP	35	288	4	B	0	L1
NMTTP	36	0	5	B	0	L1
NMTTP	36	96	6	B	0	L1
NMTTP	36	192	0	C	1	L1
EXSTR	38	0	0
NMSXL	38	0	0	96	768	4
EXTAP	41	0	5
EXSTR	41	288	6
NMSXR	41	288	6	96	768	3
NMHLD	44	288	2	576
NMHLD	44	288	3	576
NMTAP	46	288	2
NMTAP	47	0	2
NMTAP	47	96	1
NMTAP	47	192	1
NMTAP	47	288	0
NMTAP	48	0	0
NMTAP	48	96	6
NMTAP	48	96	7
NMTAP	48	288	5
NMTAP	49	0	5
NMTAP	49	96	6
NMTAP	49	192	6
NMTAP	49	288	7
NMTAP	50	0	7
NMTAP	50	96	0
NMTAP	50	96	1
NMTAP	50	288	1
NMTAP	51	0	1
NMTAP	51	96	2
NMTAP	51	192	2
NMTAP	51	288	3
NMTAP	52	0	3
NMTAP	52	96	4
NMTAP	52	96	5
NMTAP	52	288	6
NMTAP	53	0	6
NMTAP	53	96	5
NMTAP	53	192	5
NMTAP	53	288	4
NMTAP	54	0	4
NMTAP	54	96	2
NMTAP	54	96	3
NMTAP	54	288	2
NMTAP	55	0	2
NMTAP	55	96	1
NMTAP	55	192	1
NMTAP	55	288	0
NMTAP	56	0	0
NMTAP	56	96	6
NMTAP	56	96	7
NMTAP	56	192	6
NMTAP	56	192	7
NMTAP	56	288	5
NMTAP	57	0	5
NMTAP	57	96	6
NMTAP	57	192	6
NMTAP	57	288	7
NMTAP	58	0	7
NMTAP	58	96	0
NMTAP	58	96	1
NMTAP	58	288	1
NMTAP	59	0	1
NMTAP	59	96	2
NMTAP	59	192	2
NMTAP	59	288	3
NMTAP	60	0	3
NMTAP	60	96	4
NMTAP	60	192	4
NMTAP	60	288	5
NMTAP	61	0	5
NMTAP	61	96	6
NMTAP	61	96	7
NMTAP	61	192	6
NMTAP	61	192	7
NMSTR	62	288	6
NMSI_	62	288	6	96	288	2
NMTAP	64	96	1
NMSTR	64	288	1
NMSI_	64	288	1	96	288	5
NMTAP	66	96	6
NMTAP	66	96	7
NMTAP	66	288	0
NMTAP	67	0	0
NMTAP	67	96	7
NMTAP	67	192	7
NMSTR	67	288	0
NMSI_	67	288	0	96	288	4
NMTAP	69	288	3
NMTAP	70	0	2
NMTAP	70	96	1
NMTAP	70	192	0
NMTAP	70	288	7
NMTAP	71	0	6
NMTAP	71	96	5
BRTAP	71	192	3
BRTAP	71	192	4
EXTAP	72	288	5
EXTAP	73	0	5
NMTAP	73	96	6
NMTAP	73	96	7
NMTAP	73	192	6
NMTAP	73	192	7
NMTAP	73	288	0
NMTAP	74	0	0
NMTAP	74	96	0
NMTAP	74	96	1
NMTAP	74	288	2
NMTAP	75	0	2
NMTAP	75	96	0
NMTAP	75	96	1
NMTAP	75	192	0
NMTAP	75	192	1
NMTAP	75	288	7
NMTAP	76	0	7
NMTAP	76	96	6
NMTAP	76	96	7
NMTAP	76	288	6
NMTAP	77	0	6
NMTAP	77	96	4
NMTAP	77	96	5
NMTAP	77	192	4
NMTAP	77	192	5
NMTAP	77	288	3
NMTAP	78	0	3
NMTAP	78	96	2
NMTAP	78	96	3
NMTAP	78	288	1
NMTAP	79	0	1
NMTAP	79	96	2
NMTAP	79	96	3
NMTAP	79	192	2
NMTAP	79	192	3
NMTAP	79	288	4
NMTAP	80	0	4
NMTAP	80	96	4
NMTAP	80	96	5
NMTAP	80	288	6
NMTAP	81	0	6
NMTAP	81	96	6
NMTAP	81	192	6
NMTAP	81	192	7
NMTAP	81	288	5
NMTAP	82	0	5
NMTAP	82	96	5
NMTAP	82	192	4
NMTAP	82	192	5
NMTAP	82	288	3
NMTAP	83	0	3
NMTAP	83	96	3
NMTAP	83	192	2
NMTAP	83	192	3
NMTAP	83	288	0
NMTAP	83	288	1
NMTAP	84	0	0
NMTAP	84	0	1
NMTAP	84	96	0
NMTAP	84	96	1
NMTAP	84	288	1
NMTAP	85	0	1
NMTAP	85	96	1
NMTAP	85	192	0
NMTAP	85	192	1
NMTAP	85	288	2
NMTAP	86	0	2
NMTAP	86	96	2
NMTAP	86	192	2
NMTAP	86	192	3
NMTAP	86	288	4
NMTAP	87	0	4
NMTAP	87	96	4
NMTAP	87	192	4
NMTAP	87	192	5
NMTAP	87	288	6
NMTAP	87	288	7
NMTAP	88	0	6
NMTAP	88	0	7
BRTAP	88	96	6
BRTAP	88	96	7
NMTAP	88	288	6
NMTAP	89	0	6
NMTAP	89	96	6
NMTAP	89	96	7
NMTAP	89	192	6
NMTAP	89	192	7
NMTAP	89	288	5
NMTAP	90	0	5
NMTAP	90	96	4
NMTAP	90	96	5
NMTAP	90	192	4
NMTAP	90	192	5
NMTAP	90	288	3
NMTAP	91	0	3
NMTAP	91	96	2
NMTAP	91	96	3
NMTAP	91	192	2
NMTAP	91	192	3
NMTAP	91	288	0
NMTAP	91	288	1
NMTAP	92	0	0
NMTAP	92	0	1
NMTAP	92	96	0
NMTAP	92	96	1
NMTAP	92	288	1
NMTAP	93	0	1
NMTAP	93	96	0
NMTAP	93	96	1
NMTAP	93	192	0
NMTAP	93	192	1
NMTAP	93	288	2
NMTAP	94	0	2
NMTAP	94	96	2
NMTAP	94	96	3
NMTAP	94	192	2
NMTAP	94	192	3
NMTAP	94	288	4
NMTAP	95	0	4
NMTAP	95	96	4
NMTAP	95	96	5
NMTAP	95	192	4
NMTAP	95	192	5
NMTAP	95	288	6
NMTAP	95	288	7
NMTAP	96	0	6
NMTAP	96	0	7
NMTAP	96	96	6
NMTAP	96	96	7
NMTTP	96	288	6	B	0	L1
NMTTP	97	0	5	B	0	L1
NMTTP	97	96	4	B	0	L1
NMTTP	97	288	1	B	0	L1
NMTTP	98	0	2	B	0	L1
NMTTP	98	96	3	B	0	L1
NMTTP	98	288	6	B	0	L1
NMTTP	99	0	5	B	0	L1
NMTTP	99	96	4	B	0	L1
NMTTP	99	192	3	B	0	L1
NMTTP	99	288	0	C	0	L1
NMTTP	100	288	0	B	0	L1
NMTTP	101	0	1	B	0	L1
NMTTP	101	96	2	B	0	L1
NMTTP	101	96	3	B	0	L1
NMTTP	101	288	7	B	0	L1
NMTTP	102	0	6	B	0	L1
NMTTP	102	96	4	B	0	L1
NMTTP	102	96	5	B	0	L1
NMTHO	102	288	0	528	C	1	L1

T_REC_TAP	275
T_REC_BRK	4
T_REC_XTP	6
T_REC_BXX	2
T_REC_HLD	16
T_REC_XHO	0
T_REC_BHO	0
T_REC_BXH	0
T_REC_STR	5
T_REC_BST	0
T_REC_XST	2
T_REC_XBS	0
T_REC_TTP	34
T_REC_THO	1
T_REC_SLD	7
T_REC_BSL	0
T_REC_ALL	352
T_NUM_TAP	322
T_NUM_BRK	6
T_NUM_HLD	17
T_NUM_SLD	7
T_NUM_ALL	352
T_JUDGE_TAP	328
T_JUDGE_HLD	99
T_JUDGE_SLD	7
T_JUDGE_ALL	434
TTM_EACHPAIRS	70
TTM_SCR_TAP	161000
TTM_SCR_BRK	15600
TTM_SCR_HLD	17000
TTM_SCR_SLD	10500
TTM_SCR_ALL	204100
TTM_SCR_S	197400
TTM_SCR_SS	203500
TTM_RAT_ACV	10029

