VERSION	0.00.00	1.05.00
FES_MODE	0
BPM_DEF	 70.000	175.000	221.000	 70.000
MET_DEF	4	4
RESOLUTION	384
CLK_DEF	384
COMPATIBLE_CODE	MA2

BPM	0	0	 70.000
BPM	3	96	 73.000
BPM	3	192	 76.000
BPM	3	288	 70.000
BPM	4	192	124.000
BPM	5	360	172.000
BPM	8	0	168.000
BPM	8	288	166.000
BPM	9	0	180.000
BPM	9	96	170.000
BPM	10	0	175.000
BPM	11	0	168.000
BPM	11	144	172.000
BPM	11	240	175.000
BPM	12	0	165.000
BPM	12	96	172.000
BPM	12	192	185.000
BPM	12	288	168.000
BPM	13	96	170.000
BPM	13	288	172.000
BPM	14	0	176.000
BPM	14	192	170.000
BPM	15	0	172.000
BPM	23	96	180.000
BPM	23	192	170.000
BPM	24	0	171.000
BPM	24	192	172.000
BPM	32	0	175.000
BPM	33	96	180.000
BPM	33	288	185.000
BPM	34	0	187.000
BPM	34	96	188.000
BPM	35	0	190.000
BPM	35	96	194.000
BPM	35	192	197.000
BPM	35	288	200.000
BPM	36	0	202.000
BPM	37	0	206.000
BPM	37	96	212.000
BPM	38	192	208.000
BPM	38	288	215.000
BPM	39	96	211.000
BPM	39	192	221.000
BPM	40	0	207.000
BPM	40	96	188.000
BPM	40	192	184.000
BPM	41	0	150.000
BPM	41	192	126.000
BPM	41	288	170.000
BPM	42	192	172.000
BPM	43	0	180.000
BPM	43	96	167.000
BPM	44	192	172.000
BPM	46	96	178.000
BPM	46	288	162.000
BPM	47	0	173.000
BPM	47	96	182.000
BPM	47	192	175.000
BPM	48	288	177.000
BPM	49	192	173.000
BPM	50	97	170.000
BPM	50	192	175.000
BPM	50	288	177.000
BPM	51	290	176.000
BPM	52	288	177.000
BPM	53	96	175.000
BPM	54	288	177.000
BPM	55	192	172.000
BPM	56	0	174.000
BPM	57	288	176.000
BPM	58	288	174.000
BPM	59	287	175.000
BPM	60	96	177.000
BPM	60	288	175.000
BPM	61	288	177.000
BPM	62	288	171.000
BPM	63	192	170.000
BPM	63	288	171.000
BPM	64	0	176.000
BPM	64	192	169.000
BPM	65	0	174.000
BPM	65	288	170.000
BPM	66	288	166.000
BPM	67	0	170.000
BPM	67	96	172.000
BPM	68	0	179.000
BPM	68	96	182.000
BPM	68	192	178.000
BPM	68	288	164.000
BPM	68	336	160.000
BPM	69	0	156.000
BPM	69	48	150.000
BPM	69	96	144.000
BPM	69	192	141.000
BPM	69	288	168.000
BPM	70	0	170.000
BPM	70	96	174.000
BPM	70	288	169.000
BPM	71	96	161.000
BPM	72	0	163.000
BPM	72	288	173.000
BPM	74	288	175.000
BPM	76	96	177.000
BPM	77	0	174.000
BPM	77	288	178.000
BPM	78	0	180.000
BPM	78	288	168.000
BPM	79	96	175.000
MET	0	0	4	4
MET	32	0	4	3
MET	46	96	4	2
MET	46	288	4	4

EXTAP	8	0	0
NMTAP	8	192	0
NMTAP	9	0	1
NMTAP	9	192	1
NMTAP	10	0	2
NMTAP	10	192	2
NMTAP	11	0	3
NMTAP	11	0	4
NMTAP	12	0	4
NMTAP	12	192	4
NMTAP	13	0	5
NMTAP	13	192	5
NMTAP	14	0	6
NMTAP	14	192	6
EXTAP	15	0	0
EXTAP	15	0	7
NMHLD	16	0	6	384
NMHLD	16	0	7	384
NMHLD	18	0	4	384
NMHLD	18	0	5	384
NMHLD	20	0	2	384
NMHLD	20	0	3	384
EXHLD	22	0	0	384
EXHLD	22	0	1	384
NMTAP	24	0	0
NMTAP	24	192	0
NMTAP	25	0	1
NMTAP	25	192	1
NMTAP	26	0	2
NMTAP	26	0	3
NMTAP	26	192	2
NMTAP	26	192	3
NMTAP	27	0	2
NMTAP	27	0	3
NMTAP	28	0	4
NMTAP	28	192	4
NMTAP	29	0	5
NMTAP	29	192	5
NMTAP	30	0	6
NMTAP	30	0	7
NMTAP	30	192	6
NMTAP	30	192	7
EXTAP	31	0	6
EXTAP	31	0	7
EXSTR	32	0	6
NMSI_	32	0	6	96	480	2
EXSTR	35	0	0
NMSI_	35	0	0	96	480	4
EXSTR	38	0	7
NMSI_	38	0	7	96	480	3
NMSTR	41	288	0
NMSI_	41	288	0	96	384	5
NMSTR	44	288	7
NMSI_	44	288	7	96	384	2
BXTAP	46	288	0
EXTAP	47	0	0
EXTAP	47	96	0
NMTAP	47	288	1
NMTAP	48	96	1
NMTAP	48	288	2
NMTAP	49	0	2
NMTAP	49	96	2
NMTAP	49	288	3
NMTAP	49	288	4
NMTAP	50	96	3
NMTAP	50	96	4
NMTAP	50	288	4
NMTAP	51	0	4
NMTAP	51	96	4
NMTAP	51	288	5
NMTAP	52	96	5
NMTAP	52	288	6
NMTAP	53	0	6
NMTAP	53	96	6
BRTAP	53	288	0
BRTAP	53	288	7
EXTAP	54	288	6
EXTAP	55	0	6
EXTAP	55	96	6
NMTAP	55	288	5
NMTAP	56	0	5
NMTAP	56	96	5
NMTAP	56	288	4
NMTAP	57	0	4
NMTAP	57	96	4
NMTAP	57	288	3
NMTAP	58	0	3
NMTAP	58	96	3
NMTAP	58	288	2
NMTAP	59	0	2
NMTAP	59	96	2
EXTAP	59	288	1
NMTAP	60	0	1
NMTAP	60	96	1
NMTAP	60	288	0
NMTAP	60	288	7
NMTAP	61	96	0
NMTAP	61	96	7
NMTTP	62	288	0	E	0	L1
NMTTP	63	288	0	B	0	L1
NMTTP	63	288	7	B	0	L1
NMTTP	64	288	1	B	0	L1
NMTTP	64	288	6	B	0	L1
NMTTP	65	288	2	B	0	L1
NMTTP	65	288	5	B	0	L1
NMTTP	66	288	3	B	0	L1
NMTTP	66	288	4	B	0	L1
NMTHO	67	288	0	768	C	1	L1
EXHLD	70	288	0	288
EXHLD	70	288	7	288
BXTAP	72	288	0
EXTAP	73	0	0
EXTAP	73	96	0
NMTAP	73	288	1
NMTAP	74	0	1
NMTAP	74	96	1
NMTAP	74	288	2
NMTAP	75	0	2
NMTAP	75	96	2
NMTAP	75	288	3
NMTAP	75	288	4
NMTAP	76	96	3
NMTAP	76	96	4
NMTAP	76	288	4
NMTAP	77	0	4
NMTAP	77	96	4
NMTAP	77	288	5
NMTAP	78	0	5
NMTAP	78	96	5
NMTAP	78	288	6
NMTAP	79	0	6
NMTAP	79	96	6
NMTAP	79	288	0
NMTAP	79	288	7
BXTAP	80	288	7
NMTAP	81	0	7
NMTAP	81	96	7
NMTAP	81	288	6
NMTAP	82	0	6
NMTAP	82	96	6
NMTAP	82	96	7
NMTAP	82	288	5
NMTAP	83	0	5
NMTAP	83	96	5
NMTAP	83	288	4
NMTAP	84	0	4
NMTAP	84	96	3
NMTAP	84	96	4
NMTAP	84	288	3
NMTAP	85	0	3
NMTAP	85	96	3
NMTAP	85	288	2
NMTAP	86	0	2
NMTAP	86	96	2
NMTAP	86	96	3
NMTAP	86	288	1
NMTAP	87	0	1
NMTAP	87	96	1
NMTAP	87	288	0
NMTAP	88	0	0
NMTAP	88	96	0
NMTAP	88	96	7
BRTAP	88	288	0
NMTAP	89	0	0
NMTAP	89	96	0
NMTAP	89	192	0
NMTAP	89	288	1
NMTAP	90	0	1
NMTAP	90	96	0
NMTAP	90	96	1
NMTAP	90	288	2
NMTAP	91	0	2
NMTAP	91	96	2
NMTAP	91	192	2
NMTAP	91	288	3
NMTAP	92	0	3
NMTAP	92	96	3
NMTAP	92	96	4
NMTAP	92	288	4
NMTAP	93	0	4
NMTAP	93	96	4
NMTAP	93	192	4
NMTAP	93	288	5
NMTAP	94	0	5
NMTAP	94	96	4
NMTAP	94	96	5
NMTAP	94	288	6
NMTAP	95	0	6
NMTAP	95	96	6
NMTAP	95	192	6
BRTAP	95	288	0
BRTAP	95	288	7
NMTAP	96	288	1
NMTAP	97	0	1
NMTAP	97	96	1
NMTAP	97	288	0
NMTAP	97	288	7
NMTAP	98	288	6
NMTAP	99	0	6
NMTAP	99	96	6
NMTAP	99	288	0
NMTAP	99	288	7
NMTTP	100	288	0	E	0	L1
NMTTP	101	288	0	B	0	L1
NMTTP	101	288	7	B	0	L1
NMTHO	102	288	0	544	C	1	L1

T_REC_TAP	151
T_REC_BRK	5
T_REC_XTP	13
T_REC_BXX	3
T_REC_HLD	6
T_REC_XHO	4
T_REC_BHO	0
T_REC_BXH	0
T_REC_STR	2
T_REC_BST	0
T_REC_XST	3
T_REC_XBS	0
T_REC_TTP	12
T_REC_THO	2
T_REC_SLD	5
T_REC_BSL	0
T_REC_ALL	206
T_NUM_TAP	181
T_NUM_BRK	8
T_NUM_HLD	12
T_NUM_SLD	5
T_NUM_ALL	206
T_JUDGE_TAP	189
T_JUDGE_HLD	104
T_JUDGE_SLD	5
T_JUDGE_ALL	298
TTM_EACHPAIRS	31
TTM_SCR_TAP	90500
TTM_SCR_BRK	20800
TTM_SCR_HLD	12000
TTM_SCR_SLD	7500
TTM_SCR_ALL	130800
TTM_SCR_S	126100
TTM_SCR_SS	130000
TTM_RAT_ACV	10061

