VERSION	0.00.00	1.05.00
FES_MODE	0
BPM_DEF	130.000	130.000	130.000	130.000
MET_DEF	4	4
RESOLUTION	384
CLK_DEF	384
COMPATIBLE_CODE	MA2

BPM	0	0	130.000
MET	0	0	4	4

NMHLD	1	0	2	72
NMTAP	1	96	2
NMTAP	1	144	3
NMHLD	1	192	2	72
NMTAP	1	288	2
NMTTP	1	336	3	A	0	M1
NMHLD	2	0	2	72
NMTAP	2	96	2
NMTAP	2	144	3
NMHLD	2	192	2	72
NMTAP	2	288	2
NMTTP	2	336	4	D	0	M1
NMHLD	3	0	5	72
NMTAP	3	96	5
NMTAP	3	144	4
NMHLD	3	192	5	72
NMTAP	3	288	5
NMTTP	3	336	4	A	0	M1
NMHLD	4	0	5	72
NMTAP	4	96	5
NMTAP	4	144	4
NMHLD	4	192	5	72
NMTAP	4	288	5
NMTTP	4	336	4	D	0	M1
NMHLD	5	0	2	72
NMTAP	5	96	2
NMTTP	5	144	3	A	0	M1
NMTAP	5	192	1
NMTAP	5	216	1
NMTTP	5	240	4	D	0	M1
NMTAP	5	288	2
NMTTP	5	336	4	A	0	M1
NMHLD	6	0	5	72
NMTAP	6	96	5
NMTTP	6	144	4	A	0	M1
NMTAP	6	192	6
NMTAP	6	216	6
NMTTP	6	240	4	D	0	M1
NMTAP	6	288	5
NMTTP	6	336	3	A	0	M1
NMHLD	7	0	2	72
NMTAP	7	96	2
NMTTP	7	144	3	E	0	M1
NMTAP	7	192	1
NMTAP	7	216	1
NMTTP	7	240	4	E	0	M1
NMTAP	7	288	2
NMTTP	7	336	5	E	0	M1
EXTAP	8	0	3
EXTAP	8	0	6
EXTAP	8	72	1
EXTAP	8	72	4
EXTAP	8	144	3
EXTAP	8	144	6
NMTAP	8	192	0
NMTAP	8	216	7
NMTAP	8	240	0
BRTAP	8	288	2
BRHLD	8	288	5	1248
NMSTR	9	0	2
NMSI_	9	0	2	96	48	4
NMTAP	9	48	1
NMSTR	9	192	2
NMSI_	9	192	2	96	48	4
NMTTP	9	240	1	A	0	M1
NMTAP	10	0	4
NMTAP	10	96	4
NMTAP	10	192	3
NMTAP	10	288	2
NMSTR	11	0	1
NMSCR	11	0	1	96	48	4
NMTAP	11	48	0
NMSTR	11	192	1
NMSCR	11	192	1	96	48	4
NMTTP	11	240	0	A	0	M1
NMHLD	12	0	4	96
NMHLD	12	96	3	96
NMTAP	12	192	2
BRHLD	12	288	1	1440
NMTAP	12	288	4
NMSTR	13	0	5
NMSI_	13	0	5	96	48	3
NMTAP	13	48	6
NMSTR	13	192	5
NMSI_	13	192	5	96	48	3
NMTTP	13	240	6	A	0	M1
NMTAP	14	0	3
NMTAP	14	96	3
NMTAP	14	192	4
NMTAP	14	288	5
NMSTR	15	0	6
NMSCL	15	0	6	96	48	3
NMTAP	15	48	7
NMSTR	15	192	6
NMSCL	15	192	6	96	48	3
NMTTP	15	240	7	A	0	M1
NMSTR	16	0	2
NMSUR	16	0	2	96	96	4
NMTAP	16	288	0
NMTAP	16	288	5
NMTHO	17	0	2	576	B	0	M1
NMTHO	17	0	2	576	E	0	M1
NMTHO	17	0	3	576	E	0	M1
NMTTP	17	96	4	E	0	M1
NMTTP	17	192	5	E	0	M1
NMTTP	17	288	6	E	0	M1
NMTTP	18	0	7	E	0	M1
NMTTP	18	96	0	E	0	M1
NMTTP	18	192	1	E	0	M1
NMTTP	18	288	0	C	0	M1
NMTHO	19	0	5	576	B	0	M1
NMTHO	19	0	5	576	E	0	M1
NMTHO	19	0	6	576	E	0	M1
NMTTP	19	96	4	E	0	M1
NMTTP	19	192	3	E	0	M1
NMTTP	19	288	2	E	0	M1
NMTTP	20	0	1	E	0	M1
NMTTP	20	96	0	E	0	M1
NMTTP	20	192	7	E	0	M1
NMTTP	20	288	4	E	0	M1
NMTAP	21	0	1
NMTAP	21	0	3
NMTAP	21	48	3
NMTAP	21	96	2
NMTAP	21	96	4
NMTAP	21	144	2
NMTAP	21	192	3
NMTAP	21	192	5
NMTAP	21	240	5
NMTAP	21	288	4
NMTAP	21	288	6
NMTAP	21	336	4
NMTAP	22	0	3
NMTAP	22	0	7
NMTAP	22	48	7
NMTAP	22	96	2
NMTAP	22	96	6
NMTAP	22	144	2
NMTAP	22	192	1
NMTAP	22	192	5
NMTAP	22	240	5
NMTAP	22	288	0
NMTAP	22	288	4
NMTAP	22	336	0
NMTAP	22	336	4
NMTAP	23	0	1
NMTAP	23	32	1
NMTAP	23	48	3
NMTAP	23	80	3
NMTAP	23	96	2
NMTAP	23	128	2
NMTAP	23	144	4
NMTAP	23	176	4
NMTAP	23	192	3
NMTAP	23	224	3
NMTAP	23	240	5
NMTAP	23	272	5
NMTAP	23	288	4
NMTAP	23	336	3
NMTAP	23	336	6
NMTAP	24	0	5
NMTAP	24	24	4
NMTAP	24	48	5
NMTAP	24	72	4
NMSTR	24	96	5
NMSI_	24	96	5	96	48	0
NMSI_	24	96	5	96	48	1
NMTAP	24	144	4
NMTAP	24	144	6
BRTAP	24	192	5
NMTAP	24	288	2
NMTAP	24	288	7
NMSTR	25	0	1
NMSI_	25	0	1	96	48	4
NMTAP	25	0	5
NMTAP	25	96	1
NMSTR	25	96	6
NMSI_	25	96	6	96	48	3
NMTAP	25	144	7
NMSTR	25	192	1
NMSI_	25	192	1	96	48	4
NMTAP	25	192	6
NMTAP	25	240	0
NMTAP	25	288	1
NMSTR	25	288	6
NMSI_	25	288	6	96	48	3
NMTAP	25	336	7
NMTAP	26	0	1
NMTAP	26	0	6
NMTAP	26	48	0
NMHLD	26	96	1	48
NMHLD	26	96	5	48
NMTAP	26	192	0
NMTAP	26	192	4
NMTAP	26	240	0
NMTAP	26	240	4
BRTAP	26	288	2
BRTAP	26	288	6
NMSTR	27	0	1
NMSI_	27	0	1	96	48	4
NMTAP	27	0	5
NMTAP	27	96	1
NMSTR	27	96	6
NMSI_	27	96	6	96	48	3
NMTTP	27	144	7	A	0	M1
NMSTR	27	192	1
NMSI_	27	192	1	96	48	4
NMTAP	27	192	6
NMTTP	27	240	0	A	0	M1
NMTAP	27	288	1
NMSTR	27	288	6
NMSI_	27	288	6	96	48	3
NMTTP	27	336	7	A	0	M1
NMTAP	28	0	1
NMTAP	28	0	6
NMTTP	28	48	0	A	0	M1
NMHLD	28	96	2	48
NMHLD	28	96	6	48
NMTAP	28	192	0
NMTAP	28	192	4
NMTAP	28	216	0
NMTAP	28	216	4
NMTAP	28	264	2
NMTAP	28	264	6
BRTAP	28	288	2
BRTAP	28	288	6
NMSTR	29	0	0
NMSI_	29	0	0	96	48	4
NMTAP	29	0	7
NMTAP	29	96	0
NMSTR	29	96	7
NMSI_	29	96	7	96	48	3
NMTAP	29	144	6
NMSTR	29	192	0
NMSI_	29	192	0	96	48	4
NMTAP	29	192	7
NMTAP	29	240	1
NMTAP	29	288	0
NMSTR	29	288	7
NMSI_	29	288	7	96	48	3
NMTAP	29	336	6
NMTAP	30	0	0
NMTAP	30	0	7
NMTAP	30	48	1
NMHLD	30	96	0	48
NMHLD	30	96	6	48
EXTAP	30	192	1
EXTAP	30	192	3
EXTAP	30	240	1
EXTAP	30	240	3
BRTAP	30	288	0
BRTAP	30	288	4
NMSTR	31	0	0
NMSI_	31	0	0	96	48	4
NMTAP	31	0	7
NMTAP	31	96	0
NMSTR	31	96	7
NMSI_	31	96	7	96	48	3
NMTTP	31	144	6	E	0	M1
NMSTR	31	192	0
NMSI_	31	192	0	96	48	4
NMTAP	31	192	7
NMTTP	31	240	2	E	0	M1
NMTAP	31	288	0
NMTAP	31	288	7
NMTTP	31	336	6	E	0	M1
NMHLD	32	0	1	48
NMHLD	32	0	7	48
NMHLD	32	96	0	48
NMHLD	32	96	6	48
NMHLD	32	192	2	48
NMHLD	32	192	4	48
BRTAP	32	288	1
BRTAP	32	288	5
NMSTR	33	0	2
NMSI_	33	0	2	96	48	7
NMTAP	33	0	5
NMTAP	33	96	2
NMSTR	33	96	5
NMSI_	33	96	5	96	48	0
NMTAP	33	144	4
NMSTR	33	192	2
NMSI_	33	192	2	96	48	7
NMTAP	33	192	5
NMTAP	33	240	3
NMTAP	33	288	2
NMSTR	33	288	5
NMSI_	33	288	5	96	48	0
NMTAP	33	336	4
NMTAP	34	0	2
NMTAP	34	0	5
NMTAP	34	48	3
NMHLD	34	96	2	48
NMHLD	34	96	4	48
NMTAP	34	192	3
NMTAP	34	192	6
NMTAP	34	240	3
NMTAP	34	240	6
BRTAP	34	288	1
BRTAP	34	288	5
NMSTR	35	0	2
NMSI_	35	0	2	96	48	7
NMTAP	35	0	4
NMTAP	35	96	2
NMSTR	35	96	5
NMSI_	35	96	5	96	48	0
NMTTP	35	144	4	A	0	M1
NMSTR	35	192	2
NMSI_	35	192	2	96	48	7
NMTAP	35	192	5
NMTTP	35	240	3	A	0	M1
NMTAP	35	288	2
NMSTR	35	288	5
NMSI_	35	288	5	96	48	0
NMTTP	35	336	4	A	0	M1
NMTAP	36	0	2
NMTAP	36	0	5
NMTTP	36	48	3	A	0	M1
NMHLD	36	96	2	48
NMHLD	36	96	4	48
NMTAP	36	192	3
NMTAP	36	192	5
NMTAP	36	216	3
NMTAP	36	216	5
NMTAP	36	264	2
NMTAP	36	264	6
BRTAP	36	288	2
BRTAP	36	288	6
NMSTR	37	0	3
NMSI_	37	0	3	96	48	7
NMTAP	37	0	4
NMTAP	37	96	3
NMSTR	37	96	4
NMSI_	37	96	4	96	48	0
NMTAP	37	144	5
NMSTR	37	192	3
NMSI_	37	192	3	96	48	7
NMTAP	37	192	4
NMTAP	37	240	2
NMTAP	37	288	3
NMSTR	37	288	4
NMSI_	37	288	4	96	48	0
NMTAP	37	336	5
NMTAP	38	0	3
NMTAP	38	0	4
NMTAP	38	48	2
NMHLD	38	96	3	48
NMHLD	38	96	5	48
NMTAP	38	192	2
NMTAP	38	192	6
NMTAP	38	240	2
NMTAP	38	240	6
BRTAP	38	288	3
BRTAP	38	288	7
NMSTR	39	0	3
NMSI_	39	0	3	96	48	7
NMTAP	39	0	4
NMTAP	39	96	3
NMSTR	39	96	4
NMSI_	39	96	4	96	48	0
NMTTP	39	144	6	E	0	M1
NMSTR	39	192	3
NMSI_	39	192	3	96	48	7
NMTAP	39	192	4
NMTTP	39	240	2	E	0	M1
NMTAP	39	288	3
NMTAP	39	288	4
NMTTP	39	336	6	E	0	M1
EXTAP	40	0	0
EXTAP	40	0	6
NMTAP	40	48	0
NMTAP	40	48	6
NMTAP	40	96	1
NMTAP	40	96	2
NMTAP	40	144	4
NMTAP	40	144	5
NMTAP	40	192	5
NMTAP	40	192	7
NMTAP	40	240	0
NMTAP	40	240	1
BRTAP	40	288	3
BRTAP	40	288	7
NMHLD	41	0	2	288
NMHLD	41	336	4	144
NMHLD	42	144	3	96
NMHLD	42	288	4	48
NMHLD	43	0	4	192
NMHLD	43	240	5	48
NMHLD	43	336	5	144
NMTAP	44	192	6
NMTAP	44	240	5
NMTAP	44	288	4
NMTAP	44	336	3
NMHLD	45	0	2	288
NMHLD	45	336	4	144
NMHLD	46	144	3	96
NMHLD	46	288	4	48
NMHLD	47	0	4	192
NMHLD	47	240	3	48
NMHLD	47	336	2	144
NMTAP	48	192	2
NMTAP	48	240	3
NMTAP	48	288	4
NMTAP	48	336	5
NMHLD	49	0	6	288
NMTTP	49	48	5	E	0	M1
NMTTP	49	144	4	B	0	M1
NMTTP	49	240	3	B	0	M1
NMTTP	49	336	3	E	0	M1
NMHLD	49	336	5	144
NMTTP	50	48	5	E	0	M1
NMTTP	50	144	4	B	0	M1
NMHLD	50	144	6	96
NMTTP	50	240	3	B	0	M1
NMHLD	50	288	7	48
NMTTP	50	336	3	E	0	M1
NMHLD	51	0	7	192
NMTTP	51	48	5	E	0	M1
NMTTP	51	144	4	B	0	M1
NMHLD	51	240	0	48
NMTTP	51	240	3	B	0	M1
NMHLD	51	336	0	144
NMTTP	51	336	3	E	0	M1
NMTTP	52	48	5	E	0	M1
NMTTP	52	144	4	B	0	M1
NMHLD	52	144	7	96
NMTTP	52	240	3	B	0	M1
NMTAP	52	288	2
NMTAP	52	288	6
NMHLD	53	0	1	288
NMTTP	53	48	3	E	0	M1
NMTTP	53	144	3	B	0	M1
NMTTP	53	240	4	B	0	M1
NMHLD	53	336	2	144
NMTTP	53	336	5	E	0	M1
NMTTP	54	48	3	E	0	M1
NMHLD	54	144	1	96
NMTTP	54	144	3	B	0	M1
NMTTP	54	240	4	B	0	M1
NMHLD	54	288	0	48
NMTTP	54	336	5	E	0	M1
NMSTR	55	0	1
NMSXR	55	0	1	96	192	6
NMTTP	55	48	3	E	0	M1
NMTTP	55	144	3	B	0	M1
NMTTP	55	240	4	B	0	M1
NMTTP	55	336	5	E	0	M1
NMSTR	56	0	6
NMSXL	56	0	6	96	192	1
NMTTP	56	48	3	E	0	M1
NMTTP	56	144	3	B	0	M1
NMTTP	56	240	4	B	0	M1
EXTAP	56	288	5
NMTAP	57	0	2
NMTAP	57	0	3
NMTAP	57	72	2
NMTTP	57	96	4	B	0	M1
NMTAP	57	144	1
NMTTP	57	192	3	B	0	M1
NMTAP	57	216	1
NMTAP	57	240	1
NMTTP	57	288	4	B	0	M1
NMTAP	57	336	2
NMTTP	58	0	3	B	0	M1
NMTAP	58	72	1
NMTTP	58	96	4	B	0	M1
NMTAP	58	144	2
NMTTP	58	192	3	B	0	M1
NMTAP	58	216	1
NMTAP	58	240	1
NMTTP	58	288	4	E	0	M1
NMTAP	59	0	4
NMTAP	59	0	5
NMTAP	59	72	5
NMTTP	59	96	3	A	0	M1
NMTAP	59	144	6
NMTTP	59	192	4	A	0	M1
NMTAP	59	216	6
NMTAP	59	240	6
NMTTP	59	288	3	A	0	M1
NMTAP	59	336	5
NMTTP	60	0	4	A	0	M1
NMTAP	60	72	6
NMTTP	60	96	3	A	0	M1
NMTAP	60	144	5
NMTTP	60	192	4	A	0	M1
NMTAP	60	216	6
NMTAP	60	240	6
NMTTP	60	288	4	D	0	M1
NMTAP	61	0	3
NMTAP	61	0	5
NMTAP	61	48	4
NMTAP	61	96	2
NMTAP	61	96	4
NMTAP	61	144	3
NMTAP	61	192	3
NMTAP	61	192	6
NMTAP	61	240	5
NMTAP	61	288	1
NMTAP	61	288	4
NMTAP	61	336	2
NMTAP	62	0	3
NMTAP	62	0	7
NMTAP	62	48	6
NMTAP	62	96	2
NMTAP	62	96	5
NMTAP	62	144	1
NMTAP	62	192	0
NMTAP	62	192	3
NMTAP	62	240	4
NMTAP	62	288	3
NMTAP	62	288	5
NMTAP	62	336	3
NMTAP	62	336	5
NMTAP	63	0	6
NMTAP	63	32	6
NMTAP	63	48	4
NMTAP	63	80	4
NMTAP	63	96	5
NMTAP	63	128	5
NMTAP	63	144	3
NMTAP	63	176	3
NMTAP	63	192	4
NMTAP	63	224	4
NMTAP	63	240	2
NMTAP	63	272	2
NMTAP	63	288	3
NMTAP	63	336	1
NMTAP	63	336	4
EXHLD	64	0	2	48
EXHLD	64	0	3	48
NMHLD	64	96	1	48
NMHLD	64	96	4	48
NMHLD	64	192	3	48
NMHLD	64	192	6	48
BRTAP	64	288	0
BRTAP	64	288	7
NMSTR	65	0	1
NMSCR	65	0	1	96	48	4
NMTAP	65	0	6
NMTAP	65	96	1
NMSTR	65	96	7
NMSI_	65	96	7	96	48	3
NMTAP	65	144	6
NMSTR	65	192	0
NMSI_	65	192	0	96	48	4
NMTAP	65	192	7
NMTAP	65	240	1
NMTAP	65	288	0
NMSTR	65	288	6
NMSCL	65	288	6	96	48	3
NMTAP	65	336	7
NMTAP	66	0	1
NMTAP	66	0	6
NMTAP	66	48	0
NMHLD	66	96	2	48
NMHLD	66	96	6	48
NMTAP	66	192	1
NMTAP	66	192	5
NMTAP	66	240	1
NMTAP	66	240	5
BRTAP	66	288	3
BRTAP	66	288	7
NMSTR	67	0	1
NMSCR	67	0	1	96	48	4
NMTAP	67	0	6
NMTAP	67	96	1
NMSTR	67	96	7
NMSI_	67	96	7	96	48	3
NMTTP	67	144	5	B	0	M1
NMTTP	67	144	6	E	0	M1
NMSTR	67	192	0
NMSI_	67	192	0	96	48	4
NMTAP	67	192	7
NMTTP	67	240	1	B	0	M1
NMTTP	67	240	2	E	0	M1
NMTAP	67	288	0
NMSTR	67	288	6
NMSCL	67	288	6	96	48	3
NMTTP	67	336	7	E	0	M1
NMTTP	67	336	7	A	0	M1
NMTAP	68	0	1
NMTAP	68	0	6
NMTTP	68	48	0	E	0	M1
NMTTP	68	48	0	A	0	M1
NMHLD	68	96	1	48
NMHLD	68	96	5	48
NMTAP	68	192	2
NMTAP	68	192	6
NMTAP	68	216	2
NMTAP	68	216	6
NMTAP	68	264	0
NMTAP	68	264	4
BRTAP	68	288	0
BRTAP	68	288	4
NMSTR	69	0	2
NMSI_	69	0	2	96	48	6
NMTAP	69	0	3
NMTAP	69	96	2
NMSTR	69	96	3
NMSI_	69	96	3	96	48	7
NMTAP	69	144	4
NMSTR	69	192	2
NMSI_	69	192	2	96	48	6
NMTAP	69	192	3
NMTAP	69	240	1
NMTAP	69	288	2
NMSTR	69	288	3
NMSI_	69	288	3	96	48	7
NMTAP	69	336	4
NMTAP	70	0	2
NMTAP	70	0	3
NMTAP	70	48	1
NMHLD	70	96	2	48
NMHLD	70	96	4	48
NMTAP	70	192	1
NMTAP	70	192	5
NMTAP	70	240	1
NMTAP	70	240	5
BRTAP	70	288	3
BRTAP	70	288	7
NMSTR	71	0	2
NMSI_	71	0	2	96	48	6
NMTAP	71	0	3
NMTAP	71	96	2
NMSTR	71	96	3
NMSI_	71	96	3	96	48	7
NMTTP	71	144	4	A	0	M1
NMTTP	71	144	5	E	0	M1
NMTTP	71	144	5	A	0	M1
NMSTR	71	192	2
NMSI_	71	192	2	96	48	6
NMTAP	71	192	3
NMTTP	71	240	0	A	0	M1
NMTTP	71	240	1	E	0	M1
NMTTP	71	240	1	A	0	M1
NMTAP	71	288	2
NMTAP	71	288	3
NMTTP	71	336	4	A	0	M1
NMTTP	71	336	5	E	0	M1
NMTTP	71	336	5	A	0	M1
NMHLD	72	0	1	48
NMHLD	72	0	3	48
NMHLD	72	96	0	48
NMHLD	72	96	7	48
NMTAP	72	192	4
NMTAP	72	192	6
NMTAP	72	240	3
NMTAP	72	240	5
BRTAP	72	288	1
BRTAP	72	288	4
NMSTR	73	0	0
NMSUR	73	0	0	96	48	4
NMTAP	73	96	0
NMSTR	73	96	6
NMSCL	73	96	6	96	48	3
NMTAP	73	144	7
NMSTR	73	192	1
NMSCL	73	192	1	96	48	6
NMTAP	73	192	6
NMTAP	73	240	2
NMTAP	73	288	1
NMSTR	73	288	4
NMSI_	73	288	4	96	48	7
NMTAP	73	336	3
NMTAP	74	0	2
NMTAP	74	0	4
NMTAP	74	48	1
NMHLD	74	96	0	48
NMHLD	74	96	4	48
NMTAP	74	192	1
NMTAP	74	192	3
NMTAP	74	240	1
NMTAP	74	240	3
BRTAP	74	288	2
BRTAP	74	288	6
NMSTR	75	0	0
NMSUR	75	0	0	96	48	4
NMTAP	75	0	4
NMTAP	75	96	0
NMSTR	75	96	6
NMSCL	75	96	6	96	48	3
NMTTP	75	144	0	E	0	M1
NMTTP	75	144	7	B	0	M1
NMTTP	75	144	7	E	0	M1
NMSTR	75	192	1
NMSCL	75	192	1	96	48	6
NMTAP	75	192	6
NMTTP	75	240	2	A	0	M1
NMTTP	75	240	2	D	0	M1
NMTTP	75	240	3	D	0	M1
NMTAP	75	288	1
NMSTR	75	288	4
NMSI_	75	288	4	96	48	7
NMTTP	75	336	3	B	0	M1
NMTTP	75	336	3	E	0	M1
NMTTP	75	336	4	E	0	M1
NMTAP	76	0	2
NMTAP	76	0	4
NMTTP	76	48	1	A	0	M1
NMTTP	76	48	1	D	0	M1
NMTTP	76	48	2	D	0	M1
NMHLD	76	96	3	48
NMHLD	76	96	5	48
NMTAP	76	192	7
NMHLD	76	216	7	48
NMTAP	76	264	3
BRTAP	76	288	1
BRTAP	76	288	5
NMTAP	77	0	2
NMSTR	77	0	6
NMSI_	77	0	6	96	48	3
NMSTR	77	96	0
NMSI_	77	96	0	96	48	5
NMTAP	77	96	6
NMTAP	77	144	1
NMTAP	77	192	0
NMSTR	77	192	2
NMSI_	77	192	2	96	48	7
NMTAP	77	240	3
NMTAP	77	288	2
NMSTR	77	288	4
NMSI_	77	288	4	96	48	1
NMTAP	77	336	5
NMTAP	78	0	4
NMTAP	78	0	6
NMTAP	78	48	7
NMHLD	78	96	0	48
NMHLD	78	96	6	48
NMTAP	78	192	2
NMTAP	78	192	4
NMTAP	78	240	2
NMTAP	78	240	4
BRTAP	78	288	1
BRTAP	78	288	5
NMTAP	79	0	2
NMSTR	79	0	6
NMSI_	79	0	6	96	48	3
NMSTR	79	96	0
NMSI_	79	96	0	96	48	5
NMTAP	79	96	6
NMTTP	79	144	1	B	0	M1
NMTTP	79	144	1	A	0	M1
NMTAP	79	192	0
NMSTR	79	192	2
NMSI_	79	192	2	96	48	7
NMTTP	79	240	3	B	0	M1
NMTTP	79	240	3	A	0	M1
NMTAP	79	288	2
NMTAP	79	288	4
NMTTP	79	336	5	B	0	M1
NMTTP	79	336	5	A	0	M1
NMTAP	80	0	0
NMSTR	80	0	6
NMSCL	80	0	6	96	96	0
NMSTR	80	96	0
NMSCR	80	96	0	96	96	6
NMTAP	80	144	7
NMTAP	80	192	6
NMTAP	80	240	7
BRSTR	80	288	7
BRSF_	80	288	7	96	48	3
NMTTP	81	0	7	B	0	M1
NMTTP	81	12	0	C	1	M1
NMTTP	81	24	2	B	0	M1
NMTTP	81	24	3	B	0	M1
NMTTP	81	24	4	B	0	M1

T_REC_TAP	352
T_REC_BRK	34
T_REC_XTP	13
T_REC_BXX	0
T_REC_HLD	78
T_REC_XHO	2
T_REC_BHO	2
T_REC_BXH	0
T_REC_STR	74
T_REC_BST	1
T_REC_XST	0
T_REC_XBS	0
T_REC_TTP	129
T_REC_THO	6
T_REC_SLD	75
T_REC_BSL	1
T_REC_ALL	767
T_NUM_TAP	568
T_NUM_BRK	38
T_NUM_HLD	86
T_NUM_SLD	75
T_NUM_ALL	767
T_JUDGE_TAP	603
T_JUDGE_HLD	269
T_JUDGE_SLD	76
T_JUDGE_ALL	948
TTM_EACHPAIRS	176
TTM_SCR_TAP	284000
TTM_SCR_BRK	98800
TTM_SCR_HLD	86000
TTM_SCR_SLD	112500
TTM_SCR_ALL	581300
TTM_SCR_S	560200
TTM_SCR_SS	577500
TTM_RAT_ACV	10065

