VERSION	0.00.00	1.05.00
FES_MODE	0
BPM_DEF	130.000	130.000	130.000	130.000
MET_DEF	4	4
RESOLUTION	384
CLK_DEF	384
COMPATIBLE_CODE	MA2

BPM	0	0	130.000
MET	0	0	4	4

NMTAP	1	0	3
NMHLD	1	0	4	288
NMTAP	1	96	3
NMTAP	1	192	3
NMTAP	1	288	3
NMHLD	2	0	2	288
NMTAP	2	0	3
NMTAP	2	96	3
NMTAP	2	192	3
NMTAP	2	288	3
NMTAP	3	0	3
NMHLD	3	0	5	288
NMTAP	3	96	3
NMTAP	3	192	3
NMTAP	3	288	3
NMTAP	4	0	3
NMTAP	4	0	5
NMTAP	4	96	3
NMTAP	4	96	5
NMTAP	4	192	3
NMTAP	4	192	4
NMTAP	4	288	2
NMTAP	4	288	3
BXHLD	5	0	2	96
NMTAP	5	0	3
NMTAP	5	96	3
NMTAP	5	192	1
NMTAP	5	192	3
NMTAP	5	288	1
NMTAP	5	288	3
NMHLD	6	0	0	96
NMTAP	6	0	3
NMTAP	6	96	3
NMTAP	6	192	3
NMTAP	6	192	7
NMTAP	6	288	3
NMTAP	6	288	7
NMTAP	7	0	3
NMHLD	7	0	6	96
NMTAP	7	96	3
NMTAP	7	192	3
NMTAP	7	192	5
NMTAP	7	288	3
NMSTR	7	288	5
BRSCR	7	288	5	96	192	3
BRTAP	8	288	0
BRTAP	8	288	6
NMTAP	9	0	1
NMTAP	9	0	7
NMTAP	9	96	2
NMTAP	9	144	2
NMTAP	9	192	0
NMTAP	9	192	2
NMTAP	9	288	3
NMTAP	9	288	7
NMTAP	10	0	4
NMHLD	10	0	6	192
NMTAP	10	96	5
NMTAP	10	144	5
NMTAP	10	192	5
NMSTR	10	288	6
NMSI_	10	288	6	96	96	3
NMSTR	10	288	7
NMSI_	10	288	7	96	96	2
NMTAP	11	192	1
NMTAP	11	240	1
NMSTR	11	288	0
NMSI_	11	288	0	96	96	4
NMSTR	11	288	1
NMSI_	11	288	1	96	96	5
NMTAP	12	192	6
NMTAP	12	240	6
NMTAP	12	288	6
NMTAP	12	288	7
BRTAP	13	0	0
BRTAP	13	0	5
NMTAP	13	96	2
NMTAP	13	144	2
NMTAP	13	192	0
NMTAP	13	192	2
NMTAP	13	288	3
NMTAP	13	288	7
NMHLD	14	0	4	192
NMTAP	14	0	6
NMTAP	14	96	2
NMTAP	14	144	2
NMTAP	14	192	2
NMSTR	14	288	0
NMSI_	14	288	0	96	96	4
NMSTR	14	288	1
NMSI_	14	288	1	96	96	5
NMTAP	15	192	6
NMTAP	15	240	6
NMSTR	15	288	6
NMSI_	15	288	6	96	96	2
NMSTR	15	288	7
NMSI_	15	288	7	96	96	3
NMTAP	16	192	1
NMTAP	16	192	4
NMTAP	16	240	1
NMTAP	16	240	4
NMTAP	16	288	1
NMTAP	16	288	4
NMHLD	17	0	2	96
NMHLD	17	96	1	96
NMHLD	17	192	0	96
NMHLD	17	288	7	96
NMHLD	18	0	6	96
NMHLD	18	96	5	96
NMTAP	18	192	4
NMTAP	18	240	4
NMTAP	18	288	4
NMTAP	18	288	6
NMHLD	19	0	4	96
NMHLD	19	96	5	96
NMHLD	19	192	6	96
NMHLD	19	288	7	96
NMHLD	20	0	0	96
NMSTR	20	96	1
NMSLR	20	96	1	96	120	5
EXTAP	20	192	0
NMTAP	21	0	6
NMTAP	21	48	6
NMTAP	21	96	4
NMTAP	21	144	4
NMTAP	21	192	5
NMTAP	21	240	5
NMTAP	21	288	3
NMTAP	21	336	3
NMTAP	22	0	4
NMTAP	22	48	4
NMTAP	22	96	2
NMTAP	22	144	2
NMTAP	22	192	3
NMTAP	22	240	3
NMTAP	22	288	1
NMTAP	22	336	1
NMTAP	23	0	0
NMTAP	23	48	7
NMTAP	23	96	6
NMTAP	23	144	5
NMTAP	23	192	4
NMTAP	23	240	3
NMTAP	23	288	2
NMTAP	23	336	1
NMHLD	24	0	0	192
NMTAP	24	0	6
NMSTR	24	192	7
BRSI_	24	192	7	96	48	3
BXTAP	25	0	2
BXTAP	25	0	4
NMHLD	25	96	1	48
NMHLD	25	96	3	48
NMHLD	25	192	1	48
NMHLD	25	192	3	48
NMHLD	25	288	3	48
NMHLD	25	288	5	48
NMHLD	26	0	1	48
NMHLD	26	0	3	48
NMHLD	26	96	3	48
NMHLD	26	96	6	48
NMTAP	26	192	2
NMTAP	26	192	5
NMTAP	26	240	1
NMTAP	26	240	4
BRTAP	26	288	0
BRTAP	26	288	3
NMTAP	27	0	0
NMTAP	27	0	7
NMHLD	27	96	4	48
NMHLD	27	96	6	48
NMHLD	27	192	4	48
NMHLD	27	192	6	48
NMHLD	27	288	2	48
NMHLD	27	288	4	48
NMHLD	28	0	5	48
NMHLD	28	0	6	48
NMSTR	28	96	0
NMSUR	28	96	0	96	96	5
NMSTR	28	96	1
NMSCR	28	96	1	96	96	4
BRTAP	29	0	3
BRTAP	29	0	6
NMHLD	29	96	0	48
NMHLD	29	96	1	48
NMHLD	29	192	0	48
NMHLD	29	192	1	48
NMHLD	29	288	5	48
NMHLD	29	288	7	48
NMHLD	30	0	0	48
NMHLD	30	0	7	48
NMHLD	30	96	4	48
NMHLD	30	96	6	48
NMTAP	30	192	3
NMTAP	30	192	7
NMTAP	30	240	2
NMTAP	30	240	6
BRTAP	30	288	1
BRTAP	30	288	5
NMTAP	31	0	0
NMTAP	31	0	7
NMHLD	31	96	2	48
NMHLD	31	96	3	48
NMHLD	31	192	0	48
NMHLD	31	192	6	48
NMHLD	31	288	4	48
NMHLD	31	288	5	48
NMTAP	32	0	3
NMTAP	32	0	6
NMTTP	32	96	5	B	0	M1
NMTTP	32	192	0	E	0	M1
NMTTP	32	288	2	B	1	M1
BRTAP	33	0	0
NMHLD	33	96	1	48
NMHLD	33	96	3	48
NMHLD	33	192	3	48
NMHLD	33	192	5	48
NMHLD	33	288	0	48
NMHLD	33	288	2	48
NMHLD	34	0	5	48
NMHLD	34	0	7	48
NMHLD	34	96	1	48
NMHLD	34	96	3	48
NMTAP	34	192	0
NMTAP	34	192	4
NMTAP	34	240	0
NMTAP	34	240	4
BRSTR	34	288	2
NMSCR	34	288	2	96	48	5
BRTAP	34	288	6
NMHLD	35	96	6	48
NMHLD	35	96	7	48
NMHLD	35	192	2	48
NMHLD	35	192	4	48
NMHLD	35	288	4	48
NMHLD	35	288	6	48
NMHLD	36	0	0	48
NMHLD	36	0	3	48
NMHLD	36	96	5	48
NMHLD	36	96	7	48
NMTAP	36	192	0
NMSTR	36	192	4
BRSI_	36	192	4	96	48	0
BRTAP	37	0	1
BRTAP	37	0	7
NMHLD	37	96	0	48
NMHLD	37	96	2	48
NMHLD	37	192	4	48
NMHLD	37	192	6	48
NMHLD	37	288	1	48
NMHLD	37	288	3	48
NMHLD	38	0	5	48
NMHLD	38	0	7	48
NMHLD	38	96	1	48
NMHLD	38	96	7	48
NMTAP	38	192	2
NMTAP	38	192	6
NMTAP	38	240	2
NMTAP	38	240	6
BRSTR	38	288	0
BRSI_	38	288	0	96	48	4
BRTAP	38	288	4
NMTAP	39	96	5
NMTAP	39	144	5
NMTAP	39	192	4
NMTAP	39	240	6
NMTAP	39	288	0
NMTAP	39	336	7
NMHLD	40	0	1	72
NMHLD	40	72	3	72
NMHLD	40	144	4	72
NMTAP	40	216	5
BXSTR	40	288	0
BRSI_	40	288	0	96	48	4
BXSTR	40	288	7
BRSI_	40	288	7	96	48	3
NMTHO	42	0	4	144	A	0	M1
NMTHO	42	0	5	144	E	0	M1
NMTHO	42	0	5	144	A	0	M1
NMTHO	43	0	0	144	E	0	M1
NMTHO	43	0	0	144	A	0	M1
NMTHO	43	0	7	144	A	0	M1
NMTHO	44	0	2	144	A	0	M1
NMTHO	44	0	3	144	E	0	M1
NMTHO	44	0	3	144	A	0	M1
NMHLD	45	0	0	288
NMTAP	45	0	1
NMTAP	45	288	1
NMTAP	46	0	1
NMHLD	46	0	2	288
NMTAP	46	288	1
NMHLD	47	0	2	288
NMTAP	47	0	3
NMTAP	47	288	3
NMHLD	48	0	4	288
NMHLD	48	192	2	96
NMTAP	49	0	4
NMTAP	49	48	4
NMTAP	49	144	3
NMTAP	49	144	5
NMTAP	49	240	3
NMTAP	49	240	5
NMTAP	49	336	5
NMTAP	50	0	4
NMTAP	50	48	3
NMTAP	50	48	5
NMTAP	50	144	5
NMTAP	50	240	5
NMTAP	50	336	5
NMTAP	51	0	4
NMTAP	51	48	3
NMTAP	51	48	5
NMTAP	51	144	5
NMTAP	51	240	5
NMTAP	51	336	5
NMTAP	52	0	4
NMTAP	52	48	3
NMTAP	52	48	5
NMTAP	52	144	5
NMTAP	52	240	4
NMTAP	52	240	6
NMHLD	52	288	4	288
NMTAP	52	288	6
NMHLD	53	0	5	96
NMTAP	53	192	5
NMTAP	53	288	2
NMHLD	53	288	3	288
NMHLD	54	0	1	96
NMTAP	54	192	2
NMHLD	54	288	4	288
NMTAP	54	288	5
NMHLD	55	0	6	96
NMTAP	55	192	5
NMTAP	55	288	4
NMTAP	55	288	5
NMHLD	56	0	3	96
NMHLD	56	0	4	96
NMTAP	56	192	2
NMTAP	56	192	5
NMTAP	56	288	2
NMTAP	56	288	5
NMTTP	57	0	5	E	0	M1
NMTTP	57	96	6	E	0	M1
NMTTP	57	192	7	E	0	M1
NMTTP	57	288	0	E	0	M1
NMTTP	58	0	0	C	0	M1
NMTTP	58	0	1	E	0	M1
NMTTP	58	96	2	E	0	M1
NMTTP	58	192	3	E	0	M1
NMTTP	58	288	4	E	0	M1
NMTTP	59	0	0	C	0	M1
NMTTP	59	0	5	E	0	M1
NMTTP	59	96	6	E	0	M1
NMTTP	59	192	7	E	0	M1
NMTTP	59	288	0	E	0	M1
NMTTP	60	0	0	C	0	M1
NMTTP	60	0	1	E	0	M1
NMTTP	60	96	2	E	0	M1
NMTTP	60	192	3	E	0	M1
NMTTP	60	288	4	B	0	M1
NMTTP	60	288	4	E	0	M1
NMTAP	61	0	2
NMTAP	61	48	2
NMTAP	61	96	1
NMTAP	61	144	1
NMTAP	61	192	0
NMTAP	61	240	0
NMTAP	61	288	7
NMTAP	61	336	7
NMTAP	62	0	6
NMTAP	62	48	6
NMTAP	62	96	5
NMTAP	62	144	5
NMTAP	62	192	4
NMTAP	62	240	4
NMTAP	62	288	3
NMTAP	62	336	3
NMTAP	63	0	3
NMTAP	63	24	4
NMTAP	63	48	3
NMTAP	63	72	4
NMTAP	63	96	3
NMTAP	63	120	4
NMTAP	63	144	3
NMTAP	63	168	4
NMTAP	63	192	3
NMTAP	63	216	4
NMTAP	63	240	3
NMTAP	63	264	4
NMTAP	63	288	3
NMTAP	63	312	4
NMTAP	63	336	3
NMTAP	63	360	4
NMHLD	64	0	2	192
NMTAP	64	192	4
NMTAP	64	240	1
NMTAP	64	240	5
BRTAP	64	288	0
BRSTR	64	288	6
NMSI_	64	288	6	96	48	3
NMSTR	65	0	7
NMSI_	65	0	7	96	48	2
NMSTR	65	96	6
NMSI_	65	96	6	96	48	4
NMSTR	65	192	7
NMSI_	65	192	7	96	48	3
NMSTR	65	288	6
NMSI_	65	288	6	96	48	2
NMSTR	66	0	7
NMSI_	66	0	7	96	48	1
NMTAP	66	96	4
NMTAP	66	192	3
NMTAP	66	192	5
NMTAP	66	240	3
NMTAP	66	240	5
BRSTR	66	288	1
NMSI_	66	288	1	96	48	4
BRTAP	66	288	7
NMSTR	67	0	0
NMSI_	67	0	0	96	48	5
NMSTR	67	96	1
NMSI_	67	96	1	96	48	3
NMSTR	67	192	0
NMSI_	67	192	0	96	48	4
NMSTR	67	288	1
NMSI_	67	288	1	96	48	5
NMSTR	68	0	0
NMSI_	68	0	0	96	48	6
NMSTR	68	96	3
NMSUR	68	96	3	96	120	4
BXTAP	68	288	7
NMSTR	69	0	6
NMSI_	69	0	6	96	48	2
NMSTR	69	96	7
NMSI_	69	96	7	96	48	3
NMSTR	69	192	5
NMSI_	69	192	5	96	48	1
NMSTR	69	288	4
NMSI_	69	288	4	96	48	0
NMSTR	70	0	6
NMSI_	70	0	6	96	48	2
NMTAP	70	96	7
NMTAP	70	192	0
NMTAP	70	192	4
NMTAP	70	240	1
NMTAP	70	240	5
BRSTR	70	288	2
BRSI_	70	288	2	96	48	7
BRSTR	70	288	6
BRSI_	70	288	6	96	48	3
NMTAP	71	96	0
NMTAP	71	144	0
NMTAP	71	192	4
NMTAP	71	240	4
NMHLD	71	288	2	288
NMTHO	72	0	3	192	B	0	M1
NMTHO	72	0	4	192	B	0	M1
NMTHO	72	0	4	192	E	0	M1
BRSTR	72	288	0
BRSI_	72	288	0	96	48	6
BRTAP	72	288	6
NMSTR	73	0	5
NMSI_	73	0	5	96	48	0
NMSTR	73	96	4
NMSI_	73	96	4	96	48	2
NMSTR	73	192	5
NMSI_	73	192	5	96	48	1
NMSTR	73	288	4
NMSI_	73	288	4	96	48	0
NMSTR	74	0	5
NMSI_	74	0	5	96	48	7
NMTAP	74	96	1
NMTAP	74	192	0
NMTAP	74	192	1
NMTAP	74	240	0
NMTAP	74	240	1
BRTAP	74	288	3
BRSTR	74	288	6
NMSCR	74	288	6	96	48	1
NMSTR	75	0	2
NMSI_	75	0	2	96	48	6
NMSTR	75	96	3
NMSI_	75	96	3	96	48	5
NMSTR	75	192	2
NMSI_	75	192	2	96	48	0
NMSTR	75	288	3
NMSI_	75	288	3	96	48	7
NMSTR	76	0	2
NMSI_	76	0	2	96	48	6
NMSTR	76	96	3
NMSUR	76	96	3	96	120	4
BRSTR	76	288	0
BRSCL	76	288	0	96	48	6
NMSTR	77	0	5
NMSI_	77	0	5	96	48	1
NMSTR	77	96	4
NMSI_	77	96	4	96	48	2
NMSTR	77	192	6
NMSI_	77	192	6	96	48	0
NMSTR	77	288	1
NMSI_	77	288	1	96	48	5
NMSTR	78	0	4
NMSI_	78	0	4	96	48	2
NMTAP	78	96	7
NMTAP	78	192	0
NMTAP	78	192	6
NMTAP	78	240	0
NMTAP	78	240	6
NMSTR	78	288	2
NMSI_	78	288	2	96	48	7
BRTAP	78	288	4
NMSTR	79	0	3
NMSI_	79	0	3	96	48	6
NMSTR	79	96	4
NMSI_	79	96	4	96	48	1
NMSTR	79	192	5
NMSI_	79	192	5	96	48	0
NMSTR	79	288	2
NMSI_	79	288	2	96	48	6
NMHLD	80	0	7	288
BRSTR	80	288	6
BRSF_	80	288	6	96	48	2

T_REC_TAP	234
T_REC_BRK	20
T_REC_XTP	1
T_REC_BXX	3
T_REC_HLD	102
T_REC_XHO	0
T_REC_BHO	0
T_REC_BXH	1
T_REC_STR	51
T_REC_BST	10
T_REC_XST	0
T_REC_XBS	2
T_REC_TTP	23
T_REC_THO	12
T_REC_SLD	52
T_REC_BSL	11
T_REC_ALL	522
T_NUM_TAP	309
T_NUM_BRK	47
T_NUM_HLD	114
T_NUM_SLD	52
T_NUM_ALL	522
T_JUDGE_TAP	344
T_JUDGE_HLD	237
T_JUDGE_SLD	63
T_JUDGE_ALL	644
TTM_EACHPAIRS	119
TTM_SCR_TAP	154500
TTM_SCR_BRK	122200
TTM_SCR_HLD	114000
TTM_SCR_SLD	78000
TTM_SCR_ALL	468700
TTM_SCR_S	450100
TTM_SCR_SS	464000
TTM_RAT_ACV	10101

