VERSION	0.00.00	1.05.00
FES_MODE	0
BPM_DEF	180.000	180.000	180.000	180.000
MET_DEF	4	4
RESOLUTION	384
CLK_DEF	384
COMPATIBLE_CODE	MA2

BPM	0	0	180.000
MET	0	0	4	4

NMHLD	1	0	6	48
NMHLD	1	96	4	48
NMHLD	1	192	2	48
NMSTR	1	288	0
NMSXL	1	288	0	96	192	3
NMTHO	2	192	7	1248	E	0	M1
NMTAP	3	0	4
NMTAP	3	96	4
NMTAP	3	192	4
NMTAP	3	288	4
NMTAP	4	0	3
NMTAP	4	96	3
NMTAP	4	192	3
NMTAP	4	288	3
NMTAP	5	0	4
NMTAP	5	96	4
NMTAP	5	192	5
NMTAP	5	288	5
NMTAP	6	0	4
NMTAP	6	96	3
NMTAP	6	192	2
NMTAP	6	192	4
NMTHO	6	288	2	864	E	0	M1
NMTAP	7	0	3
NMTAP	7	96	3
NMTAP	7	192	3
NMTAP	7	288	3
NMTAP	8	0	4
NMTAP	8	96	4
NMTAP	8	192	3
NMTAP	8	288	3
NMTTP	9	0	5	E	0	M1
NMTTP	9	96	4	E	0	M1
NMTAP	9	192	6
NMTAP	9	240	6
NMTAP	9	336	2
NMSTR	9	336	7
NMSI_	9	336	7	96	96	3
NMSTR	10	48	3
NMSI_	10	48	3	96	96	7
NMTAP	10	144	1
NMTAP	10	192	1
NMSTR	10	288	2
NMSCL	10	288	2	96	192	6
NMTAP	10	288	6
NMSTR	11	96	5
NMSCR	11	96	5	96	192	1
NMSTR	11	288	2
NMSCL	11	288	2	96	192	6
NMTAP	12	96	5
EXHLD	12	192	4	96
NMSTR	12	288	1
NMSCR	12	288	1	96	192	5
NMSTR	13	96	6
NMSCL	13	96	6	96	192	2
NMSTR	13	288	1
NMSCR	13	288	1	96	192	5
NMTAP	14	96	6
NMHLD	14	192	7	48
NMHLD	14	288	0	48
NMHLD	14	288	6	48
NMHLD	15	0	4	432
NMTTP	15	96	5	A	0	M1
NMTTP	15	96	6	E	0	M1
NMTTP	15	96	6	D	0	M1
NMTTP	15	240	0	C	0	M1
NMTTP	15	240	3	B	0	M1
NMTTP	15	240	4	B	0	M1
NMTTP	15	336	2	E	0	M1
NMTTP	15	336	2	A	0	M1
NMTTP	15	336	2	D	0	M1
NMTAP	16	48	1
NMSTR	16	96	1
NMSI_	16	96	1	96	48	4
NMSTR	16	192	5
NMSI_	16	192	5	96	48	0
NMHLD	16	288	3	96
NMTAP	17	0	7
NMTTP	17	96	6	B	0	M1
NMTTP	17	120	5	B	0	M1
NMTTP	17	144	4	B	0	M1
EXSTR	17	240	1
NMSI_	17	240	1	96	48	3
NMSTR	17	336	5
NMSI_	17	336	5	96	48	7
NMTAP	18	48	0
NMTAP	18	144	0
NMSTR	18	192	1
NMSCL	18	192	1	96	48	6
BRTAP	18	288	1
NMHLD	18	288	7	768
NMTAP	19	0	4
NMTAP	19	48	4
NMTAP	19	96	5
NMTAP	19	192	4
NMTAP	19	240	4
NMTAP	19	288	5
NMTAP	20	0	4
NMTAP	20	48	4
NMTAP	20	96	5
NMTAP	20	192	4
NMTAP	20	240	4
NMTAP	20	288	5
NMHLD	21	0	3	48
NMHLD	21	0	6	48
NMHLD	21	96	0	48
NMHLD	21	96	5	48
NMHLD	21	192	3	48
NMHLD	21	192	6	48
NMSTR	21	288	0
NMSCR	21	288	0	96	48	2
NMSTR	21	288	5
NMSCL	21	288	5	96	48	3
NMTAP	22	0	0
NMTAP	22	0	5
NMTAP	22	96	6
NMTAP	22	96	7
NMSTR	22	192	5
NMSCL	22	192	5	96	48	2
NMHLD	22	288	0	768
BRTAP	22	288	5
NMTAP	23	0	3
NMTAP	23	48	3
NMTAP	23	96	2
NMTAP	23	192	3
NMTAP	23	240	3
NMTAP	23	288	2
NMTAP	24	0	3
NMTAP	24	48	3
NMTAP	24	96	2
NMTAP	24	192	3
NMTAP	24	240	3
NMTAP	24	288	2
NMHLD	25	0	1	48
NMHLD	25	0	4	48
NMHLD	25	96	2	48
NMHLD	25	96	7	48
NMHLD	25	192	1	48
NMHLD	25	192	4	48
NMSTR	25	288	2
NMSXL	25	288	2	96	144	0
NMTAP	25	288	5
NMHLD	26	0	4	192
EXTAP	26	192	7
NMSTR	26	288	0
NMSCR	26	288	0	96	384	3
NMSTR	27	288	7
NMSCL	27	288	7	96	384	4
NMTAP	28	288	2
NMTAP	29	0	2
NMTTP	29	192	5	E	0	M1
NMTTP	29	288	0	C	0	M1
NMTTP	29	288	3	B	0	M1
NMTHO	30	0	0	48	A	1	M1
NMTHO	30	0	1	48	E	0	M1
NMTHO	30	0	2	48	E	0	M1
NMTHO	30	0	2	48	A	0	M1
BRSTR	30	288	4
NMSCL	30	288	4	96	48	1
BRTAP	30	288	6
NMSTR	31	0	4
NMSCR	31	0	4	96	48	7
NMSTR	31	96	4
NMSI_	31	96	4	96	48	0
NMSTR	31	192	4
NMSI_	31	192	4	96	48	7
NMSTR	31	288	2
NMSI_	31	288	2	96	48	5
NMTAP	31	288	4
NMTAP	32	0	2
NMSTR	32	0	6
NMSI_	32	0	6	96	48	1
NMSTR	32	96	3
NMSI_	32	96	3	96	48	0
NMTAP	32	96	6
NMTAP	32	192	3
NMSTR	32	192	4
NMSI_	32	192	4	96	48	7
NMSTR	32	288	4
NMSV_	32	288	4	96	48	1
CNSI_	32	336	7	0	48	5
NMSTR	33	0	4
NMSV_	33	0	4	96	48	7
NMSTR	33	96	4
NMSXR	33	96	4	96	192	1
NMTAP	33	192	6
EXTAP	33	288	7
EXTAP	34	0	6
NMTAP	34	48	6
NMTAP	34	96	0
NMTAP	34	144	0
NMTAP	34	192	3
BRTAP	34	288	1
BRSTR	34	288	3
NMSI_	34	288	3	96	48	6
NMSTR	35	0	3
NMSI_	35	0	3	96	48	1
NMSTR	35	96	3
NMSI_	35	96	3	96	48	7
NMSTR	35	192	3
NMSI_	35	192	3	96	48	0
NMTAP	35	288	3
NMSTR	35	288	5
NMSI_	35	288	5	96	48	2
NMSTR	36	0	1
NMSI_	36	0	1	96	48	6
NMTAP	36	0	5
NMTAP	36	96	1
NMSTR	36	96	4
NMSI_	36	96	4	96	48	7
NMSTR	36	192	3
NMSI_	36	192	3	96	48	0
NMTAP	36	192	4
NMSTR	36	288	3
NMSI_	36	288	3	96	48	5
CNSI_	36	336	0	0	48	2
NMSTR	37	0	3
NMSCL	37	0	3	96	48	0
NMSTR	37	96	3
NMSI_	37	96	3	96	48	6
NMSTR	37	192	3
NMSI_	37	192	3	96	48	1
NMTAP	37	288	3
NMSTR	37	288	7
NMSI_	37	288	7	96	48	5
NMSTR	38	0	0
NMSCR	38	0	0	96	48	3
NMTAP	38	0	7
NMTAP	38	96	0
NMSTR	38	96	4
NMSLL	38	96	4	96	96	0
NMSLR	38	96	4	96	96	0
BRTAP	39	0	1
BRTAP	39	0	7
NMTAP	39	96	3
NMSTR	39	96	5
NMSI_	39	96	5	96	48	7
NMTAP	39	192	1
NMTAP	39	240	1
NMTAP	39	288	0
NMTAP	39	336	2
NMTAP	40	48	6
NMTAP	40	96	6
NMTAP	40	144	7
NMSTR	40	240	0
NMSI_	40	240	0	96	48	5
NMTAP	40	240	5
NMTAP	40	288	0
NMSTR	40	288	5
NMSCR	40	288	5	96	192	3
NMTTP	41	0	4	E	1	M1
NMSTR	41	288	2
NMSI_	41	288	2	96	48	0
NMSTR	41	288	3
NMSI_	41	288	3	96	48	7
NMTAP	42	0	2
NMTAP	42	0	3
NMSTR	42	96	4
NMSI_	42	96	4	96	48	0
NMSTR	42	96	5
NMSI_	42	96	5	96	48	7
NMTAP	42	192	4
NMTAP	42	192	5
NMTAP	42	288	2
NMTAP	42	288	3
NMSTR	43	0	1
NMSCR	43	0	1	96	48	4
NMTAP	43	96	5
NMTAP	43	144	6
NMSTR	43	192	7
NMSCL	43	192	7	96	48	4
NMSTR	43	288	3
NMSI_	43	288	3	96	48	0
NMHLD	44	0	1	288
NMTAP	44	0	3
NMTAP	45	0	4
NMTAP	45	0	6
NMTAP	45	48	5
NMTAP	45	96	1
NMTAP	45	96	3
NMTAP	45	144	2
NMTAP	45	192	4
NMTAP	45	192	6
NMTAP	45	240	5
NMTAP	45	288	1
NMSTR	45	288	3
NMSV_	45	288	3	96	96	4
NMTAP	45	336	2
NMTTP	46	192	3	E	0	M1
NMTTP	46	192	6	E	0	M1
BRSTR	46	288	2
NMSCL	46	288	2	96	96	6
NMTAP	47	0	4
NMSTR	47	96	5
NMSCR	47	96	5	96	96	1
NMTAP	47	144	5
NMTAP	47	192	3
NMSTR	47	288	2
NMSCL	47	288	2	96	96	6
NMTAP	47	336	2
NMTAP	48	0	4
NMSTR	48	96	5
NMSCR	48	96	5	96	96	1
NMTAP	48	144	5
NMTAP	48	192	3
NMSTR	48	288	2
NMSCL	48	288	2	96	96	6
NMTAP	49	0	4
NMSTR	49	96	5
NMSCR	49	96	5	96	96	1
NMTAP	49	144	5
NMTAP	49	192	3
NMTAP	49	288	2
NMHLD	49	336	2	96
NMHLD	50	48	0	96
NMHLD	50	144	7	96
NMTAP	50	240	5
NMSTR	50	288	5
NMSCR	50	288	5	96	96	1
NMTAP	51	0	3
NMSTR	51	96	2
NMSCL	51	96	2	96	96	6
NMTAP	51	144	2
NMTAP	51	192	4
NMSTR	51	288	5
NMSCR	51	288	5	96	96	1
NMTAP	51	336	5
NMTAP	52	0	3
NMSTR	52	96	2
NMSCL	52	96	2	96	96	6
NMTAP	52	144	2
NMTAP	52	192	4
NMTAP	52	288	5
NMHLD	53	0	4	48
NMHLD	53	0	5	48
NMHLD	53	96	3	48
NMHLD	53	96	4	48
NMHLD	53	192	2	48
NMHLD	53	192	3	48
NMSTR	53	288	3
NMSV_	53	288	3	96	96	4
NMTTP	54	192	3	E	0	M1
NMTTP	54	192	6	E	0	M1
NMHLD	54	288	7	240
NMTAP	55	48	4
NMTAP	55	144	5
NMTAP	55	168	5
NMTAP	55	192	7
NMTAP	55	240	3
NMTAP	55	288	2
NMTAP	55	336	4
NMSTR	56	0	0
NMSI_	56	0	0	96	48	3
NMTAP	56	0	5
NMSTR	56	96	4
NMSI_	56	96	4	96	48	2
CNSI_	56	240	2	0	48	5
CNSI_	56	288	5	0	96	1
NMHLD	57	0	0	96
NMHLD	57	192	1	96
NMHLD	57	192	3	96
NMHLD	58	0	7	96
NMHLD	58	192	4	96
NMHLD	58	192	6	96
NMTTP	59	0	2	E	0	M1
NMTTP	59	96	1	E	0	M1
NMTTP	59	96	3	E	0	M1
NMTTP	59	192	6	E	0	M1
NMTTP	59	288	5	E	0	M1
NMTTP	59	288	7	E	0	M1
NMTHO	60	0	2	192	E	0	M1
EXTAP	60	192	3
BRSTR	61	0	7
NMSCL	61	0	7	96	96	4
BRSTR	61	192	0
NMSCR	61	192	0	96	96	3
NMTAP	62	0	6
NMTAP	62	48	6
NMTAP	62	96	4
NMTAP	62	144	5
NMHLD	62	192	2	96
NMHLD	62	288	0	96
NMHLD	63	0	7	96
NMHLD	63	96	5	96
NMHLD	63	192	4	96
NMHLD	63	288	5	96
NMHLD	64	0	7	96
NMHLD	64	96	0	96
NMHLD	64	192	2	96
NMHLD	64	288	3	96
NMTHO	65	0	3	768	E	0	M1
NMTHO	65	192	5	576	E	0	M1
NMTHO	66	0	3	384	B	0	M1
NMTHO	66	192	4	192	B	0	M1
EXTAP	67	192	0
EXTAP	67	192	7
NMSTR	67	288	0
NMSCR	67	288	0	96	96	3
NMSTR	67	288	7
NMSCL	67	288	7	96	96	4
EXTAP	68	192	2
EXHLD	68	192	5	864
NMTTP	69	0	7	A	0	M1
NMTTP	69	48	7	E	0	M1
NMTTP	69	96	6	B	0	M1
NMTTP	69	192	0	A	0	M1
NMTTP	69	240	1	E	0	M1
NMTTP	69	288	1	B	0	M1
NMTTP	70	0	5	E	0	M1
NMTTP	70	96	4	E	0	M1
NMTHO	70	192	3	96	E	0	M1
EXTAP	71	0	4
NMTAP	71	96	3
NMSTR	71	144	4
BRSXL	71	144	4	96	192	4
BRSXR	71	144	4	96	192	4
NMTTP	72	192	3	B	0	M1
NMTAP	73	0	2
NMTAP	73	0	4
NMTAP	73	48	3
NMTAP	73	96	2
NMTAP	73	96	4
NMTAP	73	192	5
NMHLD	73	240	5	96
NMTAP	73	288	4
NMTAP	73	336	3
NMTAP	74	0	4
NMTAP	74	48	3
NMTAP	74	48	5
EXTAP	74	144	5
EXTAP	74	160	4
EXTAP	74	176	3
EXTAP	74	192	2
NMTAP	74	288	2
NMTAP	74	288	4
NMTAP	75	0	3
NMTAP	75	0	5
NMTAP	75	48	4
NMTAP	75	96	3
NMTAP	75	96	5
NMTAP	75	192	2
NMHLD	75	240	2	96
NMTAP	75	288	3
NMTAP	75	336	4
NMTAP	76	0	3
NMTAP	76	48	4
NMSTR	76	96	5
NMSCR	76	96	5	96	48	7
NMSTR	76	192	2
NMSI_	76	192	2	96	48	4
NMTAP	76	192	5
NMTAP	76	288	2
NMHLD	77	0	5	576
NMTAP	77	96	4
NMTAP	77	144	3
NMTAP	77	192	3
NMTAP	77	288	4
NMTAP	77	336	3
NMTAP	78	0	3
NMTAP	78	96	4
NMTAP	78	144	3
NMHLD	78	192	2	192
NMTAP	78	288	3
NMTAP	78	336	4
NMHLD	79	0	5	576
NMTAP	79	96	4
NMTAP	79	144	3
NMTAP	79	192	3
NMTAP	79	288	4
NMTAP	79	336	3
NMTAP	80	0	2
NMTAP	80	96	3
NMTAP	80	192	4
NMTAP	80	240	3
NMTAP	80	288	2
NMTAP	81	0	2
NMTAP	81	0	4
NMTTP	81	96	6	E	0	M1
NMTTP	81	144	5	E	0	M1
NMTAP	81	192	1
NMTTP	81	288	4	E	0	M1
NMTAP	82	0	2
NMTAP	82	0	4
NMTTP	82	96	2	E	0	M1
NMTTP	82	144	3	E	0	M1
NMTAP	82	192	6
NMTTP	82	288	4	E	0	M1
NMTAP	83	0	3
NMTAP	83	0	5
NMTTP	83	96	6	E	0	M1
NMTTP	83	144	5	E	0	M1
NMTAP	83	192	1
NMTTP	83	288	4	E	0	M1
NMTHO	84	0	0	192	C	0	M1
BRTAP	85	0	0
BRTAP	85	0	7
NMTAP	85	144	0
NMTAP	85	192	6
NMTAP	85	216	5
NMTAP	85	240	4
NMTAP	85	264	3
NMTAP	85	288	2
NMTAP	85	312	1
NMTAP	85	336	0
NMSTR	86	48	1
NMSI_	86	48	1	96	48	4
NMTAP	86	48	5
NMTAP	86	96	1
NMSTR	86	96	5
NMSI_	86	96	5	96	48	0
BRTAP	86	288	2
BRTAP	86	288	6
NMHLD	87	0	4	48
NMHLD	87	0	7	48
NMHLD	87	96	4	48
NMTAP	87	96	7
EXHLD	87	144	6	48
NMTAP	87	192	3
EXHLD	87	240	2	48
EXHLD	87	240	4	48
EXHLD	87	336	1	48
EXHLD	87	336	3	48
EXTAP	88	48	0
NMTAP	88	48	4
EXTAP	88	96	0
NMSTR	88	96	4
NMSXL	88	96	4	96	96	3
NMHLD	88	192	1	96
CNSCL	88	288	3	0	96	5
NMTTP	89	0	0	B	0	M1
NMTTP	89	0	0	E	1	M1
NMTTP	89	0	7	B	0	M1
EXSTR	89	96	1
NMSV_	89	96	1	96	48	4
EXTAP	89	144	1
NMSTR	89	192	5
NMSCR	89	192	5	96	48	0
NMTAP	89	240	5
NMTAP	89	288	3
NMTAP	89	336	3
NMTAP	90	0	7
EXTAP	90	48	4
EXTAP	90	48	6
EXTAP	90	96	3
EXTAP	90	144	1
EXTAP	90	144	2
EXSTR	90	192	0
NMSI_	90	192	0	96	48	4
BRTAP	90	288	0
NMSTR	90	288	7
NMSF_	90	288	7	96	48	3
BRTAP	91	0	7
NMTAP	91	96	1
NMTAP	91	144	1
NMTAP	91	192	7
NMTAP	91	240	7
NMHLD	91	288	4	48
NMHLD	91	288	6	48
NMHLD	92	0	0	48
NMHLD	92	0	2	48
NMHLD	92	96	1	48
NMHLD	92	96	3	48
NMHLD	92	192	5	48
NMHLD	92	192	7	48
NMHLD	92	288	4	48
NMHLD	92	288	6	48
NMSTR	93	0	2
NMSI_	93	0	2	96	48	5
NMTAP	93	48	2
NMSTR	93	96	6
NMSI_	93	96	6	96	48	1
NMTAP	93	144	6
NMTAP	93	192	3
NMTAP	93	240	3
NMTAP	93	288	7
NMTAP	93	336	7
NMSTR	94	0	1
NMSLR	94	0	1	96	96	5
NMSTR	94	96	5
NMSLR	94	96	5	96	96	1
NMTAP	94	192	1
NMTAP	94	288	5
BRTAP	95	0	3
BRTAP	95	0	7
NMTAP	95	96	2
NMTAP	95	192	6
NMTAP	95	240	7
NMTAP	95	288	0
NMSTR	95	336	1
NMSI_	95	336	1	96	48	7
NMSTR	96	48	5
NMSI_	96	48	5	96	48	3
NMTAP	96	144	1
NMSTR	96	240	0
NMSI_	96	240	0	96	48	5
NMTAP	96	240	5
NMTAP	96	288	0
NMSTR	96	288	5
NMSCR	96	288	5	96	192	2
NMTTP	97	0	4	E	1	M1
NMSTR	97	288	2
NMSI_	97	288	2	96	48	7
NMSTR	97	288	3
NMSI_	97	288	3	96	48	6
NMTAP	98	0	2
NMTAP	98	0	3
NMSTR	98	96	4
NMSI_	98	96	4	96	48	1
NMSTR	98	96	5
NMSI_	98	96	5	96	48	0
NMTAP	98	192	4
NMTAP	98	192	5
NMTAP	98	288	2
NMTAP	98	288	3
NMHLD	99	0	0	96
NMHLD	99	0	1	96
NMTAP	99	144	0
NMTAP	99	144	7
NMTAP	99	192	0
NMTAP	99	192	7
NMSTR	99	288	6
NMSUR	99	288	6	96	288	0
NMHLD	99	288	7	1056
NMTTP	101	0	2	E	0	M1
NMTTP	101	96	5	E	0	M1
NMTTP	101	192	3	E	0	M1
NMTTP	101	288	4	E	0	M1
NMTHO	102	0	6	192	E	0	M1
NMTAP	103	0	5
NMTAP	103	48	4
NMTAP	103	96	3
NMHLD	103	144	2	96
NMTAP	103	240	4
NMTAP	103	288	4
NMTAP	104	0	5
NMTAP	104	48	4
NMTAP	104	96	3
NMHLD	104	144	2	96
NMTAP	104	240	4
NMTAP	104	288	4
NMTTP	105	0	6	D	0	M1
NMTTP	105	48	5	E	0	M1
NMTTP	105	96	4	E	0	M1
NMTTP	105	144	3	E	0	M1
NMTTP	105	192	2	D	0	M1
NMTAP	105	288	2
NMSTR	105	288	4
NMSV_	105	288	4	96	96	3
NMTAP	105	336	2
NMTAP	105	336	4
NMTTP	106	192	2	E	0	M1
NMTTP	106	192	5	E	0	M1
BRSTR	106	288	2
NMSCL	106	288	2	96	96	4
NMTTP	106	288	4	E	1	M1
NMSTR	107	0	4
NMSCR	107	0	4	96	96	2
NMSTR	107	96	2
NMSCL	107	96	2	96	96	4
NMSTR	107	192	4
NMSCR	107	192	4	96	96	2
NMSTR	107	288	2
NMSCL	107	288	2	96	96	4
NMSTR	108	0	4
NMSCR	108	0	4	96	96	2
NMTAP	108	96	2
NMTAP	108	192	4
NMTAP	108	288	3
NMSTR	108	288	5
NMSLR	108	288	5	96	96	1
NMSTR	109	0	1
NMSLR	109	0	1	96	96	5
NMTAP	109	96	5
NMTAP	109	192	1
NMTAP	109	288	2
NMHLD	109	336	2	96
NMHLD	110	48	0	96
NMHLD	110	144	7	96
NMTAP	110	240	5
NMSTR	110	288	5
NMSCR	110	288	5	96	96	3
NMSTR	111	0	3
NMSCL	111	0	3	96	96	5
NMSTR	111	96	5
NMSCR	111	96	5	96	96	3
NMSTR	111	192	3
NMSCL	111	192	3	96	96	5
NMSTR	111	288	5
NMSCR	111	288	5	96	96	3
NMSTR	112	0	3
NMSCL	112	0	3	96	96	5
NMTAP	112	96	5
NMTAP	112	192	3
NMTAP	112	288	2
NMTAP	112	288	4
NMTTP	113	0	5	B	0	M1
NMTTP	113	0	5	A	0	M1
NMTTP	113	0	6	A	0	M1
NMTTP	113	0	6	D	0	M1
NMTTP	113	0	7	D	0	M1
NMTTP	113	96	2	B	0	M1
NMTTP	113	96	3	B	0	M1
NMTTP	113	96	3	A	0	M1
NMTTP	113	96	4	B	0	M1
NMTTP	113	96	4	E	0	M1
NMTTP	113	96	4	A	0	M1
NMTTP	113	192	0	B	0	M1
NMTTP	113	192	0	A	0	M1
NMTTP	113	192	1	A	0	M1
NMTTP	113	192	1	D	0	M1
NMTTP	113	192	2	A	0	M1
NMTTP	113	192	2	D	0	M1
NMTAP	113	288	7
NMSTR	113	336	7
NMSCL	113	336	7	96	48	4
NMTAP	114	48	0
NMTAP	114	96	0
NMSTR	114	192	3
NMSLL	114	192	3	96	48	7
NMSLR	114	192	3	96	48	7

T_REC_TAP	273
T_REC_BRK	14
T_REC_XTP	20
T_REC_BXX	0
T_REC_HLD	77
T_REC_XHO	7
T_REC_BHO	0
T_REC_BXH	0
T_REC_STR	105
T_REC_BST	6
T_REC_XST	3
T_REC_XBS	0
T_REC_TTP	79
T_REC_THO	14
T_REC_SLD	115
T_REC_BSL	2
T_REC_ALL	715
T_NUM_TAP	480
T_NUM_BRK	22
T_NUM_HLD	98
T_NUM_SLD	115
T_NUM_ALL	715
T_JUDGE_TAP	500
T_JUDGE_HLD	330
T_JUDGE_SLD	117
T_JUDGE_ALL	947
TTM_EACHPAIRS	96
TTM_SCR_TAP	240000
TTM_SCR_BRK	57200
TTM_SCR_HLD	98000
TTM_SCR_SLD	172500
TTM_SCR_ALL	567700
TTM_SCR_S	548550
TTM_SCR_SS	565500
TTM_RAT_ACV	10038

