VERSION	0.00.00	1.05.00
FES_MODE	0
BPM_DEF	180.000	180.000	180.000	180.000
MET_DEF	4	4
RESOLUTION	384
CLK_DEF	384
COMPATIBLE_CODE	MA2

BPM	0	0	180.000
MET	0	0	4	4

NMHLD	2	0	3	192
NMHLD	2	0	4	192
NMTAP	3	0	1
NMTAP	3	96	1
NMTAP	3	192	2
NMTAP	3	192	3
NMTAP	3	288	2
NMTAP	3	288	3
NMTAP	4	0	6
NMTAP	4	96	6
NMTAP	4	192	4
NMTAP	4	192	5
NMTAP	4	288	4
NMTAP	4	288	5
NMTAP	5	0	2
NMTAP	5	96	2
EXTAP	5	192	1
EXTAP	5	192	3
EXTAP	5	288	1
EXTAP	5	288	3
EXTAP	6	0	5
EXTAP	6	96	5
EXTAP	6	192	4
EXTAP	6	192	6
EXTAP	6	288	4
EXTAP	6	288	6
NMSTR	7	0	3
NMSCL	7	0	3	96	96	0
NMSTR	7	192	7
NMSCL	7	192	7	96	96	4
NMSTR	8	0	3
NMSCL	8	0	3	96	96	0
NMSTR	8	192	7
NMSCL	8	192	7	96	96	4
NMTAP	9	0	3
NMSTR	9	96	2
NMSXR	9	96	2	96	240	5
NMTAP	9	96	4
EXTAP	10	192	4
EXTAP	10	192	6
NMSTR	10	288	5
NMSI_	10	288	5	96	96	0
NMSTR	11	96	1
NMSI_	11	96	1	96	96	4
NMHLD	11	288	5	96
NMHLD	12	0	7	96
NMHLD	12	96	0	96
NMTAP	12	192	2
NMSTR	12	288	2
NMSI_	12	288	2	96	96	7
NMSTR	13	96	6
NMSI_	13	96	6	96	96	3
NMTAP	13	288	2
NMHLD	14	0	1	96
NMHLD	14	0	4	96
NMTAP	14	192	2
NMTAP	14	192	5
NMTAP	14	288	3
NMTAP	14	288	6
NMTAP	15	0	3
NMTAP	15	0	6
NMTTP	15	96	6	E	0	M1
NMTTP	15	240	3	B	0	M1
NMTTP	15	240	4	B	0	M1
NMTTP	15	240	4	E	0	M1
NMTTP	15	336	1	B	0	M1
NMTTP	15	336	2	B	0	M1
NMTTP	15	336	2	E	0	M1
NMTAP	16	96	0
NMSTR	16	192	0
NMSUR	16	192	0	96	96	4
NMTAP	16	288	5
NMHLD	17	0	6	96
EXTAP	17	96	4
EXTAP	17	144	4
NMTAP	17	240	3
NMTAP	17	240	4
NMHLD	17	336	1	96
NMHLD	17	336	3	96
NMTAP	18	144	0
NMTAP	18	144	4
NMTAP	18	192	0
NMTAP	18	192	4
NMTTP	18	288	2	B	0	M1
NMTTP	18	288	3	B	0	M1
NMTTP	18	288	3	E	1	M1
NMTAP	19	0	4
NMTAP	19	0	5
NMTAP	19	96	4
NMTAP	19	96	5
NMTAP	19	192	6
NMTAP	19	288	6
NMTAP	19	288	7
NMTAP	20	0	6
NMTAP	20	0	7
NMTAP	20	96	5
NMTAP	20	192	4
NMTAP	20	192	6
NMTAP	20	288	4
NMTAP	20	288	6
NMTAP	21	0	5
NMTAP	21	0	7
NMTAP	21	96	5
NMTAP	21	96	7
NMTAP	21	192	4
NMTAP	21	288	5
NMTAP	21	288	6
NMTAP	22	0	5
NMTAP	22	0	6
NMTAP	22	96	7
BRSTR	22	192	7
NMSI_	22	192	7	96	48	3
NMTAP	23	0	2
NMTAP	23	0	4
NMTAP	23	96	2
NMTAP	23	96	4
NMTAP	23	192	1
NMTAP	23	288	0
NMTAP	23	288	1
NMTAP	24	0	0
NMTAP	24	0	1
NMTAP	24	96	2
NMTAP	24	192	3
NMTAP	24	288	1
NMTAP	25	0	0
NMTAP	25	0	2
NMTAP	25	96	0
NMTAP	25	96	2
NMTAP	25	192	3
NMTAP	25	288	1
NMTAP	25	288	2
NMTAP	26	0	0
NMSTR	26	96	1
NMSCR	26	96	1	96	96	4
NMSTR	26	96	7
NMSCL	26	96	7	96	96	4
NMHLD	27	0	3	192
NMHLD	27	0	5	192
NMTAP	27	288	3
NMTAP	27	288	5
NMHLD	28	0	2	192
NMHLD	28	0	4	192
NMTAP	28	288	2
NMTAP	28	288	4
NMTTP	29	0	2	E	0	M1
NMTTP	29	96	3	E	0	M1
NMTTP	29	192	4	E	0	M1
NMTTP	29	288	5	E	0	M1
NMTTP	30	0	6	E	1	M1
BRTAP	30	288	0
BRTAP	30	288	7
NMHLD	31	0	1	48
NMHLD	31	0	3	48
NMHLD	31	96	1	48
NMHLD	31	96	3	48
NMHLD	31	192	6	48
NMHLD	31	192	7	48
NMHLD	31	288	1	48
NMHLD	31	288	3	48
NMHLD	32	0	4	48
NMHLD	32	0	6	48
NMHLD	32	96	4	48
NMHLD	32	96	6	48
NMHLD	32	192	0	48
NMHLD	32	192	1	48
NMHLD	32	288	4	48
NMHLD	32	288	6	48
NMHLD	33	0	2	48
NMHLD	33	0	3	48
NMHLD	33	96	4	48
NMHLD	33	96	5	48
EXHLD	33	192	6	48
EXHLD	33	192	7	48
EXHLD	33	288	0	48
EXHLD	33	288	1	48
NMTAP	34	0	2
NMTAP	34	48	2
NMTAP	34	96	3
NMTAP	34	144	3
NMSTR	34	192	1
NMSI_	34	192	1	96	48	5
NMHLD	35	0	4	48
NMHLD	35	0	6	48
NMHLD	35	96	4	48
NMHLD	35	96	6	48
NMHLD	35	192	0	48
NMHLD	35	192	1	48
NMHLD	35	288	4	48
NMHLD	35	288	6	48
NMHLD	36	0	1	48
NMHLD	36	0	3	48
NMHLD	36	96	1	48
NMHLD	36	96	3	48
NMHLD	36	192	6	48
NMHLD	36	192	7	48
NMHLD	36	288	1	48
NMHLD	36	288	3	48
NMHLD	37	0	4	48
NMHLD	37	0	5	48
NMHLD	37	96	2	48
NMHLD	37	96	3	48
NMHLD	37	192	0	48
NMHLD	37	192	1	48
NMHLD	37	288	6	48
NMHLD	37	288	7	48
NMTAP	38	0	4
NMTAP	38	0	5
NMHLD	38	96	5	96
NMHLD	38	192	7	96
NMHLD	38	288	0	96
NMTAP	39	0	2
NMSTR	39	96	0
NMSI_	39	96	0	96	48	4
NMSTR	39	96	1
NMSI_	39	96	1	96	48	3
EXTAP	39	192	0
EXTAP	39	192	1
NMTAP	39	288	5
NMSTR	40	0	6
NMSI_	40	0	6	96	48	4
NMSTR	40	0	7
NMSI_	40	0	7	96	48	3
EXTAP	40	96	6
EXTAP	40	96	7
NMTAP	40	192	2
NMTAP	40	288	0
NMSTR	40	288	1
NMSCR	40	288	1	96	192	7
BXTAP	41	0	7
NMSTR	41	288	0
NMSI_	41	288	0	96	48	4
NMSTR	41	288	1
NMSI_	41	288	1	96	48	3
EXTAP	42	0	0
EXTAP	42	0	1
NMSTR	42	96	6
NMSI_	42	96	6	96	48	4
NMSTR	42	96	7
NMSI_	42	96	7	96	48	3
EXTAP	42	192	6
EXTAP	42	192	7
NMHLD	43	0	2	192
NMHLD	43	192	0	192
NMHLD	44	0	7	192
NMHLD	44	192	5	192
NMTAP	45	0	4
NMTAP	45	96	6
NMTAP	45	96	7
NMTAP	45	192	2
NMTAP	45	192	3
NMTAP	45	288	0
NMTAP	45	288	1
NMHLD	46	0	4	96
NMHLD	46	0	5	96
NMTAP	46	192	3
NMTAP	46	192	6
BRTAP	46	288	3
BRTAP	46	288	6
NMSTR	47	0	7
NMSCL	47	0	7	96	96	3
NMSTR	47	96	3
NMSCL	47	96	3	96	96	7
NMSTR	47	192	7
NMSCL	47	192	7	96	96	3
NMSTR	47	288	3
NMSCL	47	288	3	96	96	7
NMTAP	48	0	7
NMTAP	48	96	3
NMTAP	48	192	1
NMTAP	48	192	5
NMTAP	48	288	1
NMTAP	48	288	5
NMSTR	49	0	0
NMSCR	49	0	0	96	96	4
NMSTR	49	96	4
NMSCR	49	96	4	96	96	0
NMSTR	49	192	0
NMSCR	49	192	0	96	96	4
NMSTR	49	288	4
NMSCR	49	288	4	96	96	0
NMTAP	50	0	0
NMTAP	50	96	4
NMTAP	50	192	2
NMTAP	50	192	6
NMTAP	50	288	2
NMTAP	50	288	6
NMSTR	51	0	7
NMSCL	51	0	7	96	96	3
NMSTR	51	96	3
NMSCL	51	96	3	96	96	7
NMSTR	51	192	7
NMSCL	51	192	7	96	96	3
NMSTR	51	288	3
NMSCL	51	288	3	96	96	7
NMTAP	52	0	7
NMTAP	52	96	3
NMTAP	52	192	1
NMTAP	52	192	5
NMTAP	52	288	1
NMTAP	52	288	5
NMTTP	53	0	2	E	0	M1
NMTTP	53	96	3	E	0	M1
NMTTP	53	192	4	E	0	M1
NMTTP	53	288	5	E	0	M1
NMTTP	54	0	6	E	0	M1
NMTTP	54	96	7	E	0	M1
NMTTP	54	192	0	E	0	M1
NMTHO	54	288	1	480	E	1	M1
EXTAP	56	192	7
NMHLD	57	0	6	192
NMHLD	57	192	4	192
NMHLD	58	0	2	192
NMHLD	58	192	0	192
NMTAP	59	0	6
NMHLD	59	96	6	96
NMTAP	59	192	4
NMHLD	59	288	4	96
NMTAP	60	0	2
NMHLD	60	96	2	96
NMTAP	60	192	0
EXHLD	61	0	1	192
EXHLD	61	192	3	192
NMHLD	62	0	5	192
NMHLD	62	192	7	192
NMTAP	63	0	1
NMHLD	63	96	1	96
NMTAP	63	192	3
NMHLD	63	288	3	96
NMTAP	64	0	5
NMHLD	64	96	5	96
NMTAP	64	192	7
NMSTR	65	0	3
NMSCL	65	0	3	96	96	0
NMSTR	65	192	4
NMSCR	65	192	4	96	96	7
NMSTR	66	0	3
NMSCL	66	0	3	96	48	1
NMSTR	66	192	4
NMSCR	66	192	4	96	48	6
BXSTR	67	0	0
NMSCR	67	0	0	96	96	3
NMSTR	67	192	4
NMSCR	67	192	4	96	96	7
NMSTR	68	0	3
NMSCL	68	0	3	96	48	1
NMTAP	68	192	4
NMTAP	69	0	2
NMTAP	69	0	3
NMTAP	69	96	3
NMTAP	69	96	4
NMTAP	69	192	4
NMTAP	69	192	5
NMTAP	69	288	4
NMTAP	69	288	5
NMTAP	70	0	3
NMTAP	70	0	4
NMTAP	70	96	2
NMTAP	70	96	3
NMTAP	70	192	1
NMTAP	70	192	4
NMTAP	70	288	1
NMTAP	70	288	4
EXTAP	71	0	5
NMTAP	71	48	5
NMTAP	71	96	4
EXTAP	71	144	6
NMTAP	71	192	1
EXTAP	71	240	1
NMTAP	71	288	3
NMTAP	71	336	2
BRHLD	72	0	4	192
NMTTP	72	192	4	E	0	M1
NMTAP	73	0	3
NMTAP	73	0	5
NMTAP	73	96	3
NMTAP	73	96	5
NMHLD	73	192	2	96
NMTAP	73	288	4
NMTAP	74	0	2
NMTAP	74	0	4
NMHLD	74	96	5	96
NMTAP	74	192	3
NMTAP	74	288	3
NMTAP	74	288	5
NMHLD	75	0	2	96
NMTAP	75	96	4
NMTAP	75	192	2
NMTAP	75	192	4
NMHLD	75	288	5	96
NMTAP	76	0	3
NMTAP	76	96	3
NMTAP	76	96	5
NMHLD	76	192	2	96
NMHLD	76	192	6	96
NMTAP	77	0	1
NMTAP	77	0	3
NMTAP	77	96	1
NMTAP	77	96	3
NMHLD	77	192	5	96
NMTAP	77	288	4
NMTAP	78	0	4
NMTAP	78	0	6
NMHLD	78	96	2	96
NMTAP	78	192	3
NMTAP	78	288	1
NMTAP	78	288	3
NMHLD	79	0	5	96
NMTAP	79	96	4
NMTAP	79	192	4
NMTAP	79	192	6
NMHLD	79	288	2	96
NMTAP	80	0	3
NMHLD	80	96	1	96
NMHLD	80	96	3	96
NMTAP	80	288	2
NMTAP	80	288	4
NMSTR	81	0	5
NMSI_	81	0	5	96	48	7
NMSTR	81	192	2
NMSI_	81	192	2	96	48	0
NMSTR	82	0	4
NMSI_	82	0	4	96	48	7
NMSTR	82	192	3
NMSI_	82	192	3	96	48	0
NMTAP	83	0	4
NMTAP	83	96	4
NMTAP	83	192	3
NMTAP	83	288	3
EXHLD	84	0	2	288
EXHLD	84	0	6	288
EXHLD	85	0	1	192
EXHLD	85	0	5	192
NMTAP	85	336	2
NMTAP	85	336	6
NMTAP	86	48	1
NMTAP	86	48	5
NMSTR	86	96	1
NMSI_	86	96	1	96	48	5
NMTAP	86	96	5
NMSTR	86	192	7
NMSI_	86	192	7	96	48	3
BXTAP	86	288	2
NMHLD	87	0	1	96
NMTAP	87	96	3
NMHLD	87	144	3	96
NMTAP	87	240	2
NMTAP	87	336	4
NMTAP	87	336	5
NMTAP	88	48	6
NMTAP	88	48	7
NMSTR	88	96	6
BRSCL	88	96	6	96	96	3
NMSTR	88	96	7
BRSCR	88	96	7	96	96	2
BRTAP	89	0	0
BRTAP	89	0	5
NMHLD	89	192	2	96
NMHLD	89	192	7	96
NMTAP	90	0	6
NMTAP	90	48	5
NMTAP	90	96	4
NMTAP	90	144	3
NMSTR	90	192	2
NMSI_	90	192	2	96	48	0
BRTAP	90	288	4
NMHLD	91	0	5	48
NMHLD	91	0	7	48
NMHLD	91	96	5	48
NMHLD	91	96	7	48
NMHLD	91	192	2	48
NMHLD	91	192	3	48
NMHLD	91	288	5	48
NMHLD	91	288	7	48
NMHLD	92	0	0	48
NMHLD	92	0	2	48
NMHLD	92	96	0	48
NMHLD	92	96	2	48
NMHLD	92	192	4	48
NMHLD	92	192	5	48
NMHLD	92	288	0	48
NMHLD	92	288	2	48
NMHLD	93	0	6	48
NMHLD	93	0	7	48
NMHLD	93	96	0	48
NMHLD	93	96	1	48
NMHLD	93	192	2	48
NMHLD	93	192	3	48
NMHLD	93	288	4	48
NMHLD	93	288	5	48
NMTAP	94	0	6
NMTAP	94	0	7
NMHLD	94	96	6	96
NMHLD	94	192	4	96
NMHLD	94	288	3	96
NMTAP	95	0	1
NMSTR	95	96	0
NMSI_	95	96	0	96	48	4
NMSTR	95	96	1
NMSI_	95	96	1	96	48	4
EXTAP	95	192	0
EXTAP	95	192	1
NMTAP	95	288	5
NMSTR	96	0	6
NMSI_	96	0	6	96	48	3
NMSTR	96	0	7
NMSI_	96	0	7	96	48	3
EXTAP	96	96	6
EXTAP	96	96	7
NMTAP	96	192	2
NMSTR	96	288	1
NMSI_	96	288	1	96	48	7
CNSI_	97	48	7	0	96	3
CNSI_	97	144	3	0	48	5
NMSTR	97	288	6
NMSI_	97	288	6	96	48	3
NMSTR	97	288	7
NMSI_	97	288	7	96	48	3
EXTAP	98	0	6
EXTAP	98	0	7
NMSTR	98	96	0
NMSI_	98	96	0	96	48	4
NMSTR	98	96	1
NMSI_	98	96	1	96	48	4
EXTAP	98	192	0
EXTAP	98	192	1
NMHLD	99	0	5	144
NMTAP	99	144	7
NMHLD	99	192	7	144
NMTAP	99	336	0
NMHLD	100	0	0	192
EXTAP	100	192	2
EXTAP	100	288	2
NMTAP	101	0	1
NMTAP	101	0	3
NMTAP	101	96	1
NMTAP	101	96	3
NMTAP	101	192	4
NMTAP	101	192	6
NMTAP	101	288	4
NMTAP	101	288	6
NMTAP	102	0	2
NMTAP	102	0	3
NMTAP	102	96	2
NMTAP	102	96	3
NMTAP	102	192	4
NMTAP	102	192	5
NMTAP	102	288	4
NMTAP	102	288	5
NMTAP	103	0	3
NMSTR	103	96	3
NMSCL	103	96	3	96	144	0
NMTAP	104	0	4
NMSTR	104	96	4
NMSCR	104	96	4	96	144	7
NMHLD	105	0	3	192
NMHLD	105	192	4	192
NMTTP	106	0	4	E	1	M1
BRTAP	106	192	1
BRTAP	106	192	5
BRTAP	106	288	1
BRTAP	106	288	5
NMSTR	107	0	0
NMSLR	107	0	0	96	96	4
NMSTR	107	96	4
NMSLR	107	96	4	96	96	0
NMSTR	107	192	0
NMSLR	107	192	0	96	96	4
NMSTR	107	288	4
NMSLR	107	288	4	96	96	0
NMTAP	108	0	0
NMTAP	108	96	4
NMTAP	108	192	2
NMTAP	108	192	6
NMTAP	108	288	2
NMTAP	108	288	6
NMSTR	109	0	7
NMSLL	109	0	7	96	96	3
NMSTR	109	96	3
NMSLL	109	96	3	96	96	7
NMSTR	109	192	7
NMSLL	109	192	7	96	96	3
NMSTR	109	288	3
NMSLL	109	288	3	96	96	7
NMTAP	110	0	7
NMTAP	110	96	3
NMTAP	110	192	1
NMTAP	110	192	5
NMTAP	110	288	1
NMTAP	110	288	5
NMSTR	111	0	0
NMSLR	111	0	0	96	96	4
NMSTR	111	96	4
NMSLR	111	96	4	96	96	0
NMSTR	111	192	0
NMSLR	111	192	0	96	96	4
NMSTR	111	288	4
NMSLR	111	288	4	96	96	0
BXSTR	112	0	0
NMSLR	112	0	0	96	96	4
BXSTR	112	96	4
NMSLR	112	96	4	96	96	0
BXTAP	112	192	0
BXTAP	112	288	4
NMTHO	113	0	6	336	E	0	M1
EXSTR	114	96	0
NMSLL	114	96	0	96	96	4
NMSLR	114	96	0	96	96	4

T_REC_TAP	235
T_REC_BRK	11
T_REC_XTP	36
T_REC_BXX	4
T_REC_HLD	127
T_REC_XHO	10
T_REC_BHO	1
T_REC_BXH	0
T_REC_STR	72
T_REC_BST	1
T_REC_XST	1
T_REC_XBS	3
T_REC_TTP	24
T_REC_THO	2
T_REC_SLD	76
T_REC_BSL	2
T_REC_ALL	605
T_NUM_TAP	368
T_NUM_BRK	22
T_NUM_HLD	139
T_NUM_SLD	76
T_NUM_ALL	605
T_JUDGE_TAP	387
T_JUDGE_HLD	279
T_JUDGE_SLD	78
T_JUDGE_ALL	744
TTM_EACHPAIRS	155
TTM_SCR_TAP	184000
TTM_SCR_BRK	57200
TTM_SCR_HLD	139000
TTM_SCR_SLD	114000
TTM_SCR_ALL	494200
TTM_SCR_S	477250
TTM_SCR_SS	492000
TTM_RAT_ACV	10044

