VERSION	0.00.00	1.05.00
FES_MODE	0
BPM_DEF	180.000	180.000	180.000	180.000
MET_DEF	4	4
RESOLUTION	384
CLK_DEF	384
COMPATIBLE_CODE	MA2

BPM	0	0	180.000
MET	0	0	4	4

NMHLD	2	192	3	96
NMHLD	2	192	4	96
NMTAP	3	0	2
NMTAP	3	96	2
NMTAP	3	192	3
NMTAP	3	288	3
NMTAP	4	0	4
NMTAP	4	96	4
NMHLD	4	192	5	384
NMTAP	5	0	4
NMTAP	5	96	4
EXTAP	5	192	4
EXSTR	5	288	4
NMSI_	5	288	4	96	144	1
EXSTR	5	288	5
NMSI_	5	288	5	96	144	0
NMTAP	6	288	0
NMTAP	7	0	1
NMHLD	7	96	1	96
NMTAP	7	192	0
NMHLD	7	288	0	96
NMTAP	8	0	7
NMHLD	8	96	7	96
NMTAP	8	192	5
NMTAP	8	288	4
NMTAP	9	0	3
NMSTR	9	0	5
NMSLR	9	0	5	96	192	3
NMTAP	10	96	2
NMTAP	10	96	4
NMTAP	10	192	2
NMTAP	10	192	4
NMTAP	10	288	5
NMTAP	10	336	5
NMTAP	11	0	3
NMTAP	11	96	2
NMTAP	11	96	4
NMTAP	11	192	1
NMTAP	11	240	1
NMTAP	11	288	3
NMTAP	12	0	2
NMTAP	12	0	4
NMTAP	12	96	1
NMTAP	12	96	3
NMTAP	12	192	0
NMTAP	12	240	0
NMTAP	12	288	7
NMTAP	13	0	0
NMTAP	13	0	6
EXTAP	13	96	7
NMTAP	13	192	6
NMTAP	13	240	6
NMTAP	13	288	4
NMTAP	14	0	3
NMTAP	14	0	5
NMTAP	14	96	3
NMTAP	14	96	5
NMHLD	14	192	4	96
NMHLD	14	192	6	96
BXHLD	15	0	3	96
BXHLD	15	0	7	96
EXTAP	15	240	1
EXHLD	15	336	1	240
NMTTP	16	192	2	B	0	M1
NMTTP	16	192	3	B	0	M1
NMTTP	16	192	3	E	1	M1
NMSTR	17	0	0
NMSCR	17	0	0	96	144	3
CNSI_	17	240	3	0	96	7
CNSCL	17	336	7	0	144	4
BXTAP	18	288	3
BXTAP	18	288	4
NMTAP	19	0	4
NMTAP	19	0	5
EXTAP	19	96	5
BXTAP	19	192	6
NMTAP	19	288	4
NMTAP	19	288	5
EXTAP	20	0	4
BXTAP	20	96	3
NMTAP	20	192	4
NMTAP	20	192	5
EXTAP	20	288	5
NMTAP	21	0	4
NMTAP	21	0	5
EXTAP	21	96	4
BXTAP	21	192	3
NMTAP	21	288	4
NMTAP	21	288	5
EXTAP	22	0	5
BXTAP	22	96	6
BXHLD	22	192	3	96
BXHLD	22	192	6	96
NMTAP	23	0	2
NMTAP	23	0	3
NMTAP	23	96	2
BXTAP	23	192	1
NMTAP	23	288	2
NMTAP	23	288	3
NMTAP	24	0	2
BXTAP	24	96	3
BXTAP	24	192	1
BXTAP	24	288	2
NMTAP	25	0	0
NMTAP	25	0	1
NMTAP	25	96	1
BXTAP	25	192	2
NMSTR	25	288	2
NMSCL	25	288	2	96	144	7
NMSTR	25	288	3
NMSUL	25	288	3	96	144	6
BXTAP	26	288	4
BXTAP	26	288	5
NMHLD	27	0	3	192
NMHLD	27	0	6	192
NMHLD	28	0	1	192
NMHLD	28	0	4	192
NMTTP	29	0	0	B	0	M1
NMTTP	29	96	0	C	0	M1
NMTHO	29	192	4	192	B	0	M1
BXTAP	30	0	7
NMTAP	30	288	2
NMTAP	30	288	6
BRTAP	31	0	1
BRTAP	31	0	3
NMTAP	31	96	1
NMTAP	31	96	3
NMTAP	31	192	6
NMTAP	31	192	7
NMTAP	31	288	4
NMTAP	31	288	5
NMTAP	32	0	0
NMTAP	32	0	7
NMTAP	32	96	1
NMTAP	32	96	3
NMTAP	32	192	6
NMTAP	32	240	6
NMTAP	32	288	4
NMTAP	33	0	4
NMTAP	33	0	5
NMTAP	33	96	4
NMTAP	33	96	5
NMTAP	33	192	0
NMTAP	33	192	7
NMTAP	33	288	1
NMTAP	33	288	4
NMTAP	34	0	2
NMTAP	34	48	2
NMTAP	34	96	3
NMTAP	34	192	4
NMTAP	34	192	5
BRTAP	34	288	2
BRTAP	34	288	7
NMTAP	35	0	0
NMTAP	35	0	1
NMTAP	35	96	0
NMTAP	35	96	1
NMTAP	35	192	6
NMTAP	35	192	7
NMTAP	35	288	0
NMTAP	35	288	5
NMTAP	36	0	6
NMTAP	36	0	7
NMTAP	36	96	6
NMTAP	36	96	7
NMTAP	36	192	0
NMTAP	36	192	1
NMTAP	36	288	2
NMTAP	36	288	7
NMTAP	37	0	0
NMSTR	37	0	1
NMSI_	37	0	1	96	96	5
NMSTR	37	192	6
NMSI_	37	192	6	96	96	2
NMTAP	38	0	0
NMTAP	38	96	0
BRTAP	38	192	2
BRTAP	38	192	6
NMHLD	39	0	1	96
NMTAP	39	0	3
NMTAP	39	96	0
NMTAP	39	192	0
NMTAP	39	192	7
NMTAP	39	288	5
NMTAP	40	0	4
NMHLD	40	0	6	96
NMTAP	40	96	7
NMTAP	40	192	0
NMTAP	40	192	7
NMSTR	40	288	0
NMSUR	40	288	0	96	192	7
NMSTR	40	288	1
NMSCR	40	288	1	96	192	6
NMTAP	41	288	6
NMSTR	41	288	7
NMSF_	41	288	7	96	96	3
BRTAP	42	192	1
BRTAP	42	192	5
NMHLD	43	0	0	96
NMHLD	43	0	6	96
EXTAP	43	144	1
EXTAP	43	144	5
EXTAP	43	192	1
EXTAP	43	192	5
NMTAP	43	288	2
NMSTR	43	288	4
NMSI_	43	288	4	96	96	0
NMTTP	45	0	2	E	0	M1
NMTTP	45	96	4	E	0	M1
NMTTP	45	192	6	E	0	M1
EXHLD	45	288	7	288
EXHLD	46	0	1	192
BRTAP	46	288	2
BRTAP	46	288	6
NMTAP	47	0	1
NMTAP	47	96	1
NMTAP	47	96	3
NMTAP	47	192	5
NMTAP	47	288	4
NMTAP	47	288	5
NMTAP	48	0	2
NMTAP	48	96	0
NMTAP	48	96	2
NMTAP	48	192	6
NMTAP	48	288	6
NMTAP	48	288	7
NMTAP	49	0	0
NMTAP	49	0	5
NMTAP	49	96	1
NMTAP	49	96	6
NMHLD	49	192	2	96
NMTAP	49	192	7
EXTAP	49	288	0
EXTAP	49	336	0
NMTAP	50	48	1
NMTAP	50	48	7
NMTAP	50	144	0
NMTAP	50	144	6
NMTAP	50	240	1
NMTAP	50	240	5
NMTAP	50	288	1
NMTAP	50	288	5
NMTAP	51	0	4
NMTAP	51	96	3
NMTAP	51	96	5
NMTAP	51	192	2
NMTAP	51	288	1
NMTAP	51	288	3
NMTAP	52	0	6
NMTAP	52	96	5
NMTAP	52	96	7
NMTAP	52	192	0
NMTAP	52	192	1
NMTAP	52	288	0
NMTAP	52	288	1
NMHLD	53	0	2	240
NMHLD	53	0	7	240
EXTAP	53	336	1
EXTAP	53	336	6
BXTAP	54	0	1
BXTAP	54	0	6
NMSTR	54	192	3
NMSUR	54	192	3	96	288	5
CNSI_	55	192	5	0	96	7
CNSI_	55	288	7	0	96	1
CNSI_	56	0	1	0	192	4
NMTAP	57	0	3
NMHLD	57	0	5	384
NMTTP	57	192	4	B	0	M1
NMTTP	57	192	4	A	0	M1
NMHLD	58	0	7	384
NMTTP	58	192	5	B	0	M1
NMTTP	58	192	5	A	0	M1
NMTAP	59	0	6
NMTAP	59	96	6
NMTAP	59	192	7
NMTAP	59	288	0
NMTAP	60	0	1
NMTAP	60	0	5
NMTTP	60	192	2	B	0	M1
NMTTP	60	192	3	B	0	M1
NMTTP	60	192	4	B	0	M1
NMTTP	61	0	1	E	0	M1
NMTTP	61	96	0	C	0	M1
NMTTP	61	192	4	E	0	M1
NMTTP	61	192	6	E	0	M1
NMTTP	62	0	7	E	0	M1
NMTTP	62	96	0	C	0	M1
NMTTP	62	192	2	E	0	M1
NMTTP	62	192	4	E	0	M1
NMSTR	63	0	1
NMSCL	63	0	1	96	192	6
NMSTR	64	0	5
NMSCL	64	0	5	96	192	2
NMHLD	65	0	1	192
NMHLD	65	192	2	192
NMHLD	66	0	3	192
NMHLD	66	192	4	192
EXHLD	67	0	7	192
NMHLD	67	192	6	192
NMHLD	68	0	5	192
NMTAP	68	192	4
NMHLD	69	0	3	480
NMHLD	69	0	6	480
BXTAP	70	192	3
BXTAP	70	192	6
BXTAP	70	288	3
BXTAP	70	288	6
NMTAP	71	0	4
NMTAP	71	0	5
NMTAP	71	96	6
NMTAP	71	144	6
NMTAP	71	240	0
NMTAP	71	288	0
NMSTR	72	0	1
NMSI_	72	0	1	96	96	4
NMSTR	72	0	7
NMSI_	72	0	7	96	96	4
NMHLD	73	0	4	1440
NMTAP	73	0	5
NMTAP	73	96	5
EXTAP	73	192	6
NMTAP	73	288	5
NMTAP	74	0	5
EXTAP	74	96	6
NMTAP	74	192	5
NMTAP	74	288	5
NMTAP	75	0	6
NMTAP	75	96	6
EXTAP	75	192	7
NMTAP	75	288	6
NMTAP	76	0	6
EXTAP	76	96	7
BXHLD	76	192	6	96
NMTAP	77	0	2
NMHLD	77	0	3	1056
NMTAP	77	96	2
EXTAP	77	192	1
NMTAP	77	288	2
NMTAP	78	0	2
EXTAP	78	96	1
EXTAP	78	192	0
EXTAP	78	288	1
NMTAP	79	0	2
NMTAP	79	96	2
EXTAP	79	192	1
NMTAP	79	288	2
NMHLD	80	0	4	96
NMHLD	80	0	6	96
NMHLD	80	192	1	96
NMHLD	80	192	3	96
NMTAP	81	0	2
NMTAP	81	96	2
NMTAP	81	192	2
NMTAP	81	192	3
NMTAP	81	288	3
NMTAP	81	288	4
NMTAP	82	0	5
NMTAP	82	96	5
NMTAP	82	192	3
NMTAP	82	192	4
EXTAP	83	0	0
EXTAP	83	96	0
EXTAP	83	96	7
EXTAP	83	192	6
EXTAP	83	192	7
NMTAP	83	288	0
NMTAP	83	288	5
NMHLD	84	0	1	192
NMHLD	84	0	4	192
NMTAP	84	288	2
NMTAP	84	288	5
NMHLD	85	0	3	192
NMHLD	85	0	6	192
NMTAP	85	288	4
NMTAP	85	288	5
NMTAP	85	336	4
NMTAP	85	336	5
NMTAP	86	48	2
NMTAP	86	48	3
NMTAP	86	96	2
NMTAP	86	96	3
BXHLD	86	192	0	96
BXHLD	86	192	7	96
EXSTR	87	0	0
NMSI_	87	0	0	96	96	6
EXTAP	87	0	7
CNSI_	87	192	6	0	96	1
CNSI_	87	288	1	0	96	5
CNSI_	88	0	5	0	96	2
CNSI_	88	96	2	0	96	4
NMTAP	88	192	5
NMTAP	88	288	5
BRTAP	89	0	6
BRTAP	89	0	7
NMTAP	89	96	2
NMTAP	89	96	3
NMTAP	89	192	0
NMTAP	89	192	1
NMSTR	89	288	4
NMSUR	89	288	4	96	192	3
NMSTR	89	288	5
NMSCR	89	288	5	96	192	2
BRTAP	90	288	1
BRTAP	90	288	4
NMTAP	91	0	6
NMTAP	91	48	6
NMTAP	91	96	7
NMTAP	91	192	0
NMTAP	91	192	5
NMTAP	91	288	2
NMTAP	91	288	7
NMTAP	92	0	1
NMTAP	92	48	1
NMTAP	92	96	0
NMTAP	92	192	1
NMTAP	92	192	3
NMTAP	92	288	4
NMTAP	92	288	6
NMTAP	93	0	0
NMTAP	93	0	7
NMTAP	93	96	4
NMTAP	93	96	6
NMTAP	93	192	3
NMTAP	93	192	4
NMTAP	93	288	1
NMTAP	93	288	3
NMHLD	94	0	0	96
NMHLD	94	96	2	96
NMHLD	94	192	4	96
BRTAP	94	288	6
NMTAP	95	0	0
NMTAP	95	0	1
NMTAP	95	96	0
NMTAP	95	96	1
NMTAP	95	192	3
NMTAP	95	192	4
NMTAP	95	288	0
NMTAP	95	288	5
NMTAP	96	0	6
NMTAP	96	0	7
NMTAP	96	96	6
NMTAP	96	96	7
NMTAP	96	192	3
NMTAP	96	192	4
NMHLD	96	288	1	288
NMTAP	96	288	7
NMTAP	97	0	0
NMTAP	97	96	2
NMTAP	97	192	0
NMTAP	97	288	0
NMTAP	97	288	7
NMSTR	98	0	6
NMSI_	98	0	6	96	48	2
NMSTR	98	0	7
NMSI_	98	0	7	96	48	3
BXTAP	98	192	1
BXTAP	98	192	4
NMHLD	99	0	2	96
NMHLD	99	96	0	96
NMHLD	99	192	7	96
NMHLD	99	288	5	96
NMTHO	100	0	0	384	C	0	M1
NMTTP	101	0	0	E	0	M1
NMTTP	101	96	7	E	0	M1
NMTTP	101	192	6	E	0	M1
NMTTP	101	288	4	B	0	M1
NMTTP	101	288	5	E	0	M1
NMTTP	102	0	0	E	0	M1
NMTTP	102	96	1	E	0	M1
NMTTP	102	192	2	E	0	M1
NMTTP	102	288	3	B	0	M1
NMTTP	102	288	3	E	0	M1
NMTHO	103	0	0	768	C	0	M1
NMTHO	103	0	5	768	B	0	M1
NMTAP	105	336	0
NMTAP	105	336	7
NMHLD	106	0	0	192
NMTAP	106	0	7
NMSTR	106	192	6
BRSI_	106	192	6	96	48	2
EXHLD	107	0	1	96
EXTAP	107	96	3
NMTAP	107	192	5
NMTAP	107	240	5
NMTAP	107	288	4
NMTAP	108	0	6
NMTAP	108	0	7
NMSTR	108	96	0
NMSUR	108	96	0	96	96	5
NMSTR	108	96	1
NMSCR	108	96	1	96	96	4
NMHLD	109	0	6	96
NMTAP	109	96	4
NMTAP	109	192	2
NMTAP	109	240	2
NMTAP	109	288	3
NMTAP	110	0	0
NMTAP	110	0	1
NMSTR	110	96	6
NMSCL	110	96	6	96	96	3
NMSTR	110	96	7
NMSUL	110	96	7	96	96	2
NMTAP	111	0	1
NMTAP	111	48	1
NMTAP	111	96	0
NMTAP	111	144	0
NMHLD	111	192	2	96
NMTAP	111	288	3
NMTAP	112	0	5
NMTAP	112	48	5
NMTAP	112	96	4
NMTAP	112	144	4
NMHLD	112	192	6	96
NMSTR	112	288	7
NMSCR	112	288	7	96	240	5
NMTAP	113	336	4
NMTAP	113	336	6
NMHLD	114	0	4	288
BXTAP	114	0	6
NMTHO	114	192	5	96	B	0	M1

T_REC_TAP	284
T_REC_BRK	15
T_REC_XTP	32
T_REC_BXX	23
T_REC_HLD	52
T_REC_XHO	5
T_REC_BHO	0
T_REC_BXH	7
T_REC_STR	25
T_REC_BST	0
T_REC_XST	3
T_REC_XBS	0
T_REC_TTP	33
T_REC_THO	5
T_REC_SLD	27
T_REC_BSL	1
T_REC_ALL	512
T_NUM_TAP	377
T_NUM_BRK	46
T_NUM_HLD	62
T_NUM_SLD	27
T_NUM_ALL	512
T_JUDGE_TAP	415
T_JUDGE_HLD	311
T_JUDGE_SLD	28
T_JUDGE_ALL	754
TTM_EACHPAIRS	139
TTM_SCR_TAP	188500
TTM_SCR_BRK	119600
TTM_SCR_HLD	62000
TTM_SCR_SLD	40500
TTM_SCR_ALL	410600
TTM_SCR_S	393850
TTM_SCR_SS	406000
TTM_RAT_ACV	10113

