VERSION	0.00.00	1.05.00
FES_MODE	0
BPM_DEF	180.000	180.000	180.000	180.000
MET_DEF	4	4
RESOLUTION	384
CLK_DEF	384
COMPATIBLE_CODE	MA2

BPM	0	0	180.000
MET	0	0	4	4

NMTAP	3	0	7
NMTAP	3	96	7
NMTAP	3	192	7
NMTAP	4	0	6
NMTAP	4	96	6
NMTAP	4	192	6
NMTAP	5	0	5
NMTAP	5	96	5
NMTAP	5	192	5
NMTAP	6	0	3
NMTAP	6	0	4
NMTAP	6	192	3
NMTAP	6	192	4
NMTAP	7	0	3
NMTAP	7	96	3
NMTAP	7	192	3
NMTAP	8	0	2
NMTAP	8	96	2
NMTAP	8	192	2
NMTAP	9	0	1
NMTAP	9	96	1
NMTAP	9	192	1
NMTAP	10	0	0
NMTAP	10	0	7
NMTAP	10	192	0
NMTAP	10	192	7
NMHLD	11	0	6	192
NMHLD	11	192	7	192
NMHLD	12	0	0	192
NMTAP	12	192	1
NMHLD	13	0	1	192
NMHLD	13	192	0	192
NMHLD	14	0	7	192
NMTAP	14	192	6
NMHLD	15	0	6	192
NMHLD	15	192	5	192
NMHLD	16	0	4	192
NMTAP	16	192	3
NMHLD	17	0	1	192
NMHLD	17	192	2	192
NMHLD	18	0	3	192
NMTAP	18	192	4
NMTAP	19	0	2
NMTAP	19	96	2
NMTAP	19	192	1
NMTAP	19	288	1
NMTAP	20	0	0
NMTAP	20	96	0
NMTAP	20	192	6
NMTAP	20	192	7
NMTAP	21	0	5
NMTAP	21	96	5
NMTAP	21	192	6
NMTAP	21	288	6
NMTAP	22	0	7
NMTAP	22	96	7
NMTAP	22	192	0
NMTAP	22	192	1
NMTAP	23	0	1
NMTAP	23	96	1
NMTAP	23	192	2
NMTAP	23	288	2
NMTAP	24	0	3
NMTAP	24	96	3
NMTAP	24	192	4
NMTAP	24	192	5
NMTAP	25	0	6
NMTAP	25	96	6
NMTAP	25	192	5
NMTAP	25	288	5
NMTAP	26	0	4
NMTAP	26	96	4
NMTAP	26	192	2
NMTAP	26	192	3
NMSTR	27	0	0
NMSI_	27	0	0	96	288	5
NMSTR	27	0	1
NMSI_	27	0	1	96	288	4
NMTAP	28	192	6
NMTAP	28	192	7
NMSTR	29	0	6
NMSI_	29	0	6	96	288	3
NMSTR	29	0	7
NMSI_	29	0	7	96	288	2
NMTAP	30	192	2
NMTAP	30	192	3
NMTAP	31	0	2
NMTAP	31	96	2
NMTAP	31	192	1
NMTAP	31	288	1
NMTAP	32	0	0
NMTAP	32	96	0
NMTAP	32	192	6
NMTAP	32	192	7
NMTAP	32	288	6
NMTAP	32	288	7
NMTAP	33	0	5
NMTAP	33	96	5
NMTAP	33	192	6
NMTAP	33	288	6
NMTAP	34	0	7
NMTAP	34	96	7
NMTAP	34	192	0
NMTAP	34	192	1
NMTAP	35	0	1
NMTAP	35	96	1
NMTAP	35	192	2
NMTAP	35	288	2
NMTAP	36	0	3
NMTAP	36	96	3
NMTAP	36	192	4
NMTAP	36	192	5
NMTAP	36	288	4
NMTAP	36	288	5
NMTAP	37	0	6
NMTAP	37	96	6
NMTAP	37	192	5
NMTAP	37	288	5
NMTAP	38	0	4
NMTAP	38	96	4
NMTAP	38	192	2
NMTAP	38	192	3
NMTAP	39	0	1
NMTAP	39	96	1
NMTAP	39	192	1
NMTAP	39	288	0
NMTAP	39	288	1
NMTAP	40	0	2
NMTAP	40	96	2
NMTAP	40	192	2
NMTAP	40	288	2
NMTAP	40	288	3
NMTAP	41	0	4
NMTAP	41	96	4
NMTAP	41	192	4
NMTAP	41	288	4
NMTAP	41	288	5
NMTAP	42	0	6
NMTAP	42	0	7
NMTAP	42	96	6
NMTAP	42	96	7
BRTAP	42	192	6
BRTAP	42	192	7
NMTAP	43	0	6
NMTAP	43	96	6
NMTAP	43	192	6
NMTAP	43	288	6
NMTAP	43	288	7
NMTAP	44	0	5
NMTAP	44	96	5
NMTAP	44	192	5
NMTAP	44	288	4
NMTAP	44	288	5
NMTAP	45	0	3
NMTAP	45	96	3
NMTAP	45	192	3
NMTAP	45	288	2
NMTAP	45	288	3
NMTAP	46	0	0
NMTAP	46	0	1
NMTAP	46	96	0
NMTAP	46	96	1
NMTAP	46	192	0
NMTAP	46	192	1
NMTTP	47	0	1	B	0	L1
NMTTP	47	96	2	B	0	L1
NMTTP	47	192	3	B	0	L1
NMTTP	48	0	6	B	0	L1
NMTTP	48	96	5	B	0	L1
NMTTP	48	192	4	B	0	L1
NMTTP	49	0	1	B	0	L1
NMTTP	49	96	2	B	0	L1
NMTTP	49	192	3	B	0	L1
NMTTP	49	288	4	B	0	L1
NMTTP	50	0	0	C	0	L1
NMTTP	51	0	7	B	0	L1
NMTTP	51	96	6	B	0	L1
NMTTP	51	192	4	B	0	L1
NMTTP	51	192	5	B	0	L1
NMTTP	52	0	0	B	0	L1
NMTTP	52	96	1	B	0	L1
NMTTP	52	192	2	B	0	L1
NMTTP	52	192	3	B	0	L1
NMTTP	53	0	6	B	0	L1
NMTTP	53	96	5	B	0	L1
NMTTP	53	192	4	B	0	L1
NMTTP	53	288	3	B	0	L1
NMTTP	54	0	2	B	0	L1
NMTTP	54	96	1	B	0	L1
NMTHO	54	192	0	576	C	1	L1
NMHLD	57	0	1	192
NMTAP	57	192	0
NMTAP	58	0	0
NMTAP	58	0	1
NMTAP	58	192	0
NMTAP	58	192	1
NMHLD	59	0	2	192
NMTAP	59	192	3
NMTAP	60	0	2
NMTAP	60	0	3
NMTAP	60	192	2
NMTAP	60	192	3
NMHLD	61	0	5	192
NMTAP	61	192	4
NMTAP	62	0	4
NMTAP	62	0	5
NMTAP	62	192	4
NMTAP	62	192	5
NMHLD	63	0	6	192
NMTAP	63	192	7
NMTAP	64	0	6
NMTAP	64	0	7
NMTAP	64	192	6
NMTAP	64	192	7
NMSTR	65	0	5
NMSI_	65	0	5	96	288	2
NMTAP	66	192	1
NMSTR	67	0	1
NMSI_	67	0	1	96	288	5
NMTAP	68	192	6
NMSTR	69	0	6
NMSLL	69	0	6	96	480	2
NMSTR	71	0	1
NMSLR	71	0	1	96	480	5
NMTAP	73	0	7
NMTAP	73	192	7
NMTAP	74	0	6
NMTAP	74	192	6
NMTAP	75	0	5
NMTAP	75	192	5
NMTAP	76	0	3
NMTAP	76	0	4
NMTAP	76	96	3
NMTAP	76	96	4
NMTAP	76	192	3
NMTAP	76	192	4
NMTAP	77	0	3
NMTAP	77	192	3
NMTAP	78	0	2
NMTAP	78	192	2
NMTAP	79	0	1
NMTAP	79	192	1
NMTAP	80	0	0
NMTAP	80	0	7
NMTAP	80	96	0
NMTAP	80	96	7
NMTAP	80	192	0
NMTAP	80	192	7
NMHLD	81	0	1	192
NMTAP	81	192	0
NMHLD	82	0	2	192
NMTAP	82	192	3
NMHLD	83	0	5	192
NMTAP	83	192	4
NMHLD	84	0	6	192
NMTAP	84	192	7
NMHLD	85	0	0	192
NMTAP	85	192	7
EXTAP	86	0	0
EXTAP	86	0	7
EXTAP	86	192	0
EXTAP	86	192	7
NMTAP	87	0	6
NMTAP	87	96	6
NMTAP	87	192	6
NMTAP	87	192	7
NMTAP	87	288	6
NMTAP	87	288	7
NMTAP	88	0	0
NMTAP	88	96	0
NMTAP	88	192	0
NMTAP	88	192	1
BXTAP	89	0	2
NMTAP	89	96	2
NMTAP	89	192	0
NMTAP	89	192	1
NMTAP	89	288	0
NMTAP	89	288	1
NMTAP	90	0	7
NMTAP	90	96	7
BXTAP	90	192	6
BXTAP	90	192	7
NMTAP	91	0	6
NMTAP	91	96	6
NMTAP	91	192	4
NMTAP	91	192	5
NMTAP	91	288	4
NMTAP	91	288	5
NMTAP	92	0	3
NMTAP	92	96	3
NMTAP	92	192	2
NMTAP	92	192	3
NMTAP	93	0	1
NMTAP	93	96	1
NMTAP	93	192	2
NMTAP	93	192	3
NMTAP	93	288	2
NMTAP	93	288	3
NMTAP	94	0	4
NMTAP	94	96	4
NMTAP	94	192	4
NMTAP	94	192	5
NMTAP	95	0	6
NMTAP	95	96	6
NMTAP	95	192	6
NMTAP	95	288	6
NMTAP	95	288	7
NMTAP	96	0	5
NMTAP	96	96	5
NMTAP	96	192	5
NMTAP	96	288	4
NMTAP	96	288	5
NMTAP	97	0	3
NMTAP	97	96	3
NMTAP	97	192	3
NMTAP	97	288	2
NMTAP	97	288	3
NMTAP	98	0	0
NMTAP	98	0	1
NMTAP	98	96	0
NMTAP	98	96	1
BRTAP	98	192	0
BRTAP	98	192	1
NMTAP	99	0	1
NMTAP	99	96	1
NMTAP	99	192	1
NMTAP	99	288	0
NMTAP	99	288	1
NMTAP	100	0	2
NMTAP	100	96	2
NMTAP	100	192	2
NMTAP	100	288	2
NMTAP	100	288	3
NMTAP	101	0	4
NMTAP	101	96	4
NMTAP	101	192	4
NMTAP	101	288	4
NMTAP	101	288	5
NMTAP	102	0	6
NMTAP	102	0	7
NMTAP	102	96	6
NMTAP	102	96	7
NMTAP	102	192	6
NMTAP	102	192	7
NMHLD	103	0	4	192
NMHLD	103	0	5	192
NMHLD	104	0	2	192
NMHLD	104	0	3	192
NMSTR	105	0	3
NMSCL	105	0	3	96	288	0
NMSTR	105	0	4
NMSCR	105	0	4	96	288	7
NMTAP	107	0	0
NMTAP	107	96	1
NMTAP	107	192	2
NMTAP	107	288	3
NMTAP	108	0	4
NMTAP	108	96	5
NMTAP	108	192	6
NMTAP	108	192	7
NMTAP	109	0	7
NMTAP	109	96	6
NMTAP	109	192	5
NMTAP	109	288	4
NMTAP	110	0	3
NMTAP	110	96	2
NMTAP	110	192	0
NMTAP	110	192	1
NMTAP	111	0	0
NMTAP	111	96	1
NMTAP	111	192	2
NMTAP	111	288	3
NMTAP	112	0	4
NMTAP	112	96	5
NMTAP	112	192	6
NMSTR	112	288	0
NMSXL	112	288	0	96	672	3
NMSTR	112	288	7
NMSXR	112	288	7	96	672	4

T_REC_TAP	293
T_REC_BRK	4
T_REC_XTP	4
T_REC_BXX	3
T_REC_HLD	25
T_REC_XHO	0
T_REC_BHO	0
T_REC_BXH	0
T_REC_STR	12
T_REC_BST	0
T_REC_XST	0
T_REC_XBS	0
T_REC_TTP	25
T_REC_THO	1
T_REC_SLD	12
T_REC_BSL	0
T_REC_ALL	379
T_NUM_TAP	334
T_NUM_BRK	7
T_NUM_HLD	26
T_NUM_SLD	12
T_NUM_ALL	379
T_JUDGE_TAP	341
T_JUDGE_HLD	112
T_JUDGE_SLD	12
T_JUDGE_ALL	465
TTM_EACHPAIRS	76
TTM_SCR_TAP	167000
TTM_SCR_BRK	18200
TTM_SCR_HLD	26000
TTM_SCR_SLD	18000
TTM_SCR_ALL	229200
TTM_SCR_S	221650
TTM_SCR_SS	228500
TTM_RAT_ACV	10030

