VERSION	0.00.00	1.05.00
FES_MODE	0
BPM_DEF	140.000	140.000	140.000	140.000
MET_DEF	4	4
RESOLUTION	384
CLK_DEF	384
COMPATIBLE_CODE	MA2

BPM	0	0	140.000
MET	0	0	4	4

NMSTR	1	0	3
NMSCL	1	0	3	96	288	7
NMTAP	1	96	5
NMTAP	1	168	5
NMHLD	1	240	5	96
NMTAP	2	0	4
CNSCR	2	0	7	0	288	3
NMTAP	2	72	4
NMHLD	2	144	4	144
NMSTR	3	0	4
NMSCR	3	0	4	96	288	0
NMTAP	3	96	2
NMTAP	3	168	2
NMHLD	3	240	2	96
CNSCL	4	0	0	0	288	4
NMTAP	4	0	3
NMTAP	4	72	3
NMHLD	4	144	3	144
NMSTR	5	0	3
NMSCL	5	0	3	96	288	7
NMTAP	5	96	6
NMTAP	5	168	5
NMHLD	5	240	4	96
NMTAP	6	0	3
CNSCR	6	0	7	0	288	3
NMTAP	6	72	4
NMHLD	6	144	5	144
NMSTR	7	0	4
NMSCR	7	0	4	96	288	0
NMTAP	7	96	1
NMTAP	7	168	2
NMHLD	7	240	3	96
CNSCL	8	0	0	0	288	4
NMTAP	8	0	4
NMTAP	8	72	3
NMHLD	8	144	2	144
NMHLD	9	0	3	576
NMTAP	9	144	4
NMSTR	9	192	4
NMSI_	9	192	4	96	48	2
NMTAP	10	0	1
NMTAP	10	72	1
NMTAP	10	144	1
NMTAP	10	192	1
NMTAP	10	288	2
NMTAP	10	288	3
NMHLD	11	0	4	576
NMTAP	11	144	3
NMSTR	11	192	3
NMSI_	11	192	3	96	48	5
NMTAP	12	0	6
NMTAP	12	72	6
NMTAP	12	144	6
NMTAP	12	192	6
NMTAP	12	288	4
NMTAP	12	288	5
NMHLD	13	0	2	144
NMTAP	13	144	3
NMHLD	13	192	1	96
NMSTR	13	192	4
NMSI_	13	192	4	96	48	2
NMTAP	14	0	1
NMTAP	14	0	3
NMTAP	14	72	1
NMTAP	14	72	3
NMTAP	14	144	0
NMTAP	14	144	2
NMSTR	14	192	0
NMSCR	14	192	0	96	48	3
NMHLD	14	192	2	96
NMHLD	15	0	5	144
NMTAP	15	144	4
NMSTR	15	192	3
NMSI_	15	192	3	96	48	5
NMHLD	15	192	6	96
EXTAP	16	0	4
EXTAP	16	0	6
EXTAP	16	96	3
EXTAP	16	96	4
EXTAP	16	192	1
EXTAP	16	192	3
NMSTR	16	288	0
NMSI_	16	288	0	96	48	3
NMSI_	16	288	0	96	48	5
BRTAP	17	0	0
NMHLD	17	96	4	48
NMHLD	17	96	6	48
NMHLD	17	192	2	48
NMHLD	17	192	4	48
NMTAP	17	288	4
NMSTR	17	288	5
NMSCL	17	288	5	96	96	2
NMSTR	18	0	1
NMSUR	18	0	1	96	48	6
CNSCR	18	96	2	0	48	5
NMTAP	18	192	7
NMTAP	18	240	0
NMSTR	18	288	7
NMSI_	18	288	7	96	48	2
NMSI_	18	288	7	96	48	4
NMTAP	19	0	7
NMHLD	19	96	1	48
NMHLD	19	96	3	48
NMHLD	19	192	3	48
NMHLD	19	192	5	48
NMSTR	19	288	2
NMSCR	19	288	2	96	96	5
NMTAP	19	288	3
NMSTR	20	0	6
NMSUL	20	0	6	96	48	1
CNSCL	20	96	5	0	48	2
NMTAP	20	192	0
NMTAP	20	240	7
NMSTR	20	288	0
NMSI_	20	288	0	96	48	3
NMSI_	20	288	0	96	48	5
NMTAP	21	0	0
NMHLD	21	96	4	48
NMHLD	21	96	6	48
NMHLD	21	192	2	48
NMHLD	21	192	4	48
NMTAP	21	288	4
NMTAP	21	288	5
NMTAP	21	336	4
NMHLD	21	336	5	96
NMTAP	22	48	6
NMTAP	22	96	6
NMTAP	22	96	7
NMTAP	22	144	0
NMTAP	22	144	7
NMTAP	22	192	0
NMSTR	22	192	1
NMSI_	22	192	1	96	48	4
NMSI_	22	192	1	96	48	6
NMTAP	22	288	1
BXTAP	23	0	7
NMTAP	23	96	4
NMTAP	23	96	7
EXSTR	23	144	4
NMSCL	23	144	4	96	48	1
EXSTR	23	144	7
NMSCL	23	144	7	96	48	4
NMTAP	23	240	4
NMTAP	23	240	7
EXTAP	23	336	0
EXTAP	23	336	3
NMTAP	24	48	1
NMTAP	24	72	3
NMTAP	24	96	2
NMTAP	24	120	4
NMTAP	24	144	3
NMTAP	24	168	5
NMHLD	24	192	4	96
NMSTR	24	288	0
NMSI_	24	288	0	96	24	5
EXTAP	25	0	0
EXTAP	25	0	1
NMTAP	25	72	4
NMTAP	25	72	6
NMTAP	25	144	2
NMSTR	25	144	4
BRSV_	25	144	4	96	48	1
BRSV_	25	144	4	96	48	7
BXTAP	25	240	4
NMSTR	25	336	0
NMSCR	25	336	0	96	48	3
NMSTR	26	48	0
NMSCL	26	48	0	96	48	5
NMTAP	26	48	6
NMTAP	26	96	7
NMTAP	26	144	0
NMTAP	26	144	4
NMTAP	26	240	7
NMSTR	26	288	7
NMSI_	26	288	7	96	24	2
NMTAP	26	336	6
EXTAP	27	0	6
EXTAP	27	0	7
NMTAP	27	72	1
NMTAP	27	72	3
NMSTR	27	144	3
BRSV_	27	144	3	96	48	0
BRSV_	27	144	3	96	48	6
NMTAP	27	144	5
BXTAP	27	240	3
NMSTR	27	336	7
NMSCL	27	336	7	96	48	4
NMTAP	28	48	1
NMSTR	28	48	7
NMSCR	28	48	7	96	48	2
NMTAP	28	96	0
NMTAP	28	144	3
NMTAP	28	144	7
NMTAP	28	240	7
NMTAP	28	288	0
NMTAP	28	288	6
NMSTR	29	0	3
BRSI_	29	0	3	96	48	5
BRSI_	29	0	3	96	48	7
BXTAP	29	96	3
NMSTR	29	192	4
BRSI_	29	192	4	96	48	0
BRSI_	29	192	4	96	48	2
BXTAP	29	288	4
NMTAP	30	0	3
NMTAP	30	48	0
NMTAP	30	48	2
NMTAP	30	96	1
NMTAP	30	96	7
NMTAP	30	144	0
NMHLD	30	144	6	144
NMTAP	30	240	7
NMSTR	30	288	0
NMSI_	30	288	0	96	24	5
NMTAP	30	336	1
EXTAP	31	0	0
EXTAP	31	0	1
NMTAP	31	72	4
NMTAP	31	72	6
NMTAP	31	144	2
NMSTR	31	144	4
BRSV_	31	144	4	96	48	1
BRSV_	31	144	4	96	48	7
BXTAP	31	240	4
EXHLD	31	336	6	96
NMTAP	32	48	7
NMTAP	32	96	4
NMTAP	32	96	5
NMTAP	32	144	2
NMTAP	32	144	3
NMTAP	32	240	0
NMTAP	32	240	2
NMTAP	32	288	0
BRSTR	32	288	2
NMSXR	32	288	2	96	96	1
NMHLD	33	0	3	96
CNSCR	33	96	1	0	144	7
NMTAP	33	144	0
NMTAP	33	240	5
NMSTR	33	288	5
NMSXL	33	288	5	96	96	6
NMHLD	34	0	4	96
CNSCL	34	96	6	0	144	0
NMTAP	34	144	7
NMTAP	34	240	2
NMSTR	34	288	2
NMSI_	34	288	2	96	48	6
NMSI_	34	288	2	96	48	7
BXTAP	35	0	2
NMSTR	35	96	5
NMSI_	35	96	5	96	48	0
NMSI_	35	96	5	96	48	1
BXTAP	35	192	5
NMTAP	35	288	2
NMHLD	35	336	1	96
NMTAP	35	336	3
NMTAP	36	48	0
NMTAP	36	96	6
NMTAP	36	96	7
NMTAP	36	144	4
NMTAP	36	144	5
NMTAP	36	240	5
NMTAP	36	240	7
NMSTR	36	288	5
NMSXL	36	288	5	96	96	6
NMTAP	36	288	7
NMHLD	37	0	4	96
CNSCL	37	96	6	0	144	0
NMTAP	37	144	7
NMTAP	37	240	2
NMSTR	37	288	2
NMSXR	37	288	2	96	96	1
NMHLD	38	0	3	96
CNSCR	38	96	1	0	144	7
NMTAP	38	144	0
NMTAP	38	240	5
NMSTR	38	288	5
NMSI_	38	288	5	96	48	0
NMSI_	38	288	5	96	48	1
BXTAP	39	0	5
NMSTR	39	96	2
NMSI_	39	96	2	96	48	6
NMSI_	39	96	2	96	48	7
BXTAP	39	192	2
NMTAP	39	288	5
NMTAP	39	336	4
NMHLD	39	336	6	96
NMTAP	40	48	7
NMTAP	40	72	6
NMTAP	40	96	0
NMTAP	40	120	5
NMTAP	40	144	1
NMTAP	40	168	4
NMTAP	40	192	2
NMTAP	40	240	1
NMTAP	40	240	3
NMHLD	40	288	0	384
BRTAP	40	288	2
NMTAP	42	0	1
NMSTR	42	0	7
NMSCL	42	0	7	96	48	5
NMSTR	42	96	3
NMSCL	42	96	3	96	96	7
CNSV_	42	144	5	0	96	4
NMSTR	42	288	3
NMSI_	42	288	3	96	48	7
NMSTR	43	0	0
NMSI_	43	0	0	96	48	2
NMHLD	43	96	7	96
CNSI_	43	144	2	0	48	4
CNSI_	43	192	4	0	48	1
NMTTP	43	240	7	B	0	M1
NMTTP	43	288	5	B	0	M1
NMSTR	44	0	0
NMSCR	44	0	0	96	48	2
NMTAP	44	0	6
NMSTR	44	96	4
NMSCR	44	96	4	96	96	0
CNSV_	44	144	2	0	96	3
NMSTR	44	288	4
NMSI_	44	288	4	96	48	0
NMSTR	45	0	7
NMSI_	45	0	7	96	48	5
NMHLD	45	96	0	96
CNSI_	45	144	5	0	48	3
CNSI_	45	192	3	0	48	6
NMTTP	45	288	2	B	0	M1
NMTTP	45	288	3	B	0	M1
NMTTP	45	288	3	E	0	M1
NMTAP	46	0	1
NMSTR	46	0	7
NMSCL	46	0	7	96	48	5
NMTAP	46	96	3
NMTAP	46	144	2
CNSV_	46	144	5	0	96	4
NMSTR	46	192	1
NMSUL	46	192	1	96	48	5
NMSTR	46	288	3
NMSI_	46	288	3	96	48	7
NMSTR	47	0	0
NMSI_	47	0	0	96	48	2
NMHLD	47	96	7	96
CNSI_	47	144	2	0	48	4
CNSI_	47	192	4	0	48	1
NMTTP	47	240	7	B	0	M1
NMTTP	47	288	5	B	0	M1
NMSTR	48	0	0
NMSCR	48	0	0	96	48	2
NMTAP	48	0	6
NMTAP	48	96	4
CNSV_	48	144	2	0	96	3
NMTAP	48	144	5
NMSTR	48	192	6
NMSCL	48	192	6	96	192	0
NMHLD	48	288	4	192
NMTAP	49	192	7
NMTAP	49	216	6
NMTAP	49	240	5
NMTAP	49	264	4
NMTAP	49	288	3
NMTAP	49	312	2
NMTAP	49	336	1
NMTAP	49	360	0
NMHLD	50	0	7	96
NMHLD	50	96	4	96
NMSTR	50	192	2
BRSI_	50	192	2	96	48	6
NMTAP	50	240	1
BRSTR	50	288	0
NMSF_	50	288	0	96	48	4
BRTAP	51	96	0
BRTAP	51	96	6
NMTAP	51	192	2
NMTAP	51	216	3
NMTAP	51	240	2
NMSTR	51	288	1
NMSUR	51	288	1	96	96	6
NMTAP	51	288	4
NMSTR	52	0	6
NMSCL	52	0	6	96	48	2
NMSTR	52	96	7
NMSXR	52	96	7	96	96	4
NMTAP	52	240	2
NMSTR	52	288	0
NMSI_	52	288	0	96	48	3
NMSI_	52	288	0	96	48	5
NMTAP	53	0	0
NMTAP	53	96	0
NMTAP	53	96	6
NMTAP	53	144	1
NMTAP	53	192	2
NMTAP	53	192	4
NMTAP	53	240	3
NMTAP	53	240	5
NMTAP	53	288	4
NMSTR	53	288	6
NMSI_	53	288	6	96	48	1
NMSTR	54	0	5
NMSI_	54	0	5	96	48	2
NMSTR	54	96	0
NMSI_	54	96	0	96	48	3
NMTAP	54	240	1
NMSTR	54	288	0
NMSI_	54	288	0	96	48	4
NMSTR	54	288	1
NMSI_	54	288	1	96	48	4
NMTAP	55	0	0
NMTAP	55	0	1
NMHLD	55	96	5	48
NMHLD	55	96	7	48
NMHLD	55	192	1	48
NMHLD	55	192	3	48
NMTAP	55	288	2
NMTAP	55	288	4
NMSTR	55	336	2
NMSI_	55	336	2	96	48	4
NMHLD	55	336	4	96
CNSI_	56	96	4	0	48	0
NMTAP	56	96	5
NMTAP	56	144	6
NMTAP	56	192	1
NMSTR	56	192	7
NMSI_	56	192	7	96	48	3
NMSI_	56	192	7	96	48	5
NMTAP	56	288	7
BXTAP	57	0	0
BXTAP	57	0	6
NMTAP	57	48	5
NMTAP	57	72	4
NMTAP	57	96	5
EXSTR	57	144	1
NMSI_	57	144	1	96	48	6
EXTAP	57	144	3
NMSTR	57	240	5
NMSI_	57	240	5	96	48	2
EXSTR	57	336	7
NMSCR	57	336	7	96	144	5
NMHLD	58	48	6	240
NMTAP	58	48	7
NMSTR	58	288	7
NMSCR	58	288	7	96	24	2
EXTAP	59	0	5
EXTAP	59	0	7
NMTAP	59	48	6
NMTAP	59	72	4
NMTAP	59	120	1
NMSTR	59	144	3
BRSV_	59	144	3	96	48	0
BRSV_	59	144	3	96	48	6
BXTAP	59	240	3
NMSTR	59	336	7
NMSCL	59	336	7	96	48	4
NMTAP	60	48	1
NMSTR	60	48	7
NMSCR	60	48	7	96	48	2
NMTAP	60	96	0
NMTAP	60	144	3
NMTAP	60	144	7
NMTAP	60	240	0
NMSTR	60	288	0
NMSCL	60	288	0	96	24	5
NMTAP	60	336	2
EXTAP	61	0	0
EXTAP	61	0	2
NMTAP	61	48	1
NMTAP	61	72	3
NMTAP	61	120	6
NMSTR	61	144	4
BRSV_	61	144	4	96	48	1
BRSV_	61	144	4	96	48	7
BXTAP	61	240	4
NMSTR	61	336	0
NMSCR	61	336	0	96	48	3
NMSTR	62	48	0
NMSCL	62	48	0	96	48	5
NMTAP	62	48	6
NMTAP	62	96	7
NMTAP	62	144	0
NMTAP	62	144	4
NMTAP	62	240	0
NMTAP	62	288	1
NMTAP	62	288	7
NMSTR	63	0	4
BRSI_	63	0	4	96	48	0
BRSI_	63	0	4	96	48	2
BXTAP	63	96	4
NMSTR	63	192	3
BRSI_	63	192	3	96	48	5
BRSI_	63	192	3	96	48	7
BXTAP	63	288	3
NMTAP	64	0	4
NMTAP	64	48	5
NMTAP	64	48	7
NMTAP	64	96	0
NMTAP	64	96	6
NMHLD	64	144	1	144
NMTAP	64	144	7
NMTAP	64	240	0
NMSTR	64	288	7
NMSCR	64	288	7	96	24	2
NMTAP	64	336	6
EXTAP	65	0	5
EXTAP	65	0	7
NMTAP	65	48	6
NMTAP	65	72	4
NMTAP	65	120	1
NMSTR	65	144	3
BRSV_	65	144	3	96	48	0
BRSV_	65	144	3	96	48	6
BXTAP	65	240	3
EXHLD	65	336	1	96
EXTAP	65	336	7
NMTAP	66	48	0
NMTAP	66	96	2
NMTAP	66	96	3
NMTAP	66	144	4
NMTAP	66	144	5
NMTAP	66	240	5
NMTAP	66	240	7
NMSTR	66	288	5
NMSXL	66	288	5	96	96	6
BRTAP	66	288	7
NMHLD	67	0	4	96
CNSCL	67	96	6	0	144	0
NMTAP	67	144	7
NMTAP	67	240	2
NMSTR	67	288	2
NMSXR	67	288	2	96	96	1
NMHLD	68	0	3	96
CNSCR	68	96	1	0	144	7
NMTAP	68	144	0
NMTAP	68	240	5
NMSTR	68	288	5
NMSI_	68	288	5	96	48	0
NMSI_	68	288	5	96	48	1
BXTAP	69	0	5
NMSTR	69	96	2
NMSI_	69	96	2	96	48	6
NMSI_	69	96	2	96	48	7
BXTAP	69	192	2
NMTAP	69	288	5
NMTAP	69	336	4
NMHLD	69	336	6	96
NMTAP	70	48	7
NMTAP	70	96	0
NMTAP	70	96	1
NMTAP	70	144	2
NMTAP	70	144	3
NMTAP	70	240	0
NMTAP	70	240	2
NMTAP	70	288	0
NMSTR	70	288	2
NMSXR	70	288	2	96	96	1
NMHLD	71	0	3	96
CNSCR	71	96	1	0	144	7
NMTAP	71	144	0
NMTAP	71	240	5
NMSTR	71	288	5
NMSXL	71	288	5	96	96	6
NMHLD	72	0	4	96
CNSCL	72	96	6	0	144	0
NMTAP	72	144	7
NMTAP	72	240	2
NMSTR	72	288	2
NMSI_	72	288	2	96	48	6
NMSI_	72	288	2	96	48	7
BXTAP	73	0	2
NMSTR	73	96	5
NMSI_	73	96	5	96	48	0
NMSI_	73	96	5	96	48	1
BXTAP	73	192	5
NMTAP	73	288	2
NMHLD	73	336	1	96
NMTAP	73	336	3
NMTAP	74	48	0
NMTAP	74	72	1
NMTAP	74	96	7
NMTAP	74	120	2
NMTAP	74	144	6
NMTAP	74	168	3
NMTAP	74	192	5
EXTAP	74	240	4
EXTAP	74	240	6
EXSTR	74	288	5
NMSI_	74	288	5	96	48	3
BRTAP	74	288	7
NMHLD	75	0	0	624
NMTAP	75	96	2
NMTAP	75	168	1
NMHLD	75	240	7	96
NMTAP	76	0	1
NMTAP	76	72	2
NMHLD	76	144	3	96
NMTAP	76	288	1
NMSTR	76	288	2
NMSI_	76	288	2	96	48	4
NMHLD	77	0	7	624
NMTAP	77	96	5
NMTAP	77	168	6
NMHLD	77	240	0	96
NMTAP	78	0	6
NMTAP	78	72	5
NMHLD	78	144	4	96
NMTAP	78	288	5
NMSTR	78	288	6
NMSI_	78	288	6	96	48	3
NMHLD	79	0	6	336
NMTAP	79	96	2
NMTAP	79	168	1
NMHLD	79	240	0	96
NMTAP	80	0	6
NMTAP	80	0	7
NMTAP	80	72	0
NMTAP	80	72	7
NMHLD	80	144	0	96
NMHLD	80	144	1	96
NMSTR	80	288	1
NMSI_	80	288	1	96	48	4
NMTAP	80	288	2
NMHLD	81	0	1	336
NMTAP	81	96	5
NMTAP	81	168	6
NMHLD	81	240	7	96
NMTAP	82	0	0
NMTAP	82	0	1
NMTAP	82	72	0
NMTAP	82	72	7
NMHLD	82	144	6	96
NMHLD	82	144	7	96
NMTTP	82	288	0	E	0	M1
NMTTP	82	288	6	E	0	M1

T_REC_TAP	264
T_REC_BRK	6
T_REC_XTP	24
T_REC_BXX	21
T_REC_HLD	70
T_REC_XHO	2
T_REC_BHO	0
T_REC_BXH	0
T_REC_STR	86
T_REC_BST	2
T_REC_XST	5
T_REC_XBS	0
T_REC_TTP	9
T_REC_THO	0
T_REC_SLD	96
T_REC_BSL	21
T_REC_ALL	606
T_NUM_TAP	388
T_NUM_BRK	50
T_NUM_HLD	72
T_NUM_SLD	96
T_NUM_ALL	606
T_JUDGE_TAP	417
T_JUDGE_HLD	199
T_JUDGE_SLD	117
T_JUDGE_ALL	733
TTM_EACHPAIRS	110
TTM_SCR_TAP	194000
TTM_SCR_BRK	130000
TTM_SCR_HLD	72000
TTM_SCR_SLD	144000
TTM_SCR_ALL	540000
TTM_SCR_S	518950
TTM_SCR_SS	535000
TTM_RAT_ACV	10093

