VERSION	0.00.00	1.05.00
FES_MODE	0
BPM_DEF	140.000	140.000	140.000	140.000
MET_DEF	4	4
RESOLUTION	384
CLK_DEF	384
COMPATIBLE_CODE	MA2

BPM	0	0	140.000
MET	0	0	4	4

NMSTR	1	0	2
NMSXR	1	0	2	96	480	4
NMSTR	3	0	5
NMSXL	3	0	5	96	480	3
NMSTR	5	0	2
NMSCR	5	0	2	96	216	5
NMTAP	5	0	3
CNSUL	5	312	5	0	264	0
NMTAP	7	0	4
NMSTR	7	0	5
NMSUR	7	0	5	96	192	2
NMTAP	8	0	3
NMTAP	8	192	2
NMTAP	8	192	4
EXTAP	8	336	5
EXHLD	9	0	5	144
NMTAP	9	144	4
NMHLD	9	192	4	144
NMTAP	9	336	3
NMHLD	10	0	3	144
NMTAP	10	144	2
NMTAP	10	192	2
NMTAP	10	288	2
NMTAP	10	288	3
NMHLD	11	0	2	144
NMTAP	11	144	3
NMHLD	11	192	3	144
NMTAP	11	336	4
NMHLD	12	0	4	144
NMTAP	12	144	5
NMTAP	12	192	5
NMTAP	12	288	4
NMTAP	12	288	5
NMHLD	13	0	6	576
NMTAP	13	144	4
NMTAP	13	192	4
NMTAP	13	336	5
NMTAP	14	0	5
NMTAP	14	144	4
NMTAP	14	192	4
NMTAP	14	288	3
NMTAP	14	288	5
NMHLD	15	0	2	384
NMTAP	15	144	3
NMTAP	15	192	3
NMTAP	15	336	4
NMTAP	16	0	4
NMTAP	16	96	3
NMTAP	16	96	5
EXTAP	16	192	2
EXTAP	16	192	6
BRTAP	16	288	2
BRTAP	16	288	6
NMHLD	17	0	1	96
NMTAP	17	96	0
NMTAP	17	192	6
NMTAP	17	240	6
NMTAP	17	288	7
NMTAP	18	0	0
NMTAP	18	0	5
NMTAP	18	96	1
NMTAP	18	96	6
NMTAP	18	192	2
NMTAP	18	192	7
NMTAP	18	288	2
NMTAP	18	288	7
NMHLD	19	0	6	96
NMTAP	19	96	7
NMTAP	19	192	1
NMTAP	19	240	1
NMTAP	19	288	0
NMTAP	20	0	2
NMTAP	20	0	7
NMTAP	20	96	1
NMTAP	20	96	6
NMTAP	20	192	0
NMTAP	20	192	5
NMTAP	20	288	0
NMTAP	20	288	5
NMTAP	21	0	1
NMTAP	21	48	1
NMTAP	21	96	3
NMTAP	21	144	3
NMTAP	21	192	2
NMTAP	21	288	3
NMTAP	21	288	4
NMTAP	22	0	5
NMTAP	22	48	5
NMTAP	22	96	4
NMTAP	22	144	4
NMTAP	22	192	6
NMTAP	22	288	6
NMTAP	22	288	7
NMTAP	23	0	0
NMTAP	23	0	5
NMTAP	23	96	1
NMTAP	23	96	6
NMTAP	23	144	1
NMTAP	23	144	6
NMTAP	23	240	2
NMTAP	23	240	7
NMSTR	23	288	2
NMSCL	23	288	2	96	192	5
NMTAP	23	288	7
NMTAP	24	288	6
NMTAP	24	288	7
EXTAP	25	0	6
EXTAP	25	0	7
EXTAP	25	72	0
EXTAP	25	72	7
EXTAP	25	144	0
EXSTR	25	144	1
NMSI_	25	144	1	96	48	4
EXTAP	25	336	5
NMTAP	26	48	6
NMTAP	26	96	6
NMTAP	26	144	7
NMHLD	26	240	1	96
EXTAP	26	336	0
EXTAP	27	0	0
EXTAP	27	72	0
EXTAP	27	72	7
EXSTR	27	144	6
NMSI_	27	144	6	96	48	3
EXTAP	27	144	7
EXHLD	27	336	2	96
NMTAP	28	48	3
NMTAP	28	96	3
NMTAP	28	144	1
NMTAP	28	240	2
NMTAP	28	240	7
NMTAP	28	288	2
NMTAP	28	288	7
NMTAP	29	0	4
NMHLD	29	0	6	96
BRTAP	29	96	0
NMHLD	29	192	1	96
NMTAP	29	192	3
BRTAP	29	288	7
NMTAP	30	0	6
NMTAP	30	48	6
NMTAP	30	96	4
NMTAP	30	144	5
NMHLD	30	240	6	96
NMTAP	30	336	4
EXTAP	31	0	4
EXTAP	31	0	6
EXTAP	31	72	0
EXTAP	31	72	7
EXSTR	31	144	1
NMSI_	31	144	1	96	48	5
EXTAP	31	144	3
EXHLD	31	336	6	96
NMTAP	32	48	7
NMTAP	32	96	7
NMTAP	32	144	6
NMTAP	32	240	4
NMTAP	32	240	5
NMSTR	32	288	4
NMSUR	32	288	4	96	192	2
NMSTR	32	288	5
NMSCR	32	288	5	96	192	2
NMSTR	33	288	2
NMSCL	33	288	2	96	192	5
NMSTR	33	288	3
NMSUL	33	288	3	96	192	5
NMTAP	34	288	4
NMTAP	34	288	6
BRTAP	35	0	6
BRTAP	35	0	7
NMTAP	35	96	1
NMTAP	35	96	3
BRTAP	35	192	0
BRTAP	35	192	1
NMTAP	35	288	4
NMTAP	35	288	6
NMTAP	35	336	4
NMTAP	35	336	6
NMTAP	36	48	6
NMTAP	36	96	6
NMTAP	36	144	7
NMTAP	36	240	0
NMTAP	36	240	1
NMSTR	36	288	0
NMSUR	36	288	0	96	192	6
NMSTR	36	288	1
NMSCR	36	288	1	96	192	6
NMSTR	37	288	6
NMSCL	37	288	6	96	192	1
NMSTR	37	288	7
NMSUL	37	288	7	96	192	1
NMTAP	38	288	0
NMTAP	38	288	1
BRTAP	39	0	2
BRTAP	39	0	7
NMTAP	39	96	4
NMTAP	39	96	5
BRTAP	39	192	0
BRTAP	39	192	5
NMTAP	39	288	2
NMTAP	39	288	3
NMTAP	39	336	2
NMTAP	39	336	3
NMTAP	40	48	1
NMTAP	40	96	1
NMTAP	40	144	0
NMTAP	40	240	2
NMTAP	40	240	7
BRTAP	40	288	2
BRTAP	40	288	7
NMHLD	42	0	1	288
NMTTP	42	192	4	E	0	M1
EXSTR	42	288	3
NMSXR	42	288	3	96	288	0
NMHLD	44	0	6	288
NMTTP	44	192	4	E	0	M1
NMSTR	44	288	4
NMSSL	44	288	4	96	192	0
EXTAP	45	288	1
EXTAP	45	288	7
NMHLD	46	0	2	288
NMTTP	46	192	3	E	0	M1
NMSTR	46	288	1
NMSXL	46	288	1	96	288	4
NMHLD	48	0	5	288
NMTTP	48	192	5	E	0	M1
NMTAP	48	288	6
NMTAP	49	0	7
NMTAP	49	96	0
NMTAP	49	96	6
EXTAP	49	192	1
EXTAP	49	192	5
NMSTR	49	288	5
NMSCR	49	288	5	96	192	2
NMTTP	50	0	0	C	1	M1
NMTAP	50	288	1
NMTAP	50	336	1
NMTAP	51	0	0
NMTAP	51	96	0
NMTAP	51	96	7
NMTAP	51	192	6
NMTAP	51	240	6
NMTAP	51	288	7
NMHLD	52	0	5	96
NMHLD	52	96	7	96
NMHLD	52	192	0	96
NMTAP	52	288	2
NMTAP	53	0	1
NMTAP	53	0	7
NMTAP	53	96	1
NMTAP	53	96	7
NMTAP	53	192	5
NMTAP	53	240	5
NMTAP	53	288	4
NMTAP	53	288	5
NMTAP	54	0	3
NMTAP	54	0	6
NMTAP	54	96	1
NMTAP	54	96	4
NMTAP	54	192	2
NMTAP	54	240	2
NMTAP	54	288	2
NMTAP	54	288	3
NMTAP	55	0	1
NMTAP	55	0	4
NMTAP	55	96	3
NMTAP	55	96	6
NMTAP	55	192	5
NMTAP	55	240	5
NMTAP	55	288	4
NMTAP	55	288	5
NMHLD	56	0	4	96
NMHLD	56	0	5	96
NMHLD	56	192	2	96
NMHLD	56	192	3	96
NMTAP	57	0	1
NMTAP	57	0	4
NMTAP	57	96	2
NMTAP	57	96	5
NMTAP	57	144	2
NMTAP	57	144	5
NMTAP	57	240	3
NMTAP	57	240	6
NMTAP	57	288	3
NMSTR	57	288	6
NMSSR	57	288	6	96	192	2
NMTAP	58	288	0
NMTAP	58	288	1
BXTAP	59	0	0
BXTAP	59	0	1
EXTAP	59	72	6
EXTAP	59	72	7
EXSTR	59	144	4
NMSI_	59	144	4	96	48	0
EXSTR	59	144	5
NMSI_	59	144	5	96	48	7
NMHLD	59	336	1	96
NMTAP	60	48	0
NMTAP	60	96	0
NMTAP	60	144	1
NMHLD	60	240	6	96
EXTAP	60	336	7
EXTAP	61	0	7
EXTAP	61	72	0
EXTAP	61	72	1
EXSTR	61	144	2
NMSI_	61	144	2	96	48	0
EXSTR	61	144	3
NMSI_	61	144	3	96	48	7
NMHLD	61	336	6	96
NMTAP	62	48	7
NMTAP	62	96	7
NMTAP	62	144	6
NMTAP	62	240	4
NMTAP	62	240	5
NMTAP	62	288	4
NMTAP	62	288	5
NMTAP	63	0	4
NMTAP	63	0	5
BRTAP	63	96	1
BRTAP	63	96	7
NMTAP	63	192	2
NMTAP	63	192	3
BRTAP	63	288	0
BRTAP	63	288	6
NMTAP	64	0	1
NMTAP	64	48	1
NMTAP	64	96	3
NMTAP	64	144	2
NMHLD	64	240	5	96
NMTAP	64	336	4
EXTAP	65	0	4
EXTAP	65	72	6
EXTAP	65	72	7
EXSTR	65	144	0
NMSI_	65	144	0	96	48	4
EXTAP	65	144	1
NMHLD	65	336	2	96
NMTAP	66	48	3
NMTAP	66	96	3
NMTAP	66	144	2
NMTAP	66	240	0
NMTAP	66	240	1
NMSTR	66	288	0
NMSUR	66	288	0	96	192	7
NMSTR	66	288	1
NMSCR	66	288	1	96	192	6
NMSTR	67	288	6
NMSCL	67	288	6	96	192	1
NMSTR	67	288	7
NMSUL	67	288	7	96	192	0
NMTAP	68	288	6
NMTAP	68	288	7
BRTAP	69	0	6
BRTAP	69	0	7
NMTAP	69	96	4
NMTAP	69	96	5
BRTAP	69	192	2
BRTAP	69	192	3
NMTAP	69	288	0
NMTAP	69	288	1
NMTAP	69	336	0
NMTAP	69	336	1
NMTAP	70	48	6
NMTAP	70	96	6
NMTAP	70	144	7
NMTAP	70	240	4
NMTAP	70	240	5
NMSTR	70	288	4
NMSUR	70	288	4	96	192	3
NMSTR	70	288	5
NMSCR	70	288	5	96	192	2
NMSTR	71	288	2
NMSCL	71	288	2	96	192	5
NMSTR	71	288	3
NMSUL	71	288	3	96	192	4
EXTAP	72	288	4
EXTAP	72	288	6
BRTAP	73	0	6
BRTAP	73	0	7
NMTAP	73	96	1
NMTAP	73	96	3
BRTAP	73	192	0
BRTAP	73	192	1
NMTAP	73	288	4
NMTAP	73	288	6
NMTAP	73	336	4
NMTAP	73	336	6
NMTAP	74	48	2
NMTAP	74	96	2
NMTAP	74	144	1
NMTAP	74	144	3
NMTAP	74	240	0
NMTAP	74	240	4
BRTAP	74	288	0
BRTAP	74	288	4
NMHLD	75	0	1	672
NMSTR	75	0	7
NMSCL	75	0	7	96	288	2
CNSUL	76	0	2	0	288	0
NMSTR	77	0	2
NMSCL	77	0	2	96	288	5
NMHLD	77	0	7	672
CNSUL	78	0	5	0	288	4
NMTTP	79	0	7	E	0	M1
NMTTP	79	96	6	E	0	M1
NMTTP	79	192	5	E	0	M1
NMTTP	79	288	4	E	0	M1
NMTTP	80	0	2	B	0	M1
NMTTP	80	0	3	E	0	M1
NMTTP	80	96	0	B	0	M1
NMTTP	80	96	1	E	0	M1
NMTTP	80	192	6	B	0	M1
NMTTP	80	192	7	E	0	M1
NMTTP	81	0	5	E	0	M1
NMTTP	81	96	6	E	0	M1
NMTTP	81	192	7	E	0	M1
NMTTP	81	288	0	E	0	M1
NMTTP	82	0	1	E	0	M1
NMTTP	82	96	2	E	0	M1
EXHLD	82	192	3	96
EXHLD	82	192	4	144

T_REC_TAP	225
T_REC_BRK	28
T_REC_XTP	35
T_REC_BXX	2
T_REC_HLD	31
T_REC_XHO	5
T_REC_BHO	0
T_REC_BXH	0
T_REC_STR	27
T_REC_BST	0
T_REC_XST	9
T_REC_XBS	0
T_REC_TTP	21
T_REC_THO	0
T_REC_SLD	36
T_REC_BSL	0
T_REC_ALL	419
T_NUM_TAP	317
T_NUM_BRK	30
T_NUM_HLD	36
T_NUM_SLD	36
T_NUM_ALL	419
T_JUDGE_TAP	347
T_JUDGE_HLD	135
T_JUDGE_SLD	36
T_JUDGE_ALL	518
TTM_EACHPAIRS	115
TTM_SCR_TAP	158500
TTM_SCR_BRK	78000
TTM_SCR_HLD	36000
TTM_SCR_SLD	54000
TTM_SCR_ALL	326500
TTM_SCR_S	313800
TTM_SCR_SS	323500
TTM_RAT_ACV	10092

