VERSION	0.00.00	1.05.00
FES_MODE	0
BPM_DEF	166.000	166.000	166.000	166.000
MET_DEF	4	4
RESOLUTION	384
CLK_DEF	384
COMPATIBLE_CODE	MA2

BPM	0	0	166.000
MET	0	0	4	4

NMTAP	2	0	1
NMTAP	2	0	3
NMHLD	2	48	1	240
NMHLD	2	48	3	240
NMTAP	2	336	5
NMTAP	3	0	4
NMTAP	3	0	6
NMHLD	3	48	4	240
NMHLD	3	48	6	240
NMTAP	3	336	3
NMTAP	4	0	2
NMTAP	4	0	4
NMTAP	4	48	1
NMTAP	4	48	3
EXTAP	4	96	0
NMTAP	4	192	1
NMTAP	4	192	7
NMTAP	4	240	1
NMTAP	4	240	7
NMTAP	4	288	2
NMSTR	4	288	6
NMSCL	4	288	6	96	96	3
NMSTR	5	0	3
NMSCL	5	0	3	96	96	0
NMSTR	5	96	0
NMSCL	5	96	0	96	96	5
NMTAP	5	192	5
BXTAP	5	288	3
NMSTR	6	0	2
NMSI_	6	0	2	96	48	7
NMTAP	6	0	4
NMTAP	6	96	4
NMTAP	6	192	6
NMTAP	6	240	7
NMTAP	6	288	0
NMTAP	6	288	6
NMTAP	7	0	3
NMSTR	7	0	5
NMSI_	7	0	5	96	48	0
NMTAP	7	96	3
NMTAP	7	192	1
NMTAP	7	240	0
NMTAP	7	288	1
NMTAP	7	288	7
NMTTP	8	0	4	B	0	M1
NMTTP	8	0	4	E	0	M1
NMTTP	8	0	5	B	0	M1
NMTTP	8	0	5	E	0	M1
NMTTP	8	0	6	E	0	M1
BRTAP	8	96	0
BRTAP	8	96	7
NMTAP	8	192	1
NMTAP	8	240	3
NMTAP	8	288	5
EXHLD	8	336	1	240
NMTAP	8	336	7
NMTAP	9	192	0
NMTAP	9	240	6
BRTAP	9	288	0
NMTAP	9	288	4
NMTAP	10	0	1
NMTAP	10	0	3
NMTAP	10	96	2
NMTAP	10	96	3
NMTAP	10	192	2
NMTAP	10	192	3
NMTAP	10	288	1
NMTAP	10	288	3
NMTAP	10	336	1
NMTAP	11	0	1
NMTAP	11	0	3
NMTAP	11	96	2
NMTAP	11	96	3
NMTAP	11	192	2
NMTAP	11	192	3
NMTAP	11	288	1
NMTAP	11	288	3
NMTAP	11	336	1
NMSTR	12	0	1
NMSV_	12	0	1	96	120	7
NMTAP	12	0	3
NMTAP	12	96	3
NMTAP	12	192	3
NMTAP	12	288	0
NMTAP	12	288	3
NMTAP	12	336	0
NMSTR	13	0	1
NMSI_	13	0	1	96	96	6
NMTAP	13	0	3
EXTAP	13	96	3
EXTAP	13	192	3
CNSI_	13	192	6	0	96	0
EXTAP	13	288	3
NMTAP	14	0	0
NMTAP	14	0	3
NMTAP	14	96	1
NMTAP	14	96	3
NMSTR	14	192	2
NMSUL	14	192	2	96	168	6
NMTAP	14	192	3
NMTAP	14	288	3
NMTAP	15	0	3
CNSUL	15	72	6	0	168	2
NMTAP	15	96	3
NMTAP	15	192	3
NMTAP	15	288	3
NMSTR	16	0	1
NMSCL	16	0	1	96	192	6
NMTAP	16	0	3
NMTAP	16	96	3
NMTAP	16	192	4
NMTAP	16	288	5
NMTAP	17	0	4
NMTAP	17	0	5
NMTAP	17	48	3
NMTAP	17	48	6
NMTAP	17	96	2
NMSTR	17	96	7
NMSI_	17	96	7	96	48	3
NMSTR	17	192	1
NMSI_	17	192	1	96	48	4
NMSI_	17	192	1	96	48	6
BRTAP	18	0	7
NMTAP	18	48	6
NMTAP	18	96	5
NMTAP	18	144	4
NMTAP	18	192	5
NMTAP	18	240	4
NMTAP	18	288	3
NMTAP	18	336	2
NMTAP	19	0	1
NMSTR	19	48	0
NMSI_	19	48	0	96	48	4
NMTAP	19	96	7
NMTAP	19	144	6
NMTAP	19	240	6
NMTAP	19	288	4
NMTAP	19	336	5
NMSTR	20	0	6
NMSI_	20	0	6	96	48	1
NMTAP	20	96	3
NMTAP	20	144	2
NMSTR	20	192	2
NMSI_	20	192	2	96	48	5
NMTAP	20	288	7
NMTAP	20	336	6
NMHLD	21	0	6	96
NMHLD	21	96	4	96
NMSTR	21	192	2
NMSCR	21	192	2	96	96	6
NMTAP	21	288	0
NMSTR	22	0	0
NMSI_	22	0	0	96	48	4
NMTAP	22	96	7
NMTAP	22	192	5
NMTAP	22	240	5
NMSTR	22	288	6
NMSI_	22	288	6	96	48	2
NMTAP	22	288	7
NMSTR	23	0	1
NMSI_	23	0	1	96	48	5
NMTAP	23	192	6
NMTAP	23	216	7
NMTAP	23	240	6
NMTAP	23	264	7
NMSTR	23	288	6
NMSI_	23	288	6	96	48	2
NMSI_	23	288	6	96	48	3
EXTAP	24	96	1
EXTAP	24	96	4
EXTAP	24	144	1
EXTAP	24	144	4
NMTAP	24	240	2
NMTAP	24	240	3
NMSTR	24	288	2
NMSXL	24	288	2	96	120	3
NMSLL	24	288	2	96	120	3
NMTAP	24	288	3
BRTAP	25	192	0
BRTAP	25	192	6
NMTAP	26	0	3
NMHLD	26	0	5	288
NMTAP	26	144	4
NMHLD	26	192	4	96
NMHLD	27	0	5	96
NMHLD	27	0	6	96
NMTAP	27	144	7
BXTAP	27	192	7
EXTAP	27	288	1
NMHLD	28	0	2	288
NMTAP	28	0	4
NMTAP	28	144	3
NMHLD	28	192	3	96
NMTAP	29	0	0
NMTAP	29	0	1
NMSTR	29	48	0
NMSI_	29	48	0	96	96	4
NMSTR	29	48	1
NMSI_	29	48	1	96	96	5
NMTAP	29	336	3
NMTAP	29	336	6
NMTAP	30	0	3
NMHLD	30	0	6	96
NMTAP	30	96	7
NMTAP	30	144	0
NMHLD	30	192	1	96
NMTAP	30	288	3
NMHLD	31	0	2	96
NMTAP	31	0	3
NMTAP	31	96	0
NMTAP	31	144	7
NMHLD	31	192	6	96
NMTAP	31	288	4
BXTAP	32	0	3
BXTAP	32	0	5
NMTAP	32	96	2
NMTAP	32	144	1
NMTAP	32	144	3
NMTAP	32	240	5
NMSTR	32	288	4
NMSI_	32	288	4	96	48	0
NMHLD	32	288	6	96
BRTAP	33	288	1
BRSTR	33	288	5
NMSI_	33	288	5	96	48	0
NMSTR	34	0	4
BRSI_	34	0	4	96	48	1
NMTAP	34	96	7
NMTAP	34	144	6
NMSTR	34	192	5
NMSI_	34	192	5	96	48	1
NMSTR	34	288	2
BRSI_	34	288	2	96	48	7
NMSTR	35	0	3
NMSI_	35	0	3	96	48	6
NMTAP	35	96	1
NMTAP	35	144	2
BRTAP	35	192	3
BRTAP	35	192	7
NMSTR	35	288	4
NMSCR	35	288	4	96	48	7
NMSTR	35	288	5
NMSI_	35	288	5	96	48	0
NMTAP	36	0	4
NMTAP	36	0	5
NMSTR	36	96	2
NMSI_	36	96	2	96	48	7
NMSTR	36	96	3
NMSCL	36	96	3	96	48	0
NMTAP	36	192	2
NMTAP	36	192	3
NMTAP	36	288	4
NMTAP	36	288	5
NMTAP	37	0	4
NMHLD	37	0	5	96
NMTAP	37	96	4
NMTAP	37	144	3
NMTAP	37	192	2
NMTAP	37	192	4
NMSTR	37	288	2
NMSCL	37	288	2	96	96	5
NMTAP	38	0	3
NMSTR	38	96	4
NMSUR	38	96	4	96	96	2
NMTAP	38	192	3
NMSTR	38	288	3
NMSCL	38	288	3	96	96	6
NMTAP	39	0	5
NMSTR	39	96	4
NMSCR	39	96	4	96	96	1
NMTAP	39	192	2
NMTAP	39	288	3
NMSTR	40	0	2
NMSLL	40	0	2	96	96	6
NMTAP	40	0	5
NMSTR	40	96	6
NMSLL	40	96	6	96	96	2
NMSTR	40	192	2
NMSLL	40	192	2	96	96	6
NMTAP	40	288	6
NMTAP	41	0	4
NMSTR	41	96	4
NMSF_	41	96	4	96	48	0
NMSTR	42	0	6
NMSI_	42	0	6	96	48	3
NMTAP	42	0	7
NMTAP	42	96	1
NMTAP	42	144	1
NMSTR	42	192	0
NMSCL	42	192	0	96	48	5
NMTAP	42	192	1
NMSTR	42	288	0
NMSI_	42	288	0	96	48	3
EXTAP	43	0	5
NMSTR	43	96	4
NMSCL	43	96	4	96	48	1
NMSCR	43	96	4	96	48	7
EXTAP	43	192	4
EXTAP	43	288	2
EXTAP	43	288	6
NMTTP	44	0	0	C	0	M1
NMTTP	44	0	4	E	0	M1
NMTAP	44	96	0
NMTAP	44	96	1
NMTTP	44	192	0	C	0	M1
NMTTP	44	192	4	E	0	M1
NMTAP	44	288	6
NMTAP	44	288	7
NMTHO	45	0	0	96	C	0	M1
NMTHO	45	0	4	96	E	0	M1
BRTAP	45	192	1
BRTAP	45	192	6
EXSTR	45	288	0
NMSI_	45	288	0	96	48	2
EXSTR	45	288	7
NMSI_	45	288	7	96	48	3
NMTAP	46	0	0
NMTAP	46	0	7
EXSTR	46	96	3
NMSI_	46	96	3	96	48	7
EXSTR	46	96	4
NMSI_	46	96	4	96	48	6
NMTAP	46	192	3
NMTAP	46	192	4
NMTAP	46	288	0
NMTAP	46	288	5
NMHLD	47	0	1	72
NMTAP	47	0	4
NMHLD	47	72	3	72
NMTAP	47	144	5
EXSTR	47	192	5
NMSI_	47	192	5	96	96	3
BRSCL	47	192	5	96	288	5
CNSI_	48	0	3	0	96	1
CNSI_	48	96	1	0	48	7
CNSI_	48	144	7	0	48	5
NMTAP	48	288	3
NMTAP	48	288	5
NMTAP	48	336	3
NMTAP	48	336	5
BXHLD	49	0	2	240
BXTAP	49	0	6
NMTAP	49	240	0
BRTAP	49	288	3
BRTAP	49	288	7
NMTAP	50	0	4
NMTAP	50	0	6
NMTAP	50	48	5
NMTAP	50	96	5
NMTAP	50	144	4
NMTAP	50	144	6
NMTAP	50	240	2
NMTAP	50	240	3
NMHLD	50	288	2	384
NMTAP	50	288	3
NMTTP	51	0	3	B	0	M1
NMTTP	51	0	4	E	0	M1
NMTTP	51	96	2	E	0	M1
NMTTP	51	192	0	B	0	M1
NMTTP	51	192	1	E	0	M1
NMTHO	51	288	0	288	C	0	M1
NMTAP	52	0	1
NMTAP	52	96	1
NMTAP	52	192	0
NMHLD	52	288	0	288
NMTTP	53	0	0	E	0	M1
NMTTP	53	96	0	C	0	M1
NMTTP	53	192	4	E	0	M1
NMSTR	53	288	4
NMSCR	53	288	4	96	288	0
NMTAP	54	0	2
NMTAP	54	96	2
NMTAP	54	192	2
BXHLD	54	288	1	384
NMTTP	55	0	1	E	0	M1
NMTTP	55	0	1	D	0	M1
NMTTP	55	96	2	E	0	M1
NMTTP	55	96	2	D	0	M1
NMTTP	55	192	3	E	0	M1
NMTTP	55	192	3	D	0	M1
NMTHO	55	288	4	96	E	0	M1
NMTHO	55	288	4	96	D	0	M1
NMTTP	56	0	0	C	1	M1
NMTAP	56	96	0
NMTAP	56	144	0
NMTAP	56	192	1
NMTAP	56	192	7
NMTAP	56	288	2
NMSTR	56	288	6
NMSUL	56	288	6	96	96	1
NMTTP	57	0	0	C	0	M1
NMTAP	57	96	0
NMTAP	57	144	0
NMSTR	57	240	1
NMSCR	57	240	1	96	240	7
NMSTR	57	240	7
NMSCL	57	240	7	96	240	1
NMTTP	57	336	1	A	0	M1
NMTTP	57	336	7	A	1	M1
NMTAP	58	336	1
NMSTR	59	0	1
NMSCL	59	0	1	96	48	7
NMTAP	59	96	4
NMHLD	59	144	4	96
NMTAP	59	240	7
NMTAP	59	288	0
NMTAP	59	288	6
NMTAP	60	0	0
NMTAP	60	48	1
NMTAP	60	96	0
NMTAP	60	96	2
NMTAP	60	144	3
NMTAP	60	192	4
NMTAP	60	240	5
NMTAP	60	288	4
NMTAP	60	288	6
NMTAP	60	336	7
NMSTR	61	0	2
NMSI_	61	0	2	96	48	0
NMTAP	61	48	2
NMTAP	61	96	3
NMTAP	61	144	4
NMSTR	61	192	5
NMSI_	61	192	5	96	48	7
NMTAP	61	240	5
NMTAP	61	288	4
BXTAP	62	0	0
BXTAP	62	0	2
BXTAP	62	96	2
BXTAP	62	96	3
BXTAP	62	144	2
BXSTR	62	144	3
NMSV_	62	144	3	96	48	6
NMSTR	62	240	7
BRSCR	62	240	7	96	48	2
EXTAP	62	336	5
NMTAP	63	0	5
NMTAP	63	48	4
NMTAP	63	96	3
NMHLD	63	144	2	96
NMHLD	63	144	7	96
NMTAP	63	288	1
NMTAP	63	288	6
BRTAP	64	0	0
BRTAP	64	0	6
NMTAP	64	48	7
NMTAP	64	96	7
NMTAP	64	144	7
NMTAP	64	192	0
NMTAP	64	192	2
NMTAP	64	240	1
NMTAP	64	288	1
NMTAP	64	336	1
NMTAP	65	0	5
NMTAP	65	0	7
NMTAP	65	48	6
NMTAP	65	96	6
NMTAP	65	144	6
BRTAP	65	192	7
BRTAP	65	240	2
BRTAP	65	240	4
BRHLD	65	288	1	96
BRTAP	65	288	5
NMTAP	66	0	7
EXTAP	66	24	6
EXTAP	66	48	5
EXTAP	66	72	4
NMTAP	66	96	1
EXTAP	66	120	2
EXTAP	66	144	3
EXTAP	66	168	4
NMTAP	66	192	6
EXTAP	66	216	5
EXTAP	66	240	4
EXTAP	66	264	3
NMSTR	66	288	0
NMSI_	66	288	0	96	48	5
NMHLD	67	0	4	768
EXSTR	67	300	6
NMSUL	67	300	6	96	212	2
NMSTR	68	288	2
NMSI_	68	288	2	96	96	5
NMHLD	69	288	3	480
NMSTR	69	288	6
BRSUL	69	288	6	96	224	2
NMSTR	70	288	2
BRSI_	70	288	2	96	96	5
NMTAP	71	288	3
NMTAP	71	288	5
NMHLD	72	0	2	96
NMTAP	72	0	4
NMSTR	72	96	0
NMSCL	72	96	0	96	48	5
NMTAP	72	192	1
NMSTR	72	288	7
BRSCR	72	288	7	96	48	2
NMTAP	73	0	6
NMSTR	73	96	0
NMSCL	73	96	0	96	48	5
NMTAP	73	192	1
NMTAP	73	288	0
NMTAP	73	336	0
BRTAP	74	0	1
BRTAP	74	0	7
NMTAP	74	96	4
NMTAP	74	96	5
NMTAP	74	144	4
NMTAP	74	144	5
NMTAP	74	192	3
NMTAP	74	192	4
NMTAP	74	240	3
NMTAP	74	240	4
NMTAP	74	288	2
NMTAP	74	288	3
NMTAP	74	336	2
NMTAP	74	336	3
NMTAP	75	0	1
NMTAP	75	0	4
NMTAP	75	48	5
NMTAP	75	72	4
NMTAP	75	96	6
NMTAP	75	144	2
NMTAP	75	168	3
NMTAP	75	192	1
NMTAP	75	240	5
NMTAP	75	264	4
NMTAP	75	288	6
NMTAP	75	336	0
BXTAP	76	0	1
BXTAP	76	0	7
BXSTR	76	192	2
BRSI_	76	192	2	96	48	0
BRSI_	76	192	2	96	48	7
BXTAP	76	288	2
NMTTP	77	0	4	B	0	M1
NMTTP	77	0	4	A	0	M1
NMTTP	77	0	5	B	1	M1
NMTTP	77	0	5	E	0	M1
NMTTP	77	0	5	A	0	M1
NMTTP	77	0	5	D	0	M1
NMTTP	77	0	6	B	0	M1
NMTTP	77	0	6	E	0	M1
NMTTP	77	0	6	A	0	M1
NMTTP	77	0	6	D	0	M1
NMTAP	78	288	2
NMTAP	78	288	5
NMTAP	79	0	3
NMTAP	79	24	4
NMTAP	79	48	3
NMTAP	79	72	4
NMTAP	79	96	2
NMTAP	79	120	5
NMTAP	79	144	2
NMTAP	79	168	5
NMTAP	79	192	1
NMTAP	79	216	6
NMTAP	79	240	1
NMTAP	79	264	6
NMTAP	79	288	0
NMTAP	79	312	7
NMTAP	79	336	0
NMTAP	79	360	7
BRHLD	80	0	0	144
NMTAP	80	144	6
NMTAP	80	168	6
NMTAP	80	192	7
NMTTP	80	240	6	E	0	M1
NMTTP	80	288	4	E	0	M1
NMTTP	80	336	2	E	0	M1
EXSTR	81	0	0
BRSF_	81	0	0	96	48	4
BRTAP	81	96	0
NMTAP	81	192	2
NMTAP	81	192	6
NMSTR	81	288	5
NMSCR	81	288	5	96	96	1
NMTAP	81	336	5
NMTAP	82	0	3
NMSTR	82	96	2
BRSCL	82	96	2	96	96	6
NMTAP	82	144	2
NMTAP	82	192	4
NMSTR	82	288	5
NMSLR	82	288	5	96	96	1
NMTAP	82	336	5
NMTAP	83	0	4
NMSTR	83	96	2
NMSLL	83	96	2	96	96	6
NMTAP	83	144	2
NMTAP	83	192	3
NMSTR	83	288	5
NMSI_	83	288	5	96	48	7
NMTAP	83	336	5
NMSTR	84	0	3
NMSUR	84	0	3	96	96	4
EXTAP	84	96	0
CNSCR	84	192	4	0	96	2
BRTAP	84	192	6
BXSTR	85	0	2
NMSI_	85	0	2	96	48	6
EXSTR	85	96	2
NMSXL	85	96	2	96	120	2
NMSXR	85	96	2	96	120	2
BXSTR	86	0	5
NMSI_	86	0	5	96	48	1
EXSTR	86	96	5
NMSXL	86	96	5	96	120	5
NMSXR	86	96	5	96	120	5
NMSTR	87	0	1
NMSI_	87	0	1	96	48	7
NMTAP	87	0	7
NMTAP	87	96	1
NMSTR	87	96	4
NMSI_	87	96	4	96	48	6
NMSTR	87	192	3
NMSI_	87	192	3	96	48	7
NMTAP	87	192	4
NMSTR	87	288	3
BRSXR	87	288	3	96	144	4
NMSTR	87	288	5
NMSXL	87	288	5	96	144	4
BXSTR	88	192	2
BRSI_	88	192	2	96	48	7
BXSTR	88	192	6
BRSI_	88	192	6	96	48	3
NMTAP	88	288	2
NMTAP	88	288	6
BRTAP	89	0	0
BRTAP	89	0	4
NMTAP	89	96	6
NMTAP	89	96	7
NMTAP	89	144	5
NMTAP	89	192	0
NMTAP	89	192	6
NMTAP	89	240	1
NMTAP	89	288	0
NMTAP	89	288	7
NMTAP	89	336	6
NMTAP	90	0	1
NMTAP	90	0	7
NMTAP	90	48	2
NMTAP	90	96	0
NMTAP	90	96	1
NMTAP	90	144	7
NMTAP	90	192	0
NMTAP	90	192	2
NMTAP	90	240	3
NMSTR	90	288	5
NMSCL	90	288	5	96	48	2
BXTAP	91	0	7
NMSTR	91	48	0
NMSCL	91	48	0	96	48	5
BXTAP	91	144	2
NMSTR	91	192	3
NMSF_	91	192	3	96	48	7
EXTAP	91	288	3
NMHLD	92	0	1	192
BRTAP	92	0	5
NMTTP	92	192	2	D	0	M1
NMTTP	92	204	2	A	0	M1
NMTTP	92	216	3	D	0	M1
NMTTP	92	228	3	A	0	M1
NMTTP	92	240	4	D	0	M1
NMTTP	92	252	4	A	0	M1
NMTTP	92	264	5	D	0	M1
NMTTP	92	276	5	A	0	M1
EXSTR	92	288	0
NMSI_	92	288	0	96	48	4
NMTTP	92	288	6	D	1	M1
BXTAP	93	0	0
BRTAP	93	0	7
NMSTR	93	96	5
NMSCR	93	96	5	96	48	0
NMTAP	93	144	4
NMTAP	93	192	5
NMSTR	93	288	2
NMSI_	93	288	2	96	48	0
NMSTR	93	288	3
NMSI_	93	288	3	96	48	7
NMTAP	94	0	2
NMTAP	94	0	3
NMSTR	94	96	4
NMSI_	94	96	4	96	48	0
NMSTR	94	96	5
NMSI_	94	96	5	96	48	7
NMTAP	94	192	4
NMTAP	94	192	5
NMTAP	94	288	2
NMTAP	94	288	3
NMTAP	94	336	1
NMTAP	95	0	0
NMSTR	95	0	6
NMSI_	95	0	6	96	48	3
NMSTR	95	96	7
BRSI_	95	96	7	96	48	2
NMTAP	95	192	4
NMSTR	95	288	6
NMSCR	95	288	6	96	96	1
NMSTR	96	0	1
NMSCL	96	0	1	96	96	6
NMTAP	96	96	3
NMSTR	96	192	4
NMSI_	96	192	4	96	48	0
EXTAP	96	288	4
NMSTR	96	288	6
BRSI_	96	288	6	96	48	2
BXTAP	97	0	6
NMSTR	97	96	0
NMSCL	97	96	0	96	48	5
NMTAP	97	144	1
NMTAP	97	192	2
NMSTR	97	288	3
NMSCL	97	288	3	96	48	0
NMTAP	97	336	4
NMTAP	98	0	5
NMSTR	98	96	6
NMSCL	98	96	6	96	48	3
NMTAP	98	144	7
NMTAP	98	192	0
NMSTR	98	288	1
NMSI_	98	288	1	96	48	4
EXTAP	99	0	4
CNSI_	99	48	4	0	48	2
CNSI_	99	96	2	0	48	7
NMSTR	99	96	6
NMSI_	99	96	6	96	48	3
EXTAP	99	192	0
CNSI_	99	240	3	0	48	5
NMTAP	99	288	1
CNSI_	99	288	5	0	48	0
NMSTR	100	0	2
NMSI_	100	0	2	96	48	6
NMSTR	100	96	4
BRSF_	100	96	4	96	48	0
NMTTP	100	192	4	A	1	M1
NMTTP	100	192	4	D	0	M1
NMTTP	100	192	5	D	0	M1
NMTAP	100	336	1
NMTAP	100	336	7
NMTAP	101	0	2
NMSTR	101	0	6
NMSCR	101	0	6	96	96	1
NMSTR	101	96	1
NMSI_	101	96	1	96	96	5
NMTAP	101	144	2
NMSTR	101	192	3
NMSI_	101	192	3	96	48	0
EXTAP	101	288	3
EXSTR	102	0	1
NMSCL	102	0	1	96	96	6
NMSTR	102	96	6
NMSI_	102	96	6	96	96	2
NMTAP	102	144	5
NMSTR	102	192	4
NMSI_	102	192	4	96	48	7
EXTAP	102	288	4
NMTTP	103	0	2	B	1	M1
NMTTP	103	0	2	E	0	M1
NMTTP	103	0	3	B	0	M1
NMTTP	103	0	3	E	0	M1
NMTTP	103	0	4	E	0	M1
NMTAP	103	96	7
NMTAP	103	144	7
NMTTP	103	192	4	B	0	M1
NMTTP	103	192	4	E	0	M1
NMTTP	103	192	5	B	1	M1
NMTTP	103	192	5	E	0	M1
NMTTP	103	192	6	E	0	M1
NMTAP	103	288	0
NMTAP	103	336	0
NMSTR	104	0	1
NMSI_	104	0	1	96	48	4
NMSTR	104	0	3
NMSI_	104	0	3	96	48	7
NMTAP	104	96	1
NMTAP	104	96	3
BRTAP	104	192	3
BRTAP	104	192	6
NMSTR	104	288	6
BRSI_	104	288	6	96	48	4
NMSTR	105	0	7
NMSI_	105	0	7	96	48	3
NMSTR	105	96	0
BRSI_	105	96	0	96	48	2
NMTAP	105	288	3
NMTAP	105	288	7
NMTAP	106	0	2
NMTAP	106	0	6
NMTAP	106	72	5
NMTAP	106	96	3
NMTAP	106	144	2
NMTAP	106	144	4
NMSTR	106	192	1
NMSI_	106	192	1	96	48	3
NMSTR	106	192	3
NMSI_	106	192	3	96	48	7
BRTAP	106	288	1
BRSTR	106	288	3
NMSUR	106	288	3	96	144	4
CNSCR	107	144	4	0	144	2
NMSTR	107	288	3
BRSI_	107	288	3	96	48	7
BXTAP	108	0	3
BRHLD	108	0	4	384
NMTAP	109	0	0
NMHLD	109	96	0	96
NMTAP	109	192	6
NMTAP	109	216	7
NMTAP	109	240	6
NMTAP	109	264	7
NMTTP	109	288	5	A	1	M1
NMTTP	109	296	5	D	0	M1
NMTTP	109	304	4	A	0	M1
NMTTP	109	312	4	D	0	M1
NMTTP	109	320	3	A	0	M1
NMTTP	109	328	3	D	0	M1
BXTAP	110	0	1
EXHLD	110	48	0	192
BXHLD	110	48	1	192
NMTAP	110	288	2
NMTAP	110	288	7
BXTAP	111	0	6
BXHLD	111	48	6	192
EXHLD	111	48	7	192
NMTAP	111	288	0
NMTAP	111	288	5
BXTAP	112	0	1
EXTAP	112	0	3
BXTAP	112	48	1
EXTAP	112	48	3
NMTAP	112	96	0
NMTAP	112	144	7
EXTAP	112	192	4
BXTAP	112	192	6
EXTAP	112	240	4
BXTAP	112	240	6
NMTAP	112	288	3
NMSTR	112	288	5
NMSI_	112	288	5	96	48	0
NMSTR	113	0	1
NMSCR	113	0	1	96	96	6
NMTAP	113	96	7
NMTAP	113	144	7
BXTAP	113	192	7
NMTAP	113	288	0
NMTAP	113	288	6
NMSTR	114	0	5
NMSI_	114	0	5	96	48	0
NMTAP	114	96	4
NMTAP	114	144	3
NMSTR	114	192	2
NMSI_	114	192	2	96	48	7
NMTAP	114	240	2
NMTAP	114	288	4
NMTAP	114	336	5
NMSTR	115	0	6
NMSI_	115	0	6	96	48	3
NMTAP	115	48	6
NMTAP	115	96	0
NMTAP	115	144	0
NMSTR	115	192	1
NMSI_	115	192	1	96	48	5
NMTAP	115	240	1
NMTAP	115	288	7
BRTAP	116	0	4
BRTAP	116	0	6
BRTAP	116	96	0
BRTAP	116	96	7
NMTAP	116	192	2
NMTAP	116	192	3
NMSTR	116	240	2
NMSCL	116	240	2	96	48	7
NMTAP	116	240	3
NMTAP	116	336	2
NMTHO	116	336	5	240	E	0	M1
NMTAP	117	288	6
NMTAP	117	288	7
BRSTR	117	336	0
BRSCL	117	336	0	96	288	4
NMSCR	117	336	0	96	144	3
BRTAP	117	336	4
CNSI_	118	192	3	0	768	0
CNSI_	118	336	4	0	624	7
NMTTP	120	352	0	B	0	M1
NMTTP	120	368	0	C	0	M1
NMTTP	121	0	4	B	0	M1
NMTTP	121	16	4	A	0	M1

T_REC_TAP	393
T_REC_BRK	35
T_REC_XTP	34
T_REC_BXX	25
T_REC_HLD	30
T_REC_XHO	3
T_REC_BHO	3
T_REC_BXH	4
T_REC_STR	110
T_REC_BST	3
T_REC_XST	11
T_REC_XBS	6
T_REC_TTP	72
T_REC_THO	6
T_REC_SLD	118
T_REC_BSL	21
T_REC_ALL	874
T_NUM_TAP	620
T_NUM_BRK	97
T_NUM_HLD	39
T_NUM_SLD	118
T_NUM_ALL	874
T_JUDGE_TAP	689
T_JUDGE_HLD	180
T_JUDGE_SLD	139
T_JUDGE_ALL	1008
TTM_EACHPAIRS	160
TTM_SCR_TAP	310000
TTM_SCR_BRK	252200
TTM_SCR_HLD	39000
TTM_SCR_SLD	177000
TTM_SCR_ALL	778200
TTM_SCR_S	745450
TTM_SCR_SS	768500
TTM_RAT_ACV	10126

