VERSION	0.00.00	1.05.00
FES_MODE	0
BPM_DEF	166.000	166.000	166.000	166.000
MET_DEF	4	4
RESOLUTION	384
CLK_DEF	384
COMPATIBLE_CODE	MA2

BPM	0	0	166.000
MET	0	0	4	4

EXTAP	2	0	0
EXTAP	2	0	2
EXHLD	2	48	0	240
EXHLD	2	48	2	240
EXTAP	3	0	5
EXTAP	3	0	7
EXHLD	3	48	5	240
EXHLD	3	48	7	240
EXTAP	4	0	6
EXTAP	4	0	7
EXTAP	4	48	6
EXTAP	4	48	7
EXTAP	4	192	4
EXTAP	4	192	5
EXTAP	4	240	4
EXTAP	4	240	5
NMTAP	5	0	2
NMTAP	5	0	3
NMTAP	5	96	2
NMTAP	5	144	2
NMTAP	5	192	3
NMTAP	5	288	1
NMTAP	5	288	4
NMTAP	6	0	5
NMTAP	6	96	5
NMTAP	6	96	7
NMTAP	6	192	0
NMTAP	6	240	0
NMTAP	6	288	7
NMTAP	7	0	2
NMTAP	7	96	0
NMTAP	7	96	2
NMTAP	7	192	7
NMTAP	7	240	7
NMTAP	7	288	0
NMTAP	8	0	6
NMTAP	8	96	5
NMTAP	8	96	7
NMTAP	8	192	5
NMTAP	8	192	7
NMTAP	8	288	0
NMSTR	8	336	0
NMSCR	8	336	0	96	240	7
NMTAP	10	0	6
NMHLD	10	96	6	480
NMTAP	10	192	4
NMTAP	10	288	4
NMTAP	11	0	5
NMTAP	11	96	5
NMTAP	11	192	4
NMTAP	11	288	3
NMTAP	12	0	2
NMHLD	12	96	2	480
NMTAP	12	192	4
NMTAP	12	288	4
NMTAP	13	0	3
NMTAP	13	96	3
NMTAP	13	192	4
NMTAP	13	288	4
EXTAP	14	0	3
EXHLD	14	0	5	576
NMTAP	14	192	4
NMTAP	14	288	4
NMTAP	15	0	6
NMTAP	15	96	6
NMTAP	15	192	7
NMTAP	15	288	0
NMTAP	15	288	6
NMTAP	16	0	1
NMTAP	16	96	1
NMTAP	16	192	2
NMTAP	16	192	3
NMTAP	16	288	2
NMTAP	16	288	3
NMTAP	17	0	4
NMTAP	17	0	5
NMTAP	17	96	4
NMTAP	17	96	5
BRTAP	17	192	2
BRTAP	17	192	6
NMTAP	18	0	1
NMTAP	18	48	1
NMTAP	18	96	0
NMTAP	18	192	6
NMTAP	18	240	6
NMTAP	18	288	7
NMTAP	19	0	0
NMTAP	19	0	5
NMTAP	19	96	6
NMTAP	19	96	7
NMTAP	19	192	2
NMTAP	19	192	7
NMTAP	19	288	0
NMTAP	19	288	1
NMTAP	20	0	6
NMTAP	20	48	6
NMTAP	20	96	7
NMTAP	20	192	1
NMTAP	20	240	1
NMTAP	20	288	0
NMHLD	21	0	2	96
NMHLD	21	96	0	96
NMHLD	21	192	7	96
NMHLD	21	288	5	96
BRSTR	22	0	7
NMSI_	22	0	7	96	96	3
NMTAP	22	288	2
NMTAP	22	288	4
NMTAP	23	0	4
NMTAP	23	0	5
NMTAP	23	96	6
NMTAP	23	96	7
NMTAP	23	192	0
NMTAP	23	240	0
NMTAP	23	288	7
NMTAP	24	0	0
NMTAP	24	0	2
NMTAP	24	96	1
NMTAP	24	96	7
NMTAP	24	144	1
NMTAP	24	144	7
NMTAP	24	240	0
NMTAP	24	240	6
NMTAP	24	288	0
NMTAP	24	288	6
NMTAP	25	0	1
NMTAP	25	0	5
NMTAP	25	96	2
NMTAP	25	144	3
NMTAP	25	192	4
NMSTR	26	0	5
NMSCL	26	0	5	96	96	2
NMHLD	26	192	1	384
NMTTP	27	0	3	E	0	M1
NMTTP	27	96	4	E	0	M1
NMTTP	27	192	5	E	0	M1
NMSTR	28	0	6
NMSCL	28	0	6	96	96	3
NMHLD	28	192	2	384
NMTTP	29	0	2	E	0	M1
NMTTP	29	96	3	E	0	M1
NMTTP	29	192	4	E	0	M1
NMTAP	30	0	2
NMTAP	30	96	1
NMTAP	30	96	3
NMTAP	30	192	2
NMTAP	30	240	2
NMTAP	30	288	3
NMTAP	31	0	5
NMTAP	31	96	4
NMTAP	31	96	6
NMTAP	31	192	5
NMTAP	31	240	5
NMTAP	31	288	4
NMTAP	32	0	5
NMTAP	32	96	4
NMTAP	32	192	3
NMTAP	32	288	2
NMSTR	33	0	1
NMSI_	33	0	1	96	96	4
NMSTR	33	0	6
NMSI_	33	0	6	96	96	3
NMTAP	33	288	3
NMTAP	33	288	4
BRTAP	34	0	2
BRTAP	34	0	3
NMTAP	34	96	1
NMTAP	34	144	1
NMTAP	34	192	7
NMTAP	34	288	0
NMTAP	34	288	6
NMTAP	35	0	4
NMTAP	35	0	5
NMTAP	35	96	6
NMTAP	35	144	6
NMTAP	35	192	0
NMTAP	35	288	1
NMTAP	35	288	7
NMTAP	36	0	2
NMTAP	36	0	3
NMTAP	36	96	0
NMTAP	36	96	7
NMTAP	36	192	4
NMTAP	36	192	5
NMTAP	36	288	0
NMTAP	36	288	7
NMTAP	37	0	2
NMTAP	37	0	3
NMTAP	37	96	2
NMTAP	37	96	3
BRTAP	37	192	1
BRTAP	37	192	4
NMTAP	38	0	4
NMTAP	38	0	5
NMTAP	38	96	6
NMTAP	38	144	6
NMTAP	38	192	0
NMTAP	38	288	1
NMTAP	38	288	7
NMTAP	39	0	2
NMTAP	39	0	3
NMTAP	39	96	1
NMTAP	39	144	1
NMTAP	39	192	7
NMTAP	39	288	0
NMTAP	39	288	6
NMTAP	40	0	4
NMTAP	40	0	5
NMTAP	40	96	0
NMTAP	40	96	7
NMTAP	40	192	2
NMTAP	40	192	3
NMTAP	40	288	0
NMTAP	40	288	7
NMTAP	41	0	4
NMTAP	41	0	5
NMTAP	41	96	4
NMTAP	41	96	5
BRTAP	41	192	2
BRTAP	41	192	6
NMSTR	42	0	5
NMSCR	42	0	5	96	96	0
NMSTR	42	192	1
NMSCR	42	192	1	96	96	4
NMSTR	43	0	6
NMSXL	43	0	6	96	192	3
NMHLD	44	0	1	192
NMTHO	44	192	3	384	E	1	M1
NMTAP	45	0	0
NMTAP	45	96	0
NMTAP	45	192	0
NMTAP	46	0	4
NMTAP	46	96	4
NMTAP	46	192	3
NMTAP	46	192	5
NMTAP	46	288	3
NMTAP	46	288	5
NMTAP	47	0	2
NMTAP	47	96	0
NMTAP	47	96	1
NMTAP	47	192	7
NMTAP	47	288	6
NMTAP	47	288	7
NMTAP	48	0	4
NMTAP	48	0	5
NMTAP	48	96	4
NMTAP	48	96	5
NMTAP	48	192	2
NMTAP	48	192	3
NMTAP	48	288	2
NMTAP	48	288	3
NMTTP	49	0	0	B	0	M1
NMTTP	49	0	0	A	0	M1
NMTTP	49	0	1	B	0	M1
NMTTP	49	0	1	E	0	M1
NMTTP	49	0	1	A	0	M1
NMTTP	49	0	1	D	1	M1
EXHLD	50	0	2	384
NMTAP	50	96	3
NMTAP	50	144	3
NMSTR	50	288	3
NMSLL	50	288	3	96	192	4
EXHLD	52	0	5	384
NMTAP	52	96	4
NMTAP	52	144	4
NMSTR	52	288	4
NMSLR	52	288	4	96	192	2
EXHLD	54	0	1	384
NMTAP	54	96	3
NMTAP	54	144	3
NMSTR	54	288	2
NMSUL	54	288	2	96	192	5
EXTAP	56	0	4
EXTAP	56	0	6
NMTAP	56	96	5
NMTAP	56	144	5
NMTAP	56	192	4
NMTAP	56	240	4
NMTAP	56	288	6
NMTAP	56	336	6
NMTAP	57	0	3
NMTAP	57	96	2
NMTAP	57	96	5
NMTAP	57	144	2
NMTAP	57	144	5
NMTAP	57	240	1
NMTAP	57	240	4
NMTAP	57	288	1
NMSTR	57	288	4
NMSCR	57	288	4	96	576	3
NMTTP	58	0	0	C	1	M1
NMTAP	59	288	3
NMTAP	59	288	4
NMTAP	60	0	2
NMTAP	60	48	2
NMTAP	60	96	4
NMTAP	60	144	4
NMTAP	60	192	3
NMTAP	60	240	3
NMTAP	60	288	5
NMTAP	61	0	6
NMTAP	61	48	6
NMTAP	61	96	0
NMTAP	61	144	0
NMTAP	61	192	7
NMTAP	61	240	7
NMTAP	61	288	1
NMTAP	62	0	0
NMTAP	62	0	2
NMTAP	62	96	3
NMHLD	62	144	3	96
NMTAP	62	240	0
NMTAP	62	288	0
NMTAP	63	0	1
NMTAP	63	0	7
NMTAP	63	96	5
NMHLD	63	144	5	96
NMTAP	63	240	7
NMTAP	63	288	7
NMSTR	64	0	0
NMSI_	64	0	0	96	96	4
NMSTR	64	0	6
NMSI_	64	0	6	96	96	4
NMTAP	64	288	3
NMTAP	64	288	5
NMSTR	65	0	2
NMSI_	65	0	2	96	96	0
NMSTR	65	0	4
NMSI_	65	0	4	96	96	0
NMTAP	65	288	0
NMTAP	65	288	7
NMTAP	66	0	1
NMTAP	66	48	2
NMTAP	66	96	3
NMTAP	66	192	6
NMTAP	66	240	5
NMTAP	66	288	4
BRTAP	67	0	1
BRTAP	67	0	5
NMSTR	68	0	3
NMSI_	68	0	3	96	96	1
NMHLD	68	0	6	576
NMSTR	68	288	2
NMSI_	68	288	2	96	96	5
NMHLD	70	0	3	576
NMSTR	70	0	6
NMSI_	70	0	6	96	96	2
NMSTR	70	288	2
NMSCR	70	288	2	96	96	5
NMTAP	72	0	4
NMTAP	72	0	6
NMTAP	72	96	4
NMTAP	72	96	6
NMTAP	72	192	3
NMTAP	72	192	4
NMTAP	72	288	3
NMTAP	72	288	4
NMTAP	73	0	1
NMTAP	73	0	3
NMTAP	73	96	1
NMTAP	73	96	3
NMTAP	73	192	3
NMTAP	73	192	4
NMTAP	73	288	3
NMTAP	73	288	4
NMTAP	74	0	5
NMTAP	74	48	5
NMTAP	74	96	4
NMTAP	74	144	4
NMTAP	74	192	6
NMTAP	74	240	6
NMTAP	74	288	3
NMTAP	75	0	2
NMTAP	75	48	2
NMTAP	75	96	3
NMTAP	75	144	3
NMTAP	75	192	1
NMTAP	75	240	1
NMTAP	75	288	4
NMTAP	76	0	2
NMTAP	76	0	3
NMTAP	76	96	4
NMTAP	76	96	5
BRTAP	76	192	0
BRTAP	76	192	7
NMTHO	77	0	1	192	B	0	M1
NMTHO	77	0	2	192	B	0	M1
NMTHO	77	0	3	192	B	0	M1
NMTHO	78	0	4	192	B	0	M1
NMTHO	78	0	5	192	B	0	M1
NMTHO	78	0	6	192	B	0	M1
NMTHO	79	0	0	384	C	1	M1
NMTAP	80	288	0
NMTAP	80	288	1
NMTAP	81	0	0
NMTAP	81	0	1
BRTAP	81	96	4
BRTAP	81	96	5
NMTAP	81	192	6
NMTAP	81	192	7
NMTAP	81	288	2
NMTAP	81	288	3
NMTAP	82	0	0
NMTAP	82	0	1
NMTAP	82	96	0
NMTAP	82	96	1
NMTAP	82	192	6
NMTAP	82	192	7
NMTAP	82	288	6
NMTAP	82	288	7
NMTAP	83	0	6
NMTAP	83	48	6
NMTAP	83	96	5
NMTAP	83	96	7
NMTAP	83	192	1
NMTAP	83	240	1
NMTAP	83	288	0
NMTAP	83	288	2
NMTAP	84	0	3
NMTAP	84	0	5
NMTAP	84	96	3
NMTAP	84	96	5
BRTAP	84	192	2
BRTAP	84	192	6
NMTAP	84	336	5
NMHLD	85	0	5	144
NMTAP	85	144	7
NMHLD	85	192	7	144
NMTAP	85	336	1
NMHLD	86	0	1	144
NMTAP	86	144	3
NMHLD	86	192	3	144
NMTAP	86	336	5
NMSTR	87	0	5
NMSI_	87	0	5	96	48	0
NMTAP	87	144	1
NMSTR	87	192	1
NMSI_	87	192	1	96	48	4
NMTAP	87	336	6
NMSTR	88	0	6
NMSLL	88	0	6	96	96	2
NMTAP	89	0	2
NMTAP	89	0	3
NMTAP	89	96	2
NMTAP	89	96	3
NMTAP	89	192	4
NMTAP	89	192	5
NMTAP	89	288	4
NMTAP	89	288	5
NMTAP	90	0	1
NMTAP	90	0	3
NMTAP	90	96	1
NMTAP	90	96	3
NMTAP	90	192	4
NMTAP	90	192	6
NMTAP	90	288	4
NMTAP	90	288	6
NMSTR	91	0	5
NMSCR	91	0	5	96	192	2
NMTAP	92	0	3
NMTAP	92	0	4
NMTAP	92	96	2
NMTAP	92	96	5
BRTAP	92	192	0
BRTAP	92	192	7
BXTAP	93	0	1
BXTAP	93	0	5
NMTAP	93	96	6
NMTAP	93	144	7
NMTAP	93	192	0
NMTAP	93	288	0
NMTAP	93	288	1
NMTAP	94	0	2
NMTAP	94	0	6
NMTAP	94	96	1
NMTAP	94	144	0
NMTAP	94	192	7
NMTAP	94	288	6
NMTAP	94	288	7
NMTAP	95	0	1
NMTAP	95	0	5
NMTAP	95	96	2
NMTAP	95	144	3
NMTAP	95	192	4
NMSTR	95	288	4
NMSUR	95	288	4	96	96	1
NMSTR	95	288	5
NMSCR	95	288	5	96	96	0
BRTAP	96	192	0
BRTAP	96	192	1
BXTAP	97	0	2
BXTAP	97	0	6
NMTAP	97	96	1
NMTAP	97	144	0
NMTAP	97	192	7
NMTAP	97	288	6
NMTAP	97	288	7
NMTAP	98	0	1
NMTAP	98	0	5
NMTAP	98	96	6
NMTAP	98	144	7
NMTAP	98	192	0
NMTAP	98	288	0
NMTAP	98	288	1
NMTAP	99	0	2
NMTAP	99	0	6
NMTAP	99	96	5
NMTAP	99	144	4
NMTAP	99	192	3
NMSTR	99	288	2
NMSCL	99	288	2	96	96	7
NMSTR	99	288	3
NMSUL	99	288	3	96	96	6
BRTAP	100	192	6
BRTAP	100	192	7
NMTAP	100	288	6
NMTAP	100	288	7
NMHLD	101	0	6	96
NMHLD	101	96	4	96
NMHLD	101	192	3	96
NMTAP	101	288	1
NMHLD	102	0	1	96
NMHLD	102	96	3	96
NMHLD	102	192	4	96
NMTAP	102	288	6
NMSTR	103	0	6
NMSI_	103	0	6	96	96	1
NMSTR	103	192	2
NMSI_	103	192	2	96	96	5
NMSTR	104	0	7
NMSUR	104	0	7	96	192	0
NMTAP	105	0	2
NMTAP	105	0	7
NMTAP	105	96	2
NMTAP	105	96	7
NMTAP	105	192	0
NMTAP	105	192	5
NMTAP	105	288	0
NMTAP	105	288	5
NMTAP	106	0	3
NMTAP	106	0	6
NMTAP	106	96	3
NMTAP	106	96	6
NMTAP	106	192	1
NMTAP	106	192	4
NMTAP	106	288	1
NMTAP	106	288	4
EXSTR	107	0	2
NMSI_	107	0	2	96	48	7
EXSTR	107	0	3
NMSI_	107	0	3	96	48	5
EXSTR	107	192	4
NMSI_	107	192	4	96	48	2
EXSTR	107	192	5
NMSI_	107	192	5	96	48	0
BXSTR	108	0	2
BRSCL	108	0	2	96	480	4
BXSTR	108	0	3
BRSUL	108	0	3	96	480	4
NMTAP	110	0	4
NMTAP	110	0	6
NMHLD	110	48	4	240
NMHLD	110	48	6	240
NMTAP	111	0	1
NMTAP	111	0	3
NMHLD	111	48	1	240
NMHLD	111	48	3	240
NMTAP	112	0	5
NMTAP	112	0	7
NMHLD	112	48	5	48
NMHLD	112	48	7	48
NMTAP	112	192	0
NMTAP	112	192	2
NMHLD	112	240	0	48
NMHLD	112	240	2	48
NMTAP	113	0	6
NMTAP	113	0	7
EXTAP	113	96	4
EXTAP	113	96	5
EXTAP	113	144	3
EXTAP	113	144	6
EXTAP	113	192	2
EXTAP	113	192	7
BRTAP	113	288	1
BRTAP	113	288	6
NMHLD	114	0	5	96
NMTAP	114	96	7
NMTAP	114	192	6
NMTAP	114	240	6
NMTAP	114	288	0
NMHLD	115	0	2	96
NMTAP	115	96	0
NMTAP	115	192	1
NMTAP	115	240	1
NMTAP	115	288	7
NMTAP	116	0	0
NMTAP	116	0	6
NMTAP	116	96	4
NMTAP	116	96	5
NMTAP	116	192	3
NMTAP	116	240	3
NMTAP	116	288	4
BRTAP	116	336	2
NMTAP	117	48	1
NMTAP	117	48	5
NMTAP	117	96	1
NMTAP	117	96	5
NMTAP	117	144	1
NMTAP	117	144	5
NMTAP	117	240	0
NMTAP	117	240	6
NMTHO	117	336	0	1200	C	0	M1
NMTHO	117	336	1	1176	B	0	M1
NMTHO	117	336	5	1224	B	1	M1

T_REC_TAP	423
T_REC_BRK	25
T_REC_XTP	21
T_REC_BXX	4
T_REC_HLD	33
T_REC_XHO	8
T_REC_BHO	0
T_REC_BXH	0
T_REC_STR	31
T_REC_BST	1
T_REC_XST	4
T_REC_XBS	2
T_REC_TTP	13
T_REC_THO	11
T_REC_SLD	36
T_REC_BSL	2
T_REC_ALL	614
T_NUM_TAP	492
T_NUM_BRK	34
T_NUM_HLD	52
T_NUM_SLD	36
T_NUM_ALL	614
T_JUDGE_TAP	524
T_JUDGE_HLD	300
T_JUDGE_SLD	38
T_JUDGE_ALL	862
TTM_EACHPAIRS	164
TTM_SCR_TAP	246000
TTM_SCR_BRK	88400
TTM_SCR_HLD	52000
TTM_SCR_SLD	54000
TTM_SCR_ALL	440400
TTM_SCR_S	423900
TTM_SCR_SS	437000
TTM_RAT_ACV	10077

