VERSION	0.00.00	1.05.00
FES_MODE	0
BPM_DEF	166.000	166.000	166.000	166.000
MET_DEF	4	4
RESOLUTION	384
CLK_DEF	384
COMPATIBLE_CODE	MA2

BPM	0	0	166.000
MET	0	0	4	4

NMTAP	2	0	0
NMTAP	2	192	0
NMTAP	3	0	1
NMTAP	3	192	1
NMTAP	4	0	2
NMTAP	4	192	2
NMTAP	5	0	3
NMTAP	5	0	4
NMTAP	5	192	3
NMTAP	5	192	4
NMTAP	6	0	4
NMTAP	6	192	4
NMTAP	7	0	5
NMTAP	7	192	5
NMTAP	8	0	6
NMTAP	8	192	6
EXTAP	9	0	0
EXTAP	9	0	7
NMTAP	10	0	7
NMTAP	10	96	7
NMTAP	10	192	6
NMTAP	11	0	5
NMTAP	11	96	5
NMTAP	11	192	4
NMTAP	12	0	3
NMTAP	12	96	3
NMTAP	12	192	2
NMTAP	13	0	1
NMTAP	13	96	1
NMTAP	13	192	0
NMTAP	13	192	7
NMTAP	14	0	0
NMTAP	14	96	0
NMTAP	14	192	1
NMTAP	15	0	2
NMTAP	15	96	2
NMTAP	15	192	3
NMTAP	16	0	4
NMTAP	16	96	4
NMTAP	16	192	5
NMTAP	17	0	6
NMTAP	17	96	6
NMTAP	17	192	0
NMTAP	17	192	7
NMTAP	18	0	6
NMTAP	18	96	6
NMTAP	18	192	6
NMTAP	18	192	7
NMTAP	19	0	5
NMTAP	19	96	5
NMTAP	19	192	4
NMTAP	19	192	5
NMTAP	20	0	3
NMTAP	20	96	3
NMTAP	20	192	2
NMTAP	20	192	3
NMTAP	21	0	0
NMTAP	21	0	1
NMTAP	21	96	0
NMTAP	21	96	1
NMTAP	21	192	0
NMTAP	21	192	1
NMTAP	22	0	1
NMTAP	22	96	1
NMTAP	22	192	0
NMTAP	22	192	1
NMTAP	23	0	2
NMTAP	23	96	2
NMTAP	23	192	2
NMTAP	23	192	3
NMTAP	24	0	4
NMTAP	24	96	4
NMTAP	24	192	4
NMTAP	24	192	5
NMTAP	25	0	6
NMTAP	25	0	7
NMTAP	25	96	6
NMTAP	25	96	7
NMTAP	25	192	6
NMTAP	25	192	7
NMHLD	26	0	5	192
NMHLD	26	192	4	192
NMHLD	27	0	3	192
NMTAP	27	192	2
NMHLD	28	0	2	192
NMHLD	28	192	3	192
NMHLD	29	0	4	192
NMTAP	29	192	5
NMHLD	30	0	6	192
NMHLD	30	192	5	192
NMHLD	31	0	4	192
NMTAP	31	192	3
NMHLD	32	0	1	192
NMHLD	32	192	2	192
NMTAP	33	0	3
NMTAP	33	192	3
NMTAP	33	192	4
BXTAP	34	0	2
NMTAP	34	96	2
NMTAP	34	192	1
NMTAP	34	288	1
NMTAP	35	0	0
NMTAP	35	96	0
NMTAP	35	192	6
NMTAP	35	192	7
NMTAP	36	0	5
NMTAP	36	96	5
NMTAP	36	192	6
NMTAP	36	288	6
NMTAP	37	0	7
NMTAP	37	96	7
NMTAP	37	192	0
NMTAP	37	192	1
NMTAP	38	0	1
NMTAP	38	96	1
NMTAP	38	192	2
NMTAP	38	288	2
NMTAP	39	0	3
NMTAP	39	96	3
NMTAP	39	192	4
NMTAP	39	192	5
NMTAP	40	0	6
NMTAP	40	96	6
NMTAP	40	192	5
NMTAP	40	288	5
NMTAP	41	0	4
NMTAP	41	96	4
BRTAP	41	192	2
BRTAP	41	192	3
NMTAP	42	0	2
NMTAP	42	96	2
NMTAP	42	192	1
NMTAP	42	288	1
NMTAP	43	0	0
NMTAP	43	96	0
NMTAP	43	192	6
NMTAP	43	192	7
NMTAP	43	288	6
NMTAP	43	288	7
NMTAP	44	0	5
NMTAP	44	96	5
NMTAP	44	192	6
NMTAP	44	288	6
NMTAP	45	0	7
NMTAP	45	96	7
NMTAP	45	192	0
NMTAP	45	192	1
NMTAP	46	0	1
NMTAP	46	96	1
NMTAP	46	192	2
NMTAP	46	288	2
NMTAP	47	0	3
NMTAP	47	96	3
NMTAP	47	192	4
NMTAP	47	192	5
NMTAP	47	288	4
NMTAP	47	288	5
NMTAP	48	0	6
NMTAP	48	96	6
NMTAP	48	192	5
NMTAP	48	288	5
NMTAP	49	0	4
NMTAP	49	96	4
NMTAP	49	192	2
NMTAP	49	192	3
NMTTP	50	0	1	B	0	L1
NMTTP	50	96	2	B	0	L1
NMTTP	50	192	3	B	0	L1
NMTTP	51	0	6	B	0	L1
NMTTP	51	96	5	B	0	L1
NMTTP	51	192	4	B	0	L1
NMTTP	52	0	1	B	0	L1
NMTTP	52	96	2	B	0	L1
NMTTP	52	192	3	B	0	L1
NMTTP	52	288	4	B	0	L1
NMTTP	53	0	5	B	0	L1
NMTTP	53	96	6	B	0	L1
NMTTP	53	192	0	C	0	L1
NMTTP	54	0	7	B	0	L1
NMTTP	54	96	6	B	0	L1
NMTTP	54	192	4	B	0	L1
NMTTP	54	192	5	B	0	L1
NMTTP	55	0	0	B	0	L1
NMTTP	55	96	1	B	0	L1
NMTTP	55	192	2	B	0	L1
NMTTP	55	192	3	B	0	L1
NMTTP	56	0	6	B	0	L1
NMTTP	56	96	5	B	0	L1
NMTTP	56	192	4	B	0	L1
NMTTP	56	288	3	B	0	L1
NMTHO	57	0	0	384	C	1	L1
EXTAP	59	0	0
EXTAP	59	0	7
NMTAP	60	0	6
NMTAP	60	96	6
NMTAP	60	192	6
NMTAP	60	192	7
NMTAP	61	0	1
NMTAP	61	96	1
NMTAP	61	192	0
NMTAP	61	192	1
NMTAP	62	0	7
NMTAP	62	96	7
NMTAP	62	192	6
NMTAP	62	288	6
NMTAP	63	0	5
NMTAP	63	96	5
NMTAP	63	192	4
NMTAP	63	288	4
NMTAP	64	0	3
NMTAP	64	96	3
NMTAP	64	192	2
NMTAP	64	288	2
NMTAP	65	0	1
NMTAP	65	96	1
NMTAP	65	192	0
NMTAP	65	192	7
NMTAP	66	0	0
NMTAP	66	0	7
NMTAP	66	96	0
NMTAP	66	96	7
NMTAP	66	192	1
NMTAP	66	192	6
NMTAP	66	288	1
NMTAP	66	288	6
EXTAP	67	0	2
EXTAP	67	0	5
NMSTR	68	0	1
NMSI_	68	0	1	96	192	5
NMSTR	69	0	6
NMSI_	69	0	6	96	192	2
NMSTR	70	0	0
NMSI_	70	0	0	96	192	4
NMSTR	71	0	6
NMSI_	71	0	6	96	192	3
NMTAP	72	0	2
NMTAP	72	96	2
NMTAP	72	192	2
NMTAP	72	192	3
NMTAP	73	0	5
NMTAP	73	96	5
NMTAP	73	192	4
NMTAP	73	192	5
NMTAP	74	0	3
NMTAP	74	96	2
NMTAP	74	192	1
NMTAP	74	288	0
NMTAP	75	0	7
NMTAP	75	96	6
NMTAP	75	192	4
NMTAP	75	192	5
NMHLD	76	0	3	192
NMHLD	76	0	4	192
NMSTR	77	0	2
NMSI_	77	0	2	96	192	7
NMSTR	77	0	3
NMSI_	77	0	3	96	192	6
NMTAP	78	192	4
NMTAP	78	192	5
NMSTR	79	0	4
NMSI_	79	0	4	96	192	1
NMSTR	79	0	5
NMSI_	79	0	5	96	192	0
NMTAP	80	192	0
NMTAP	80	192	1
NMTAP	81	0	1
BXTAP	81	96	1
NMTAP	81	192	2
NMTAP	81	192	3
NMTAP	81	288	2
NMTAP	81	288	3
NMTAP	82	0	4
NMTAP	82	96	4
NMTAP	82	192	4
NMTAP	82	192	5
NMTAP	83	0	6
NMTAP	83	96	6
NMTAP	83	192	4
NMTAP	83	192	5
NMTAP	83	288	4
NMTAP	83	288	5
NMTAP	84	0	3
NMTAP	84	96	3
EXTAP	84	192	2
EXTAP	84	192	3
NMTAP	85	0	2
NMTAP	85	96	2
NMTAP	85	192	0
NMTAP	85	192	1
NMTAP	85	288	0
NMTAP	85	288	1
NMTAP	86	0	7
NMTAP	86	96	7
NMTAP	86	192	6
NMTAP	86	192	7
NMTAP	86	288	6
NMTAP	86	288	7
NMTAP	87	0	5
NMTAP	87	96	5
NMTAP	87	192	6
NMTAP	87	192	7
NMTAP	87	288	6
NMTAP	87	288	7
NMTAP	88	0	0
NMTAP	88	96	0
BXTAP	88	192	0
BXTAP	88	192	1
NMTAP	89	0	1
NMTAP	89	96	1
NMTAP	89	192	2
NMTAP	89	192	3
NMTAP	89	288	2
NMTAP	89	288	3
NMTAP	90	0	4
NMTAP	90	96	4
NMTAP	90	192	4
NMTAP	90	192	5
NMTAP	90	288	4
NMTAP	90	288	5
NMTAP	91	0	6
NMTAP	91	96	6
NMTAP	91	192	4
NMTAP	91	192	5
NMTAP	91	288	4
NMTAP	91	288	5
NMTAP	92	0	3
NMTAP	92	96	3
NMTAP	92	192	2
NMTAP	92	192	3
NMTAP	93	0	1
NMTAP	93	96	1
NMTAP	93	192	1
NMTAP	93	288	0
NMTAP	93	288	1
NMTAP	94	0	2
NMTAP	94	96	2
NMTAP	94	192	2
NMTAP	94	288	2
NMTAP	94	288	3
NMTAP	95	0	4
NMTAP	95	96	4
NMTAP	95	192	4
NMTAP	95	288	4
NMTAP	95	288	5
NMTAP	96	0	6
NMTAP	96	96	6
EXTAP	96	192	6
EXTAP	96	192	7
NMTAP	97	0	6
NMTAP	97	96	6
NMTAP	97	192	6
NMTAP	97	288	6
NMTAP	97	288	7
NMTAP	98	0	5
NMTAP	98	96	5
NMTAP	98	192	5
NMTAP	98	288	4
NMTAP	98	288	5
NMTAP	99	0	3
NMTAP	99	96	3
NMTAP	99	192	3
NMTAP	99	288	2
NMTAP	99	288	3
NMTAP	100	0	1
NMTAP	100	96	1
BXTAP	100	192	0
BXTAP	100	192	1
NMTAP	101	0	0
NMTAP	101	96	0
NMTAP	101	192	0
NMTAP	101	192	1
NMTAP	101	288	0
NMTAP	101	288	1
NMTAP	102	0	2
NMTAP	102	96	2
NMTAP	102	192	2
NMTAP	102	192	3
NMTAP	102	288	2
NMTAP	102	288	3
NMTAP	103	0	4
NMTAP	103	96	4
NMTAP	103	192	4
NMTAP	103	192	5
NMTAP	103	288	4
NMTAP	103	288	5
NMTAP	104	0	6
NMTAP	104	0	7
NMTAP	104	96	6
NMTAP	104	96	7
BRTAP	104	192	6
BRTAP	104	192	7
NMTAP	105	0	6
NMTAP	105	96	6
NMTAP	105	192	6
NMTAP	105	192	7
NMTAP	105	288	6
NMTAP	105	288	7
NMTAP	106	0	5
NMTAP	106	96	5
NMTAP	106	192	4
NMTAP	106	192	5
NMTAP	106	288	4
NMTAP	106	288	5
NMTAP	107	0	3
NMTAP	107	96	3
NMTAP	107	192	2
NMTAP	107	192	3
NMTAP	107	288	2
NMTAP	107	288	3
NMSTR	108	0	1
NMSUR	108	0	1	96	480	4
NMHLD	110	0	6	192
NMTAP	110	192	7
NMHLD	111	0	5	192
NMTAP	111	192	4
NMHLD	112	0	2	192
NMTAP	112	192	3
NMHLD	113	0	1	192
NMTAP	113	192	0
NMTAP	114	0	0
NMTAP	114	96	1
NMTAP	114	192	2
NMTAP	114	288	3
NMTAP	115	0	4
NMTAP	115	96	5
NMTAP	115	192	6
NMTAP	115	192	7
NMTAP	116	0	7
NMTAP	116	96	6
NMTAP	116	192	5
NMTAP	116	288	4
NMTAP	117	0	3
NMTAP	117	96	2
NMTAP	117	192	0
NMTAP	117	192	1
NMSTR	117	288	0
NMSXR	117	288	0	96	1152	5
NMSTR	117	288	1
NMSXL	117	288	1	96	1152	4

T_REC_TAP	354
T_REC_BRK	4
T_REC_XTP	10
T_REC_BXX	6
T_REC_HLD	17
T_REC_XHO	0
T_REC_BHO	0
T_REC_BXH	0
T_REC_STR	11
T_REC_BST	0
T_REC_XST	0
T_REC_XBS	0
T_REC_TTP	25
T_REC_THO	1
T_REC_SLD	11
T_REC_BSL	0
T_REC_ALL	439
T_NUM_TAP	400
T_NUM_BRK	10
T_NUM_HLD	18
T_NUM_SLD	11
T_NUM_ALL	439
T_JUDGE_TAP	410
T_JUDGE_HLD	76
T_JUDGE_SLD	11
T_JUDGE_ALL	497
TTM_EACHPAIRS	91
TTM_SCR_TAP	200000
TTM_SCR_BRK	26000
TTM_SCR_HLD	18000
TTM_SCR_SLD	16500
TTM_SCR_ALL	260500
TTM_SCR_S	251750
TTM_SCR_SS	259500
TTM_RAT_ACV	10038

