VERSION	0.00.00	1.05.00
FES_MODE	0
BPM_DEF	146.000	146.000	146.000	146.000
MET_DEF	4	4
RESOLUTION	384
CLK_DEF	384
COMPATIBLE_CODE	MA2

BPM	0	0	146.000
MET	0	0	4	4

BXTAP	2	0	1
BXTAP	2	0	6
NMTAP	2	96	2
NMTAP	2	144	2
NMTAP	2	240	3
NMTAP	2	336	4
NMTAP	3	48	5
NMHLD	3	96	5	144
BXTAP	3	336	6
BXTAP	3	336	7
BXTAP	4	0	6
BXTAP	4	0	7
NMTAP	4	96	1
BXTAP	4	144	0
BXTAP	4	144	1
NMTAP	4	240	7
NMTAP	4	336	6
NMTAP	5	48	5
NMTAP	5	144	4
NMTAP	5	240	2
NMTAP	5	240	3
NMTAP	5	288	2
NMTAP	5	288	3
BXTAP	6	0	3
BXTAP	6	0	4
NMTAP	6	72	5
NMTAP	6	96	4
NMHLD	6	144	6	144
NMTAP	6	240	5
NMTAP	6	288	5
NMTAP	7	0	3
NMTAP	7	0	4
NMTAP	7	72	2
NMTAP	7	96	3
NMHLD	7	144	1	144
NMTAP	7	240	2
NMTAP	7	288	2
EXTAP	7	336	3
EXTAP	8	0	2
EXTAP	8	0	4
NMTAP	8	48	5
NMTAP	8	96	6
EXTAP	8	144	3
EXTAP	8	144	7
NMTAP	8	192	2
NMTAP	8	240	1
EXTAP	8	288	0
EXTAP	8	288	4
NMTAP	9	0	6
NMTAP	9	24	7
NMTAP	9	48	6
NMTAP	9	72	7
NMTAP	9	96	6
NMTAP	9	120	7
NMTAP	9	144	6
NMTAP	9	168	7
EXTAP	9	192	6
EXTAP	9	204	5
EXTAP	9	216	4
EXTAP	9	228	3
EXTAP	9	240	2
EXTAP	9	252	1
EXTAP	9	264	0
EXTAP	9	276	7
EXTAP	9	288	6
EXTAP	9	300	5
EXTAP	9	312	4
EXTAP	9	324	3
EXTAP	9	336	2
EXTAP	9	348	1
EXTAP	9	360	0
EXTAP	9	372	7
EXTAP	10	0	2
EXTAP	10	0	6
NMTAP	10	192	0
NMTAP	10	240	7
NMTAP	10	288	1
NMTAP	10	288	6
NMHLD	11	0	2	192
BRHLD	11	0	5	192
NMTAP	11	240	3
NMTAP	11	288	3
NMTAP	11	336	2
NMHLD	12	0	1	384
NMTAP	12	0	3
NMTAP	12	96	0
NMTAP	12	192	2
NMTAP	12	240	2
NMTAP	12	288	3
NMTAP	12	336	3
EXHLD	13	0	2	336
NMTAP	13	96	3
NMTAP	13	192	1
NMTAP	13	240	1
NMTAP	13	288	0
NMHLD	13	336	1	144
NMTAP	14	48	0
NMTAP	14	96	0
NMTAP	14	192	6
NMTAP	14	240	6
NMTAP	14	288	7
NMTAP	14	336	7
BRTAP	15	0	0
BRTAP	15	0	7
NMTAP	15	96	1
NMSTR	15	144	1
NMSI_	15	144	1	96	48	3
NMTAP	15	192	0
NMSTR	15	240	0
NMSI_	15	240	0	96	48	4
NMTAP	15	336	2
NMTAP	16	48	1
NMTAP	16	96	2
NMSTR	16	144	2
NMSI_	16	144	2	96	48	0
NMTAP	16	192	3
NMSTR	16	240	3
NMSI_	16	240	3	96	48	7
NMTAP	16	336	1
BRTAP	17	0	2
NMTAP	17	96	0
NMTAP	17	144	0
NMTAP	17	192	1
NMSTR	17	240	1
NMSI_	17	240	1	96	48	3
NMSTR	17	336	0
NMSI_	17	336	0	96	48	6
CNSV_	18	96	6	0	48	5
CNSI_	18	144	5	0	96	3
NMHLD	18	240	2	96
EXTAP	19	0	4
EXHLD	19	0	6	528
NMTAP	19	96	5
NMTAP	19	144	5
NMTAP	19	192	4
NMTAP	19	240	5
NMTAP	19	336	7
NMTAP	20	48	5
NMTAP	20	96	5
NMHLD	20	144	4	240
NMTAP	20	240	5
NMTAP	20	288	5
NMTAP	20	336	6
EXHLD	21	0	7	240
NMTAP	21	96	6
NMTAP	21	144	6
NMTAP	21	192	6
NMHLD	21	240	6	96
NMHLD	21	336	5	144
NMTAP	22	48	4
NMTAP	22	96	4
NMTAP	22	192	1
NMTAP	22	240	1
NMTAP	22	288	0
NMTAP	22	336	0
BRTAP	23	0	0
BRTAP	23	0	7
NMTAP	23	96	6
NMSTR	23	144	6
NMSI_	23	144	6	96	48	4
NMTAP	23	192	7
NMSTR	23	240	7
NMSI_	23	240	7	96	48	3
NMTAP	23	336	5
NMTAP	24	48	6
NMTAP	24	96	5
NMSTR	24	144	5
NMSI_	24	144	5	96	48	7
NMTAP	24	192	4
NMSTR	24	240	4
NMSI_	24	240	4	96	48	0
NMTAP	24	336	6
BRTAP	25	0	5
NMTAP	25	96	6
NMSTR	25	144	6
NMSI_	25	144	6	96	48	4
NMTAP	25	192	7
NMSTR	25	240	7
NMSI_	25	240	7	96	48	3
NMSTR	25	336	0
NMSI_	25	336	0	96	48	6
CNSI_	26	96	6	0	48	4
NMSTR	26	144	0
NMSI_	26	144	0	96	48	6
CNSI_	26	288	6	0	48	4
EXTAP	27	0	3
EXSTR	27	0	7
NMSXR	27	0	7	96	576	3
NMTAP	27	144	0
NMTAP	27	192	0
NMTTP	27	288	5	B	0	M1
NMTTP	27	288	6	B	0	M1
NMTAP	28	48	2
NMTAP	28	96	2
NMTTP	28	192	1	E	0	M1
NMTTP	28	192	2	E	0	M1
EXSTR	29	0	0
NMSXL	29	0	0	96	576	4
EXTAP	29	0	4
NMTAP	29	144	7
NMTAP	29	192	7
NMTTP	29	288	1	B	0	M1
NMTTP	29	288	2	B	0	M1
NMTAP	30	48	5
NMTAP	30	96	5
NMTTP	30	192	6	E	0	M1
NMTTP	30	192	7	E	0	M1
EXHLD	31	0	2	48
EXHLD	31	0	3	48
NMHLD	31	96	3	48
NMHLD	31	96	4	48
NMTAP	31	192	4
NMHLD	31	192	5	144
NMTAP	31	264	6
NMTAP	31	336	4
EXHLD	32	0	4	48
EXHLD	32	0	5	48
NMHLD	32	96	3	48
NMHLD	32	96	4	48
NMHLD	32	192	2	144
NMTAP	32	192	3
NMTAP	32	264	1
NMTAP	32	336	3
EXTAP	33	0	4
EXTAP	33	0	5
NMSTR	33	48	6
NMSUL	33	48	6	96	96	2
NMTAP	33	96	6
NMSTR	33	192	1
NMSUR	33	192	1	96	96	5
NMSTR	33	288	6
NMSUR	33	288	6	96	96	2
NMTAP	33	336	6
NMTAP	34	48	4
NMSTR	34	96	4
NMSF_	34	96	4	96	144	0
EXTAP	35	0	2
EXTAP	35	0	6
NMTAP	35	48	2
NMTAP	35	72	3
NMTAP	35	96	2
NMTAP	35	144	5
NMTAP	35	168	4
NMTAP	35	192	5
NMTAP	35	240	2
NMTAP	35	264	3
NMTAP	35	288	1
NMTAP	35	336	5
NMTAP	35	360	4
NMTAP	36	0	6
EXTAP	36	48	3
EXTAP	36	48	4
NMTAP	36	96	2
EXTAP	36	120	3
NMTAP	36	168	5
EXTAP	36	192	4
NMTAP	36	240	1
EXTAP	36	264	3
NMTAP	36	312	6
EXTAP	36	336	4
NMTHO	37	0	3	384	B	1	M1
EXSTR	37	0	7
NMSI_	37	0	7	96	48	4
NMSTR	37	96	7
NMSI_	37	96	7	96	48	2
NMSTR	37	192	7
NMSCL	37	192	7	96	48	4
NMSTR	37	288	7
NMSCR	37	288	7	96	48	2
NMTAP	38	0	7
NMSTR	38	192	0
NMSCR	38	192	0	96	48	3
NMTAP	38	216	7
NMTAP	38	240	0
BRTAP	38	288	0
BRTAP	38	288	6
EXSTR	39	0	4
NMSLL	39	0	4	96	96	6
EXTAP	39	0	5
NMTAP	39	96	1
NMTAP	39	96	4
NMTAP	39	144	0
NMTAP	39	192	7
NMTAP	39	240	5
NMTAP	39	264	4
NMTAP	39	336	2
NMTAP	39	336	4
NMTAP	40	0	1
NMSTR	40	0	3
NMSV_	40	0	3	96	48	0
NMTAP	40	48	2
NMSTR	40	96	3
NMSV_	40	96	3	96	48	6
NMTAP	40	96	5
NMTAP	40	144	4
NMTAP	40	192	1
NMTAP	40	192	3
EXTAP	40	288	6
EXTAP	40	288	7
NMTAP	40	336	4
NMTAP	40	336	5
NMTAP	41	0	2
NMSTR	41	0	3
NMSLR	41	0	3	96	96	1
NMTAP	41	96	3
NMTAP	41	96	6
NMTAP	41	144	7
NMTAP	41	192	0
NMTAP	41	240	2
NMTAP	41	264	3
NMTAP	41	336	4
NMSTR	41	336	5
NMSCL	41	336	5	96	48	2
NMSTR	42	48	7
NMSI_	42	48	7	96	48	3
NMTAP	42	96	7
NMSTR	42	144	1
NMSI_	42	144	1	96	48	5
NMTAP	42	192	1
NMTAP	42	240	2
NMTAP	42	288	3
BRTAP	42	336	4
BRTAP	42	336	6
EXSTR	43	48	3
NMSI_	43	48	3	96	48	7
NMTAP	43	48	4
NMTAP	43	96	2
NMTAP	43	144	1
NMTAP	43	144	3
NMTAP	43	240	6
EXSTR	43	240	7
NMSI_	43	240	7	96	48	3
NMTAP	43	288	0
NMTAP	43	336	1
NMTAP	43	336	7
EXSTR	44	48	4
NMSI_	44	48	4	96	48	0
NMTAP	44	48	5
NMTAP	44	96	3
NMTAP	44	144	2
NMTAP	44	144	4
NMTAP	44	192	1
NMTAP	44	240	2
NMTAP	44	288	0
NMTAP	44	288	3
NMTAP	44	336	7
EXSTR	45	0	4
NMSV_	45	0	4	96	48	1
EXTAP	45	0	6
NMTAP	45	96	4
NMTAP	45	96	5
NMSTR	45	144	3
NMSV_	45	144	3	96	48	6
NMTAP	45	240	2
NMTAP	45	240	3
BRTAP	45	336	1
BRTAP	45	336	7
NMTAP	46	48	2
NMTAP	46	48	3
NMTAP	46	96	4
NMTAP	46	96	5
NMTAP	46	144	6
NMTAP	46	144	7
NMTAP	46	192	0
NMTAP	46	192	1
NMTAP	46	240	2
NMTAP	46	264	3
NMTAP	46	312	5
NMTAP	46	336	4
NMSTR	47	0	6
NMSI_	47	0	6	96	48	2
NMSTR	47	0	7
NMSI_	47	0	7	96	48	3
BRTAP	47	96	6
BRTAP	47	96	7
NMTAP	47	192	0
NMTAP	47	192	1
NMTAP	47	240	2
NMTAP	47	264	3
NMTAP	47	336	3
NMTAP	47	336	5
NMSTR	48	0	4
NMSV_	48	0	4	96	48	7
NMTAP	48	0	6
NMTAP	48	48	5
NMTAP	48	96	2
NMSTR	48	96	4
NMSV_	48	96	4	96	48	1
NMTAP	48	144	3
NMTAP	48	192	4
NMTAP	48	192	6
EXTAP	48	288	0
EXTAP	48	288	1
NMTAP	48	336	2
NMTAP	48	336	3
NMSTR	49	0	4
NMSLL	49	0	4	96	96	6
NMTAP	49	0	5
NMTAP	49	96	1
NMTAP	49	96	4
NMTAP	49	144	0
NMTAP	49	192	7
NMTAP	49	240	5
NMTAP	49	264	4
NMSTR	49	336	2
NMSCR	49	336	2	96	48	5
NMTAP	49	336	3
NMSTR	50	48	0
NMSI_	50	48	0	96	48	4
NMTAP	50	96	0
NMSTR	50	144	6
NMSI_	50	144	6	96	48	2
NMTAP	50	192	6
NMTAP	50	240	5
NMTAP	50	288	3
NMTAP	51	0	1
NMTAP	51	32	1
NMTAP	51	64	1
BRTAP	51	96	0
BRTAP	51	96	2
NMTAP	51	192	6
NMTAP	51	224	6
NMTAP	51	256	6
BRTAP	51	288	5
BRTAP	51	288	7
NMTAP	52	0	2
NMTAP	52	32	3
NMTAP	52	64	3
NMTAP	52	96	1
NMTAP	52	128	2
NMTAP	52	160	2
NMSTR	52	192	0
NMSCR	52	192	0	96	48	4
NMSTR	52	240	4
BRSCR	52	240	4	96	48	0
NMTTP	52	288	4	E	0	M1
NMTTP	52	336	0	E	0	M1
NMTAP	53	48	5
NMTAP	53	96	4
NMTAP	53	96	6
NMTAP	53	144	7
NMTAP	53	192	0
NMTAP	53	192	3
NMTAP	53	240	2
NMTAP	53	240	7
NMTAP	53	288	1
NMTAP	53	288	6
EXSTR	53	336	0
NMSLR	53	336	0	96	96	6
EXSTR	53	336	5
NMSLL	53	336	5	96	96	7
NMTAP	54	192	0
NMTAP	54	216	7
NMTAP	54	240	0
NMTAP	54	264	7
BRTAP	54	288	1
BRTAP	54	288	6
EXTAP	55	0	3
EXTAP	55	0	5
NMTAP	55	48	1
NMTAP	55	96	3
NMTAP	55	96	5
NMTAP	55	144	1
NMTAP	55	192	2
NMTAP	55	192	3
NMTAP	55	240	0
NMTAP	55	288	2
NMTAP	55	288	3
NMTAP	55	336	0
NMTAP	56	0	2
NMTAP	56	0	4
NMTAP	56	48	6
NMTAP	56	96	2
NMTAP	56	96	4
NMTAP	56	144	6
NMTAP	56	192	4
NMTAP	56	192	5
NMTAP	56	240	7
NMTAP	56	288	4
NMTAP	56	288	5
NMTAP	56	336	7
BRTAP	57	0	0
BRTAP	57	0	6
NMSTR	57	48	1
NMSCR	57	48	1	96	48	4
NMTAP	57	96	0
NMTAP	57	144	7
NMSTR	57	240	6
NMSCL	57	240	6	96	48	3
NMTAP	57	288	7
NMTAP	57	336	0
NMSTR	58	48	1
NMSCR	58	48	1	96	48	4
NMTAP	58	96	0
NMTAP	58	144	7
NMSTR	58	240	6
NMSCL	58	240	6	96	48	3
NMTAP	58	288	7
NMTAP	58	336	0
NMSTR	59	0	0
BRSI_	59	0	0	96	48	4
NMTAP	59	96	0
NMSTR	59	96	6
NMSI_	59	96	6	96	48	2
NMTAP	59	144	7
NMSTR	59	192	1
NMSI_	59	192	1	96	48	5
NMTAP	59	240	0
NMSTR	59	288	4
NMSI_	59	288	4	96	48	0
NMTAP	59	336	3
NMSTR	60	0	2
NMSI_	60	0	2	96	48	6
NMTAP	60	48	1
NMSTR	60	96	7
BRSI_	60	96	7	96	48	5
NMTAP	60	144	0
NMTAP	60	192	3
NMTAP	60	240	2
CNSV_	60	240	5	0	48	4
NMTAP	60	288	1
CNSI_	60	288	4	0	48	2
NMTAP	60	336	0
BRSTR	61	0	7
NMSI_	61	0	7	96	48	3
NMSTR	61	96	1
NMSI_	61	96	1	96	48	5
NMTAP	61	96	7
NMSTR	61	192	0
NMSI_	61	192	0	96	48	4
NMTAP	61	192	1
NMTAP	61	288	0
NMSTR	61	288	2
NMSI_	61	288	2	96	48	6
BRTAP	62	0	2
BRTAP	62	0	5
NMSTR	62	96	4
NMSCR	62	96	4	96	48	7
NMSTR	62	144	4
NMSCL	62	144	4	96	48	1
NMSTR	62	192	4
NMSI_	62	192	4	96	48	0
NMSTR	63	0	1
NMSLR	63	0	1	96	48	7
NMSTR	63	0	6
NMSLL	63	0	6	96	48	0
BRTAP	63	96	1
BRTAP	63	96	6

T_REC_TAP	289
T_REC_BRK	26
T_REC_XTP	46
T_REC_BXX	10
T_REC_HLD	16
T_REC_XHO	7
T_REC_BHO	1
T_REC_BXH	0
T_REC_STR	57
T_REC_BST	1
T_REC_XST	10
T_REC_XBS	0
T_REC_TTP	10
T_REC_THO	1
T_REC_SLD	65
T_REC_BSL	3
T_REC_ALL	542
T_NUM_TAP	412
T_NUM_BRK	41
T_NUM_HLD	24
T_NUM_SLD	65
T_NUM_ALL	542
T_JUDGE_TAP	449
T_JUDGE_HLD	85
T_JUDGE_SLD	68
T_JUDGE_ALL	602
TTM_EACHPAIRS	93
TTM_SCR_TAP	206000
TTM_SCR_BRK	106600
TTM_SCR_HLD	24000
TTM_SCR_SLD	97500
TTM_SCR_ALL	434100
TTM_SCR_S	417100
TTM_SCR_SS	430000
TTM_RAT_ACV	10095

