VERSION	0.00.00	1.05.00
FES_MODE	0
BPM_DEF	146.000	146.000	146.000	146.000
MET_DEF	4	4
RESOLUTION	384
CLK_DEF	384
COMPATIBLE_CODE	MA2

BPM	0	0	146.000
MET	0	0	4	4

BXHLD	2	0	5	720
NMHLD	2	192	3	528
BXTAP	4	0	2
BXTAP	4	0	4
BXHLD	4	144	1	528
EXHLD	5	0	3	288
BXSTR	6	0	1
NMSI_	6	0	1	96	96	4
EXSTR	6	192	6
NMSI_	6	192	6	96	72	4
CNSV_	6	360	4	0	96	3
CNSI_	7	72	3	0	72	1
BXTAP	7	336	1
BXTAP	7	336	3
BXTAP	8	0	1
BXTAP	8	0	3
BXTAP	8	144	4
BXTAP	8	144	6
BXSTR	8	288	0
NMSXL	8	288	0	96	288	3
BXSTR	8	288	7
NMSXR	8	288	7	96	288	4
NMTTP	10	192	4	E	1	M1
NMTAP	11	0	4
NMTAP	11	0	5
NMTAP	11	96	4
NMTAP	11	96	5
NMTAP	11	192	4
NMTAP	11	192	6
NMTAP	11	288	4
NMTAP	11	288	6
NMTAP	12	0	5
NMTAP	12	0	7
NMTAP	12	96	5
NMTAP	12	96	7
NMTAP	12	192	4
NMTAP	12	192	6
NMTAP	12	288	4
NMTAP	12	288	5
NMTAP	13	0	2
NMTAP	13	0	3
NMTAP	13	96	2
NMTAP	13	96	3
EXTAP	13	192	1
EXTAP	13	192	3
NMTAP	13	288	1
NMTAP	13	288	3
NMTAP	14	0	0
NMTAP	14	0	2
NMTAP	14	96	0
NMTAP	14	96	2
EXTAP	14	192	0
EXTAP	14	192	1
EXTAP	14	240	0
EXTAP	14	240	1
EXTAP	14	288	0
EXTAP	14	288	1
BXTAP	15	0	0
BXTAP	15	0	7
NMTAP	15	96	6
NMTAP	15	96	7
NMHLD	15	192	4	96
NMHLD	15	192	5	96
NMTAP	16	0	2
NMTAP	16	0	3
NMSTR	16	96	0
NMSCL	16	96	0	96	96	5
NMSTR	16	96	1
NMSCR	16	96	1	96	96	4
EXTAP	17	0	3
EXTAP	17	0	4
NMTAP	17	96	1
NMTAP	17	96	3
NMTAP	17	192	4
NMTAP	17	192	6
NMSTR	17	288	4
NMSUL	17	288	4	96	96	0
NMSTR	17	288	5
NMSXL	17	288	5	96	96	7
EXTAP	18	240	0
EXTAP	18	240	7
BXTAP	18	288	0
BXTAP	18	288	7
NMHLD	19	0	6	480
NMTAP	19	96	4
NMTAP	19	192	7
NMTAP	19	240	7
NMTAP	19	288	7
NMTAP	20	0	4
NMTAP	20	96	5
NMTAP	20	192	7
NMTAP	20	288	0
NMHLD	21	0	1	480
NMTAP	21	96	3
NMTAP	21	192	0
NMTAP	21	240	0
NMTAP	21	288	0
NMTAP	22	0	3
NMTAP	22	96	2
NMTAP	22	192	7
NMTAP	22	240	7
NMTAP	22	288	0
BXTAP	23	0	5
NMTAP	23	96	6
NMTAP	23	144	6
NMTAP	23	192	4
NMHLD	23	240	4	96
NMHLD	23	336	3	96
NMTAP	24	48	1
BXSTR	24	96	1
BRSCL	24	96	1	96	192	3
NMHLD	25	96	7	96
NMTAP	25	192	4
NMHLD	25	240	4	96
BXSTR	25	336	6
BRSF_	25	336	6	96	96	2
EXTAP	26	240	0
BXTAP	26	288	0
NMSTR	27	0	1
NMSCL	27	0	1	96	192	6
NMSTR	28	0	5
NMSCL	28	0	5	96	192	2
NMSTR	29	0	1
NMSI_	29	0	1	96	192	6
NMSTR	30	0	5
NMSI_	30	0	5	96	192	2
NMTTP	31	0	1	E	0	M1
NMTTP	31	96	2	E	0	M1
NMTTP	31	192	3	E	0	M1
NMTTP	31	288	4	E	0	M1
NMTTP	32	0	5	E	0	M1
NMTTP	32	96	6	E	0	M1
NMTTP	32	192	7	E	0	M1
EXSTR	32	288	0
NMSXR	32	288	0	96	288	4
EXTAP	34	0	5
NMTAP	34	96	4
NMTAP	34	192	3
NMTAP	34	288	2
NMHLD	35	0	2	96
NMHLD	35	0	4	96
NMHLD	35	192	3	96
NMHLD	35	192	5	96
NMTAP	36	0	4
NMTAP	36	0	6
NMTAP	36	96	4
NMTAP	36	96	5
NMTAP	36	192	1
NMTAP	36	192	3
NMTAP	36	288	2
NMTAP	36	288	3
BXTAP	37	0	1
NMTAP	37	48	1
NMTAP	37	96	7
NMTAP	37	144	7
NMTAP	37	192	0
NMTAP	37	240	0
NMTAP	37	288	6
NMTTP	38	0	0	C	1	M1
NMTTP	38	0	2	B	0	M1
NMTTP	38	0	2	E	0	M1
NMTTP	38	0	5	B	0	M1
NMTTP	38	0	6	E	0	M1
BRTAP	38	288	0
BRTAP	38	288	7
NMSTR	39	0	6
NMSI_	39	0	6	96	48	3
NMSTR	39	0	7
NMSI_	39	0	7	96	48	3
EXHLD	39	192	1	72
NMHLD	39	264	2	72
NMTAP	39	336	3
NMTAP	40	48	0
NMTAP	40	48	1
NMTAP	40	96	0
NMTAP	40	96	1
NMTAP	40	192	2
NMTAP	40	192	7
NMSTR	40	288	0
NMSSL	40	288	0	96	144	4
EXHLD	41	192	6	72
NMHLD	41	264	5	72
NMTAP	41	336	4
NMTAP	42	48	2
NMTAP	42	48	3
NMTAP	42	96	2
NMTAP	42	96	3
NMTAP	42	192	1
NMTAP	42	192	2
EXTAP	42	288	0
EXTAP	42	288	3
EXTAP	42	336	0
EXTAP	42	336	3
NMTAP	43	48	1
NMTAP	43	96	1
NMTAP	43	144	3
NMTAP	43	240	6
NMTAP	43	288	6
NMTAP	43	336	4
NMTAP	44	48	3
NMTAP	44	48	5
NMTAP	44	96	3
NMTAP	44	96	5
NMHLD	44	192	2	96
NMHLD	44	288	0	96
NMHLD	45	0	7	96
NMTAP	45	96	5
NMTAP	45	144	5
NMHLD	45	240	4	96
NMHLD	45	240	5	96
NMTAP	46	48	6
NMTAP	46	48	7
NMTAP	46	96	6
NMTAP	46	96	7
NMTAP	46	192	0
NMTAP	46	192	1
NMTAP	46	288	2
NMTAP	46	288	3
BRSTR	47	0	1
NMSI_	47	0	1	96	48	6
BRSTR	47	0	5
NMSI_	47	0	5	96	48	2
BXHLD	47	192	0	72
BXHLD	47	192	4	72
EXTAP	47	336	1
EXTAP	47	336	3
NMTAP	48	48	4
NMTAP	48	48	6
NMTAP	48	96	4
NMTAP	48	96	6
NMTAP	48	192	3
NMTAP	48	192	7
NMSTR	48	288	6
NMSV_	48	288	6	96	96	4
CNSI_	49	96	4	0	48	2
EXHLD	49	192	1	72
NMHLD	49	264	2	72
NMTAP	49	336	3
NMTAP	50	48	0
NMTAP	50	48	1
NMTAP	50	96	0
NMTAP	50	96	1
NMTAP	50	192	6
NMTAP	50	192	7
NMTAP	50	288	4
NMTAP	50	288	5
NMHLD	51	0	6	64
EXTAP	51	64	4
EXTAP	51	96	4
NMHLD	51	192	1	64
EXTAP	51	256	3
EXTAP	51	288	3
NMTAP	52	0	1
NMTAP	52	0	3
NMTAP	52	64	0
NMTAP	52	64	7
NMTAP	52	96	0
NMTAP	52	96	7
NMTAP	52	160	4
NMTAP	52	160	6
NMTAP	52	192	4
NMTAP	52	192	6
EXTAP	52	288	0
EXTAP	52	288	7
NMTAP	53	48	6
NMHLD	53	96	6	96
NMTAP	53	192	4
NMTAP	53	288	2
NMTAP	53	288	4
NMSTR	53	336	2
NMSCL	53	336	2	96	240	4
NMSTR	53	336	4
NMSCR	53	336	4	96	240	2
BRTAP	55	0	1
BRHLD	55	0	5	384
NMTAP	55	192	4
NMTAP	55	288	2
NMHLD	56	0	1	288
NMTAP	56	192	7
NMTAP	56	288	6
NMTAP	57	0	6
NMTAP	57	0	7
NMTAP	57	96	3
NMTAP	57	192	0
NMTAP	57	192	1
NMTAP	57	288	4
NMTAP	58	0	6
NMTAP	58	0	7
NMTAP	58	96	3
NMHLD	58	192	0	96
NMHLD	58	192	1	96
NMTTP	59	0	1	B	1	M1
NMTTP	59	0	2	B	0	M1
NMTTP	59	0	3	B	0	M1
NMTAP	59	96	6
NMTAP	59	144	6
NMTAP	59	192	4
NMTAP	59	240	4
NMTAP	59	288	5
NMTAP	59	336	5
NMTAP	60	0	1
NMTAP	60	48	1
NMTAP	60	96	3
NMTAP	60	144	3
NMTAP	60	192	2
NMTAP	60	288	0
NMTAP	60	288	1
NMHLD	61	0	6	48
NMHLD	61	0	7	48
NMHLD	61	96	3	48
NMHLD	61	96	5	48
NMHLD	61	192	0	48
NMHLD	61	192	1	48
NMHLD	61	288	2	48
NMHLD	61	288	4	48
NMHLD	62	0	6	48
NMHLD	62	0	7	48
NMHLD	62	96	0	48
NMHLD	62	96	1	48
NMSTR	62	192	3
NMSXR	62	192	3	96	48	1
BRSTR	62	192	4
NMSXL	62	192	4	96	48	6
NMTAP	63	96	0
BRTAP	63	96	7

T_REC_TAP	163
T_REC_BRK	4
T_REC_XTP	26
T_REC_BXX	15
T_REC_HLD	39
T_REC_XHO	4
T_REC_BHO	1
T_REC_BXH	4
T_REC_STR	15
T_REC_BST	3
T_REC_XST	2
T_REC_XBS	5
T_REC_TTP	16
T_REC_THO	0
T_REC_SLD	23
T_REC_BSL	2
T_REC_ALL	322
T_NUM_TAP	222
T_NUM_BRK	34
T_NUM_HLD	43
T_NUM_SLD	23
T_NUM_ALL	322
T_JUDGE_TAP	249
T_JUDGE_HLD	145
T_JUDGE_SLD	25
T_JUDGE_ALL	419
TTM_EACHPAIRS	88
TTM_SCR_TAP	111000
TTM_SCR_BRK	88400
TTM_SCR_HLD	43000
TTM_SCR_SLD	34500
TTM_SCR_ALL	276900
TTM_SCR_S	265300
TTM_SCR_SS	273500
TTM_RAT_ACV	10124

