VERSION	0.00.00	1.05.00
FES_MODE	0
BPM_DEF	148.000	148.000	148.000	148.000
MET_DEF	4	4
RESOLUTION	384
CLK_DEF	384
COMPATIBLE_CODE	MA2

BPM	0	0	148.000
MET	0	0	4	4

EXHLD	1	240	3	336
BXHLD	1	312	4	264
NMTTP	2	288	4	E	0	M1
NMTAP	3	48	5
NMTAP	3	96	4
NMTAP	3	144	3
NMHLD	3	192	2	192
NMTAP	3	288	3
NMHLD	4	0	5	96
NMHLD	4	96	4	96
NMHLD	4	192	3	96
NMTAP	4	288	2
NMTAP	5	0	1
NMTAP	5	0	3
NMTAP	5	96	1
NMTAP	5	96	3
NMTAP	5	192	2
NMTAP	5	240	2
NMTAP	5	288	4
NMTAP	5	336	4
NMTAP	6	0	3
NMTAP	6	48	3
NMTAP	6	96	5
NMTAP	6	120	4
NMTAP	6	144	5
NMSTR	6	192	2
NMSI_	6	192	2	96	48	7
NMSTR	6	192	6
NMSI_	6	192	6	96	48	3
NMTAP	6	288	2
NMTAP	6	288	6
BXTAP	7	0	0
BXTAP	7	0	4
NMTAP	7	48	1
NMHLD	7	72	1	48
NMTAP	7	120	3
NMTAP	7	168	2
NMTAP	7	168	4
NMTAP	7	216	5
NMTAP	7	240	5
NMTAP	7	264	4
NMTAP	7	288	6
NMTAP	7	336	4
NMTAP	7	336	6
NMHLD	8	0	3	24
NMHLD	8	0	5	24
NMHLD	8	48	3	24
NMHLD	8	48	5	24
NMTAP	8	120	4
NMTAP	8	144	4
NMTAP	8	192	2
NMTAP	8	216	3
NMTAP	8	240	2
BRTAP	8	288	0
BRTAP	8	288	1
NMHLD	9	0	1	48
NMHLD	9	48	3	48
NMTAP	9	96	2
NMTAP	9	120	3
NMTAP	9	144	2
NMHLD	9	192	6	48
NMHLD	9	240	4	48
NMTAP	9	288	5
NMTAP	9	312	4
NMTAP	9	336	5
NMTAP	10	0	3
NMTAP	10	0	6
NMTAP	10	48	2
NMTAP	10	96	1
NMTAP	10	96	4
NMHLD	10	144	2	48
NMHLD	10	144	3	48
EXTAP	10	240	0
EXTAP	10	240	1
BXTAP	10	288	2
BXTAP	10	288	7
BXTAP	11	0	4
BXTAP	11	0	5
NMTAP	11	48	6
NMHLD	11	72	6	48
NMTAP	11	120	4
NMTAP	11	168	3
NMTAP	11	168	5
NMTAP	11	216	2
NMTAP	11	240	2
NMTAP	11	264	3
NMTAP	11	288	1
NMTAP	11	336	1
NMTAP	11	336	3
NMHLD	12	0	2	24
NMHLD	12	0	4	24
NMHLD	12	48	2	24
NMHLD	12	48	4	24
NMTAP	12	120	3
NMTAP	12	144	3
NMTAP	12	168	5
NMHLD	12	192	5	72
NMTAP	12	264	4
NMTAP	12	288	5
BRTAP	12	336	4
BRTAP	12	336	6
NMHLD	13	0	7	48
NMHLD	13	48	4	48
EXTAP	13	96	6
EXTAP	13	120	5
EXTAP	13	144	4
NMHLD	13	192	2	48
NMHLD	13	240	3	48
EXTAP	13	288	2
EXTAP	13	312	1
EXTAP	13	336	0
NMHLD	14	0	1	48
NMTAP	14	48	3
NMTAP	14	72	2
NMTAP	14	120	4
NMTAP	14	120	5
NMTAP	14	168	3
NMTAP	14	168	6
NMTAP	14	192	3
NMTAP	14	192	6
NMTAP	14	240	0
NMTAP	14	240	7
BRTAP	14	288	1
BRTAP	14	288	5
NMSTR	15	0	1
NMSCR	15	0	1	96	48	4
NMSTR	15	96	5
NMSCR	15	96	5	96	48	0
NMSTR	15	192	2
NMSCR	15	192	2	96	48	5
NMTAP	15	240	1
NMSTR	15	288	7
BRSXL	15	288	7	96	96	7
BRSXR	15	288	7	96	96	7
NMTAP	15	312	7
EXTAP	16	144	0
EXTAP	16	144	6
EXTAP	16	192	0
EXTAP	16	192	6
NMTAP	16	288	1
NMHLD	16	336	1	48
NMTAP	17	0	3
NMHLD	17	48	3	48
NMTAP	17	96	4
NMHLD	17	144	4	48
NMTAP	17	192	6
NMTAP	17	288	5
NMTAP	17	288	7
NMTAP	17	336	6
NMTAP	18	0	4
NMTAP	18	0	5
NMTAP	18	48	3
NMTAP	18	48	4
NMTAP	18	96	2
NMTAP	18	96	3
NMTAP	18	144	1
NMTAP	18	192	0
NMTAP	18	192	2
NMTAP	18	288	1
NMSTR	18	288	3
NMSCR	18	288	3	96	96	0
NMTAP	18	336	0
NMSTR	19	0	0
NMSCL	19	0	0	96	96	3
NMTAP	19	96	3
NMTAP	19	192	1
NMHLD	19	240	1	48
NMTAP	19	288	3
NMTAP	19	312	2
EXTAP	19	360	4
EXTAP	19	360	5
BXTAP	20	24	3
BXTAP	20	24	6
EXTAP	20	144	0
EXTAP	20	144	1
BXTAP	20	192	2
BXTAP	20	192	7
NMSTR	20	288	1
NMSI_	20	288	1	96	48	6
NMTAP	20	336	1
NMSTR	21	0	5
NMSI_	21	0	5	96	48	2
NMTAP	21	48	5
NMSTR	21	96	0
NMSI_	21	96	0	96	48	4
NMTAP	21	144	0
NMTAP	21	192	7
NMTAP	21	288	5
NMTAP	21	336	5
NMHLD	22	0	6	48
NMHLD	22	0	7	48
NMHLD	22	72	4	48
NMHLD	22	72	5	48
NMHLD	22	144	2	48
NMHLD	22	144	3	48
NMHLD	22	216	0	48
NMHLD	22	216	1	48
NMTAP	22	288	6
NMTAP	22	288	7
NMTAP	22	336	0
NMTAP	22	336	5
BRHLD	23	0	0	48
BRSTR	23	0	5
NMSXL	23	0	5	96	480	4
NMTTP	23	192	6	B	0	M1
NMTTP	23	192	7	B	0	M1
NMTTP	24	0	1	E	0	M1
NMTTP	24	96	0	C	0	M1
NMTTP	24	192	3	E	0	M1
BXTAP	24	288	0
NMSTR	25	0	2
NMSXR	25	0	2	96	480	3
NMHLD	25	0	3	48
NMTTP	25	192	0	B	0	M1
NMTTP	25	192	1	B	0	M1
NMTTP	26	0	7	E	0	M1
NMTTP	26	96	6	E	0	M1
NMTTP	26	192	4	B	0	M1
NMTTP	26	192	5	E	0	M1
NMTHO	27	0	0	48	C	0	M1
NMHLD	27	0	7	48
NMTHO	27	192	0	48	E	0	M1
NMHLD	27	192	1	48
NMTHO	28	0	4	48	B	0	M1
NMTHO	28	0	5	48	E	0	M1
NMHLD	28	0	6	48
NMHLD	28	192	0	48
NMTHO	28	192	2	48	B	0	M1
NMTHO	28	192	3	48	E	0	M1
NMTAP	29	0	7
NMHLD	29	48	7	144
NMTAP	29	144	4
EXTAP	29	192	5
NMTAP	29	288	4
NMTAP	29	288	6
NMTAP	30	0	0
NMHLD	30	48	0	144
NMTAP	30	144	3
EXTAP	30	192	2
NMTAP	30	288	1
NMTAP	30	288	3
NMHLD	31	0	2	48
NMTAP	31	48	3
NMTAP	31	72	2
NMTAP	31	120	3
NMTAP	31	120	4
NMTAP	31	168	4
NMTAP	31	168	5
NMTAP	31	216	6
NMTAP	31	240	6
NMTAP	31	264	4
NMSTR	31	288	5
NMSUR	31	288	5	96	192	7
BXSTR	32	288	3
NMSCL	32	288	3	96	48	0
BXSTR	32	288	7
NMSUL	32	288	7	96	48	3
NMSTR	33	0	3
NMSCR	33	0	3	96	48	6
NMSTR	33	0	7
NMSUR	33	0	7	96	48	3
NMSTR	33	96	3
NMSCL	33	96	3	96	48	0
NMSTR	33	96	7
NMSUL	33	96	7	96	48	3
NMTAP	33	192	3
NMTAP	33	192	7
EXTAP	33	288	0
EXTAP	33	288	4
NMTAP	33	336	5
NMTAP	34	0	6
NMSTR	34	0	7
NMSI_	34	0	7	96	48	3
NMSTR	34	96	6
NMSI_	34	96	6	96	48	2
NMTAP	34	96	7
NMTAP	34	144	5
NMSTR	34	192	6
NMSCL	34	192	6	96	48	3
NMSTR	34	192	7
NMSI_	34	192	7	96	48	4
NMTAP	34	240	0
NMTAP	34	288	6
NMTAP	34	288	7
BXSTR	35	0	0
NMSI_	35	0	0	96	48	4
BXTAP	35	0	1
NMTAP	35	96	0
NMSTR	35	96	1
NMSI_	35	96	1	96	48	5
NMTAP	35	144	2
NMSTR	35	192	0
NMSI_	35	192	0	96	48	3
NMSTR	35	192	1
NMSCR	35	192	1	96	48	4
NMTAP	35	240	7
NMSTR	35	288	0
NMSCL	35	288	0	96	48	5
NMSTR	35	288	1
NMSI_	35	288	1	96	48	6
BRTAP	36	0	0
BRTAP	36	0	1
EXHLD	36	96	4	96
NMTAP	36	192	7
NMTAP	36	240	7
BRTAP	36	288	1
BRTAP	36	288	6
NMTAP	37	0	0
NMTAP	37	0	7
NMHLD	37	48	0	48
EXTAP	37	48	1
EXTAP	37	64	2
EXTAP	37	80	3
EXTAP	37	144	6
NMHLD	37	144	7	48
EXTAP	37	160	5
EXTAP	37	176	4
NMTAP	37	240	1
NMTAP	37	264	0
NMTAP	37	312	2
NMTAP	37	312	3
NMTAP	37	360	5
NMTAP	38	0	4
NMTAP	38	48	6
NMHLD	38	72	6	48
NMTAP	38	120	4
NMTAP	38	144	5
NMTAP	38	168	2
NMSTR	38	192	3
NMSI_	38	192	3	96	48	7
NMSTR	38	240	1
NMSCR	38	240	1	96	48	4
NMTAP	38	288	3
NMTAP	38	336	1
NMSTR	39	0	0
NMSXR	39	0	0	96	48	6
NMSTR	39	96	0
NMSXL	39	96	0	96	48	2
NMTAP	39	96	1
NMSTR	39	192	0
NMSI_	39	192	0	96	48	4
NMTAP	39	192	7
NMSTR	39	288	0
NMSF_	39	288	0	96	48	4
NMTAP	39	288	1
NMTAP	40	0	0
NMTAP	40	96	2
NMTAP	40	96	7
NMSTR	40	192	0
NMSI_	40	192	0	96	48	5
NMSTR	40	192	6
NMSI_	40	192	6	96	48	3
NMTAP	40	240	1
NMTAP	40	240	5
BRTAP	40	288	0
BRTAP	40	288	6
NMTAP	41	0	0
NMTAP	41	0	4
NMTAP	41	48	1
NMTAP	41	48	3
NMTAP	41	72	1
NMTAP	41	72	3
NMTAP	41	120	2
NMSTR	41	168	3
NMSV_	41	168	3	96	48	0
NMTAP	41	216	2
NMTAP	41	240	2
NMTAP	41	264	3
BRTAP	41	288	1
NMHLD	42	0	0	24
NMHLD	42	0	1	24
NMHLD	42	48	2	24
NMHLD	42	48	7	24
NMTAP	42	120	1
NMTAP	42	144	0
NMTAP	42	192	2
NMTAP	42	216	3
NMTAP	42	240	2
BRTAP	42	288	1
BRTAP	42	288	4
NMTAP	43	0	3
NMTAP	43	0	6
NMTAP	43	48	3
NMTAP	43	48	6
NMHLD	43	96	4	24
NMHLD	43	96	5	24
NMHLD	43	144	4	24
NMHLD	43	144	5	24
EXTAP	43	192	3
EXTAP	43	192	6
NMTAP	43	240	3
NMTAP	43	240	6
NMTAP	43	288	5
NMTAP	43	312	5
NMHLD	43	336	4	48
NMTAP	44	0	7
NMTAP	44	48	6
NMTAP	44	96	4
NMTAP	44	96	5
NMSTR	44	144	3
NMSI_	44	144	3	96	48	0
EXTAP	44	240	3
EXTAP	44	288	4
NMTAP	45	0	0
NMTAP	45	0	4
NMTAP	45	48	1
NMHLD	45	72	1	48
NMTAP	45	120	3
NMSTR	45	168	2
NMSV_	45	168	2	96	48	0
NMTAP	45	216	3
NMTAP	45	240	3
NMTAP	45	264	2
BRTAP	45	288	4
NMHLD	46	0	1	24
NMHLD	46	0	3	24
NMHLD	46	48	1	24
NMHLD	46	48	3	24
NMTAP	46	120	2
NMHLD	46	144	2	48
NMHLD	46	192	3	72
NMTAP	46	264	1
NMTAP	46	288	1
BRTAP	46	336	0
BRTAP	46	336	4
NMTAP	47	0	5
NMTAP	47	48	5
NMHLD	47	96	4	24
NMHLD	47	96	6	24
NMHLD	47	144	4	24
NMHLD	47	144	6	24
NMTAP	47	192	5
NMTAP	47	192	7
NMTAP	47	240	5
NMTAP	47	240	7
NMSTR	47	288	6
NMSUL	47	288	6	96	192	3
NMSUR	47	288	6	96	192	1
NMTAP	47	312	6
NMTAP	47	336	6
BXSTR	48	288	0
NMSCR	48	288	0	96	48	3
BXSTR	48	288	4
NMSUR	48	288	4	96	48	0
NMSTR	49	0	0
NMSCL	49	0	0	96	48	5
NMSTR	49	0	4
NMSUL	49	0	4	96	48	0
NMSTR	49	96	0
NMSCR	49	96	0	96	48	3
NMSTR	49	96	4
NMSUR	49	96	4	96	48	0
NMTAP	49	192	0
NMTAP	49	192	4
EXTAP	49	288	2
EXTAP	49	288	7
NMTAP	49	336	1
NMTAP	49	336	6
NMSTR	50	0	0
NMSCR	50	0	0	96	48	3
NMTAP	50	0	5
NMSTR	50	96	0
NMSI_	50	96	0	96	48	5
NMSTR	50	144	6
NMSI_	50	144	6	96	48	3
NMSTR	50	192	0
NMSLR	50	192	0	96	48	4
NMTAP	50	240	6
NMTAP	50	288	0
NMTAP	50	336	6
NMTAP	51	0	2
NMSTR	51	0	7
NMSCL	51	0	7	96	48	4
NMSTR	51	96	7
NMSI_	51	96	7	96	48	2
NMSTR	51	144	1
NMSI_	51	144	1	96	48	4
NMSTR	51	192	7
NMSLL	51	192	7	96	48	3
NMTAP	51	240	1
NMTAP	51	288	7
NMTAP	51	336	2
BRTAP	52	0	0
BRTAP	52	0	4
NMTAP	52	96	5
NMTAP	52	96	7
NMSTR	52	192	0
NMSI_	52	192	0	96	48	4
NMSTR	52	192	1
NMSI_	52	192	1	96	48	5
NMTAP	52	240	2
NMTAP	52	240	7
NMTAP	52	288	0
NMTAP	52	288	1
NMTAP	53	0	3
NMTAP	53	0	6
NMTAP	53	48	2
NMTAP	53	72	2
NMTAP	53	96	3
NMTAP	53	144	4
NMTAP	53	144	5
NMTAP	53	192	6
NMTAP	53	192	7
NMTAP	53	240	1
NMTAP	53	264	0
NMTAP	53	312	2
NMTAP	53	336	3
NMTAP	54	0	0
NMTAP	54	0	1
NMTAP	54	48	5
NMTAP	54	72	4
NMTAP	54	120	6
NMTAP	54	144	6
NMTAP	54	168	7
NMSTR	54	192	5
NMSI_	54	192	5	96	48	0
NMSTR	54	240	1
NMSCL	54	240	1	96	96	3
NMTAP	54	288	5
BRTAP	54	336	1
NMTAP	55	96	0
NMTAP	55	96	1
NMTAP	55	144	2
NMTAP	55	192	4
NMTAP	55	192	5
NMTAP	55	240	6
BRTAP	55	288	0
BRTAP	55	288	7
NMTAP	56	0	1
NMTAP	56	24	3
NMHLD	56	48	1	48
NMTAP	56	96	0
NMHLD	56	120	0	48
NMTAP	56	168	2
NMTAP	56	216	1
NMTAP	56	216	3
NMTAP	56	264	4
NMTAP	56	264	6
NMTAP	56	312	0
NMTAP	56	312	7
EXTAP	56	360	6
EXTAP	57	0	0
NMTAP	57	12	1
NMTAP	57	24	2
NMTAP	57	36	3
NMTAP	57	48	4
NMTAP	57	60	5
NMTAP	57	72	6
NMTAP	57	84	7
NMTAP	57	96	0
NMTAP	57	108	1
NMTAP	57	120	2
NMTAP	57	132	3
NMTAP	57	144	4
NMTAP	57	156	5
NMTAP	57	168	6
NMTAP	57	180	7
NMTAP	57	192	0
NMTAP	57	204	1
NMTAP	57	216	2
NMTAP	57	228	3
NMTAP	57	240	4
NMTAP	57	252	5
NMTAP	57	264	6
NMTAP	57	276	7
NMTAP	57	288	0
NMTAP	57	300	1
NMTAP	57	312	2
NMTAP	57	324	3
NMTAP	57	336	4
NMTAP	57	348	5
NMTAP	57	360	6
NMTAP	57	372	7
NMSTR	58	0	0
NMSUR	58	0	0	96	48	4
NMTAP	58	0	4
NMTAP	58	96	0
NMSTR	58	96	6
NMSUR	58	96	6	96	48	2
NMTAP	58	144	5
NMSTR	58	192	6
NMSCL	58	192	6	96	48	3
NMSTR	58	192	7
NMSI_	58	192	7	96	48	4
NMTAP	58	240	0
NMTAP	58	288	6
NMTAP	58	288	7
BRTAP	59	0	2
BRSTR	59	0	7
NMSUL	59	0	7	96	48	3
EXSTR	59	96	1
NMSUL	59	96	1	96	48	5
EXTAP	59	96	7
NMTAP	59	144	2
NMSTR	59	192	0
NMSI_	59	192	0	96	48	3
NMSTR	59	192	1
NMSCR	59	192	1	96	48	4
NMTAP	59	240	7
NMSTR	59	288	0
NMSCL	59	288	0	96	48	5
NMSTR	59	288	1
NMSI_	59	288	1	96	48	6
BRTAP	60	0	0
BRTAP	60	0	1
NMHLD	60	96	7	96
NMTAP	60	192	5
NMTAP	60	240	3
NMTAP	60	240	7
BRTAP	60	288	1
BRTAP	60	288	5
NMTAP	61	0	0
NMTAP	61	0	7
EXTAP	61	48	6
NMHLD	61	48	7	48
EXTAP	61	64	5
EXTAP	61	80	4
NMHLD	61	144	0	48
EXTAP	61	144	1
EXTAP	61	160	2
EXTAP	61	176	3
NMTAP	61	240	6
NMTAP	61	264	7
NMTAP	61	312	4
NMTAP	61	312	5
NMTAP	61	360	2
NMTAP	62	0	3
NMTAP	62	48	1
NMHLD	62	72	1	48
NMTAP	62	120	3
NMTAP	62	144	2
NMTAP	62	168	5
NMSTR	62	192	4
NMSI_	62	192	4	96	48	0
NMSTR	62	240	6
NMSCL	62	240	6	96	48	3
NMTAP	62	288	4
NMTAP	62	336	6
BRTAP	63	0	7
NMTAP	63	96	0
NMTAP	63	96	6
NMTAP	63	144	1
NMTAP	63	144	2
NMTAP	63	192	4
NMTAP	63	192	5
NMTAP	63	240	6
NMSTR	63	240	7
NMSCL	63	240	7	96	144	0
NMTAP	63	288	0
NMTAP	63	288	1
NMTTP	63	336	2	B	1	M1
NMTTP	63	336	2	E	0	M1
NMTTP	63	336	3	E	0	M1
EXTAP	64	96	7
NMSTR	64	192	0
NMSI_	64	192	0	96	48	4
NMSTR	64	192	6
NMSI_	64	192	6	96	48	3
NMTAP	64	240	1
NMTAP	64	240	5
BRTAP	64	288	0
BRTAP	64	288	6
EXTAP	65	0	2
EXTAP	65	0	5
NMTAP	65	48	1
NMHLD	65	72	1	48
NMHLD	65	120	3	48
NMTAP	65	168	2
NMTAP	65	216	5
NMTAP	65	240	4
NMTAP	65	264	5
NMTAP	65	288	4
NMTAP	65	336	3
NMTAP	65	336	6
NMTAP	66	0	5
NMTAP	66	24	5
NMTAP	66	48	4
NMHLD	66	72	6	48
NMTAP	66	120	0
NMTAP	66	144	7
NMTAP	66	192	1
NMTAP	66	216	3
NMTAP	66	240	2
BRTAP	66	288	0
BRTAP	66	288	4
NMHLD	67	0	6	48
NMTAP	67	48	7
NMHLD	67	96	4	24
NMHLD	67	96	5	24
NMHLD	67	144	4	24
NMHLD	67	144	5	24
NMHLD	67	192	2	48
NMTAP	67	240	3
NMTAP	67	288	1
NMTAP	67	312	1
NMTAP	67	336	0
NMTAP	68	0	6
NMTAP	68	0	7
NMTAP	68	48	5
NMTAP	68	96	0
NMTAP	68	96	7
NMTAP	68	144	6
NMSTR	68	192	0
NMSI_	68	192	0	96	48	4
NMSTR	68	192	1
NMSI_	68	192	1	96	48	4
NMTAP	68	240	2
BRTAP	68	288	0
BRTAP	68	288	1
EXTAP	69	0	2
EXTAP	69	0	3
NMTAP	69	48	1
NMHLD	69	72	1	48
NMTAP	69	120	0
NMTAP	69	168	0
NMTAP	69	168	7
NMTAP	69	216	6
NMTAP	69	240	7
NMTAP	69	264	6
NMTAP	69	288	7
NMTAP	69	336	0
NMTAP	69	336	5
NMHLD	70	0	6	24
NMHLD	70	0	7	24
NMHLD	70	48	6	24
NMHLD	70	48	7	24
NMTAP	70	120	5
NMTAP	70	144	4
NMHLD	70	192	1	72
NMTAP	70	264	3
NMTAP	70	288	2
BRTAP	70	336	0
BRTAP	70	336	4
NMHLD	71	0	1	48
NMHLD	71	48	3	48
EXTAP	71	96	1
EXTAP	71	120	2
EXTAP	71	144	3
NMHLD	71	192	5	48
NMHLD	71	240	4	48
EXTAP	71	288	5
EXTAP	71	312	6
EXTAP	71	336	7
NMTAP	72	0	0
NMTAP	72	0	2
NMTAP	72	48	1
NMTAP	72	96	0
NMTAP	72	96	7
NMSTR	72	144	6
NMSV_	72	144	6	96	48	5
NMTAP	72	192	6
CNSI_	72	288	5	0	48	3
NMHLD	73	0	1	48
NMTAP	73	48	3
NMTAP	73	72	1
NMTAP	73	120	0
NMTAP	73	120	2
NMTAP	73	168	1
NMTAP	73	216	5
NMTAP	73	216	7
NMTAP	73	264	6
NMTAP	73	312	0
NMTAP	73	312	7
NMTAP	73	336	1
NMTAP	73	336	6
BRTAP	73	360	2
BRTAP	73	360	5

T_REC_TAP	385
T_REC_BRK	39
T_REC_XTP	52
T_REC_BXX	12
T_REC_HLD	95
T_REC_XHO	2
T_REC_BHO	1
T_REC_BXH	1
T_REC_STR	70
T_REC_BST	2
T_REC_XST	1
T_REC_XBS	5
T_REC_TTP	15
T_REC_THO	6
T_REC_SLD	78
T_REC_BSL	2
T_REC_ALL	766
T_NUM_TAP	523
T_NUM_BRK	62
T_NUM_HLD	103
T_NUM_SLD	78
T_NUM_ALL	766
T_JUDGE_TAP	581
T_JUDGE_HLD	131
T_JUDGE_SLD	80
T_JUDGE_ALL	792
TTM_EACHPAIRS	165
TTM_SCR_TAP	261500
TTM_SCR_BRK	161200
TTM_SCR_HLD	103000
TTM_SCR_SLD	117000
TTM_SCR_ALL	642700
TTM_SCR_S	617450
TTM_SCR_SS	636500
TTM_RAT_ACV	10097

